<svg xmlns="http://www.w3.org/2000/svg"><metadata>This is a custom SVG webfont generated by Font Squirrel. Copyright : Digitized data copyright 20102011 Google Corporation Foundry : Ascender Corporation Foundry URL : httpwwwascendercorpcom</metadata><defs><font id="OpenSansBoldItalic" horiz-adv-x="1217"><font-face ascent="1638" descent="-410" units-per-em="2048"/><glyph d="M-219 -225q61 -21 115 -21q61 0 107 40t65 130l204 965h-163l30 145l183 84l18 84q41 190 138.5 277.5t273.5 87.5q131 0 235 -49l-80 -224q-69 31 -133 31q-57 0 -92 -40t-47 -105l-12 -62h395l18 84q41 190 138.5 277.5t273.5 87.5q131 0 235 -49l-79 -224 q-69 31 -134 31q-57 0 -91.5 -40t-47.5 -105l-12 -62h219l-49 -229h-219l-215 -1010q-77 -371 -404 -371q-104 0 -174 25v242q61 -21 115 -21q136 0 172 170l205 965h-396l-215 -1010q-77 -371 -403 -371q-104 0 -174 25v242z" horiz-adv-x="1460" unicode="ﬀ"/><glyph d="M-219 -225q61 -21 115 -21q61 0 107 40t65 130l204 965h-163l30 145l183 84l18 84q41 190 138.5 277.5t273.5 87.5q131 0 235 -49l-80 -224q-69 31 -133 31q-57 0 -92 -40t-47 -105l-12 -62h219l-49 -229h-220l-215 -1010q-77 -371 -403 -371q-104 0 -174 25v242zM780 0 l237 1118h301l-237 -1118h-301zM1065 1380q0 87 47.5 131.5t134.5 44.5q73 0 111 -31t38 -89q0 -80 -44 -129.5t-136 -49.5q-151 0 -151 123z" horiz-adv-x="1352" unicode="ﬁ"/><glyph d="M-219 -225q61 -21 115 -21q61 0 107 40t65 130l204 965h-163l30 145l183 84l18 84q41 190 138.5 277.5t273.5 87.5q131 0 235 -49l-80 -224q-69 31 -133 31q-57 0 -92 -40t-47 -105l-12 -62h219l-49 -229h-220l-215 -1010q-77 -371 -403 -371q-104 0 -174 25v242zM780 0 l330 1556h301l-330 -1556h-301z" horiz-adv-x="1352" unicode="ﬂ"/><glyph d="M-219 -225q61 -21 115 -21q61 0 107 40t65 130l204 965h-163l30 145l183 84l18 84q41 190 138.5 277.5t273.5 87.5q131 0 235 -49l-80 -224q-69 31 -133 31q-57 0 -92 -40t-47 -105l-12 -62h395l18 84q41 190 138.5 277.5t273.5 87.5q131 0 235 -49l-79 -224 q-69 31 -134 31q-57 0 -91.5 -40t-47.5 -105l-12 -62h219l-49 -229h-219l-215 -1010q-77 -371 -404 -371q-104 0 -174 25v242q61 -21 115 -21q136 0 172 170l205 965h-396l-215 -1010q-77 -371 -403 -371q-104 0 -174 25v242zM1477 0l237 1118h301l-237 -1118h-301z M1761 1380q0 87 48 131.5t135 44.5q73 0 111 -31t38 -89q0 -80 -44 -129.5t-136 -49.5q-152 0 -152 123z" horiz-adv-x="2048" unicode="ﬃ"/><glyph d="M-219 -225q61 -21 115 -21q61 0 107 40t65 130l204 965h-163l30 145l183 84l18 84q41 190 138.5 277.5t273.5 87.5q131 0 235 -49l-80 -224q-69 31 -133 31q-57 0 -92 -40t-47 -105l-12 -62h395l18 84q41 190 138.5 277.5t273.5 87.5q131 0 235 -49l-79 -224 q-69 31 -134 31q-57 0 -91.5 -40t-47.5 -105l-12 -62h219l-49 -229h-219l-215 -1010q-77 -371 -404 -371q-104 0 -174 25v242q61 -21 115 -21q136 0 172 170l205 965h-396l-215 -1010q-77 -371 -403 -371q-104 0 -174 25v242zM1477 0l329 1556h301l-329 -1556h-301z" horiz-adv-x="2048" unicode="ﬄ"/><glyph horiz-adv-x="532"/><glyph horiz-adv-x="532"/><glyph horiz-adv-x="532"/><glyph d="M25 115q0 90 53.5 144t150.5 54q68 0 109 -38t41 -107q0 -87 -55 -141t-144 -54q-73 0 -114 37.5t-41 104.5zM150 485l157 977h340l-256 -977h-241z" horiz-adv-x="586" unicode="!"/><glyph d="M201 934l71 528h277l-152 -528h-196zM604 934l74 528h276l-151 -528h-199z" horiz-adv-x="928" unicode="&quot;"/><glyph d="M41 408l18 206h277l70 232h-252l18 209h289l119 407h217l-117 -407h199l116 407h215l-116 -407h239l-18 -209h-279l-69 -232h258l-19 -206h-297l-116 -408h-220l117 408h-194l-115 -408h-215l113 408h-238zM553 614h197l69 232h-196z" horiz-adv-x="1323" unicode="#"/><glyph d="M51 168v266q198 -107 404 -117l71 322q-163 61 -241 151t-78 214q0 173 127 279.5t350 121.5l35 151h139l-33 -151q166 -22 295 -90l-106 -232q-132 65 -242 74l-63 -299q131 -51 195 -99.5t97 -113t33 -149.5q0 -184 -125.5 -291.5t-367.5 -124.5l-39 -199h-140l44 201 q-209 12 -355 86zM502 1022q0 -79 80 -111l51 246q-62 -7 -96.5 -41t-34.5 -94zM594 322q63 9 102 45t39 98q0 46 -24.5 75.5t-59.5 43.5z" horiz-adv-x="1128" unicode="$"/><glyph d="M115 885q0 169 55.5 311.5t148.5 214.5t216 72q137 0 211.5 -80t74.5 -238q0 -166 -56 -310t-151 -217t-217 -73q-139 0 -210.5 83.5t-71.5 236.5zM231 0l1088 1462h235l-1083 -1462h-240zM360 868q0 -96 56 -96q65 0 112 131t47 275q0 96 -57 96q-63 0 -110.5 -128.5 t-47.5 -277.5zM973 283q0 177 53 322.5t148 219.5t219 74q137 0 211.5 -78.5t74.5 -230.5q0 -167 -54 -313.5t-148 -220.5t-215 -74q-144 0 -216.5 78.5t-72.5 222.5zM1219 285q0 -97 55 -97q41 0 77 55t59.5 154.5t23.5 196.5q0 96 -58 96q-39 0 -75 -56t-59 -154t-23 -195 z" horiz-adv-x="1753" unicode="%"/><glyph d="M68 358q0 145 78.5 248.5t273.5 200.5q-76 130 -76 258q0 195 117.5 307.5t316.5 112.5q169 0 266 -82.5t97 -224.5q0 -280 -365 -426l195 -263q44 57 80.5 121.5t78.5 173.5h300q-133 -313 -310 -497l205 -287h-350l-72 98q-175 -118 -403 -118q-209 0 -320.5 97.5 t-111.5 280.5zM383 387q0 -65 45.5 -108t116.5 -43q115 0 221 59l-225 328q-88 -51 -123 -104.5t-35 -131.5zM621 1085q0 -46 12 -92t29 -73q113 59 155.5 111t42.5 112q0 57 -30 82.5t-70 25.5q-66 0 -102.5 -46.5t-36.5 -119.5z" horiz-adv-x="1450" unicode="&amp;"/><glyph d="M201 934l71 528h277l-152 -528h-196z" horiz-adv-x="522" unicode="'"/><glyph d="M74 281q0 339 122.5 626.5t381.5 554.5h262q-255 -278 -377.5 -573.5t-122.5 -618.5q0 -308 117 -594h-234q-149 266 -149 605z" horiz-adv-x="694" unicode="("/><glyph d="M-147 -324q499 545 499 1192q0 307 -116 594h233q149 -264 149 -604q0 -342 -124 -630.5t-379 -551.5h-262z" horiz-adv-x="694" unicode=")"/><glyph d="M172 1141l86 237l338 -174l33 369l256 -51l-113 -353l387 29l-18 -254l-338 43l160 -336l-246 -73l-90 337l-197 -278l-207 164l275 248z" horiz-adv-x="1116" unicode="*"/><glyph d="M109 612v219h366v369h219v-369h367v-219h-367v-364h-219v364h-366z" horiz-adv-x="1128" unicode="+"/><glyph d="M-102 -264q74 167 194 502h285l8 -23q-118 -255 -262 -479h-225z" horiz-adv-x="569" unicode=","/><glyph d="M41 424l53 250h524l-53 -250h-524z" horiz-adv-x="659" unicode="-"/><glyph d="M25 115q0 90 53.5 144t150.5 54q68 0 109 -38t41 -107q0 -87 -55 -141t-144 -54q-73 0 -114 37.5t-41 104.5z" horiz-adv-x="584" unicode="."/><glyph d="M-90 0l809 1462h295l-809 -1462h-295z" horiz-adv-x="862" unicode="/"/><glyph d="M66 467q0 297 84 537t228 360.5t333 120.5q399 0 399 -473q0 -470 -168.5 -751t-472.5 -281q-198 0 -300.5 122t-102.5 365zM369 461q0 -115 27.5 -173.5t97.5 -58.5q81 0 150.5 106t116 301t46.5 386q0 111 -30.5 162t-92.5 51q-80 0 -149.5 -104t-117.5 -302t-48 -368z" horiz-adv-x="1128" unicode="0"/><glyph d="M182 1114l566 348h249l-309 -1462h-305l180 829q35 152 76 287q-9 -8 -61.5 -47t-262.5 -170z" horiz-adv-x="1128" unicode="1"/><glyph d="M-49 0l43 213l477 424q180 159 248.5 254.5t68.5 179.5q0 75 -41 114.5t-110 39.5q-66 0 -135.5 -33.5t-171.5 -118.5l-146 203q132 112 252 159.5t250 47.5q190 0 301 -98t111 -259q0 -107 -41 -201t-122.5 -188t-266.5 -245l-269 -222v-10h568l-54 -260h-962z" horiz-adv-x="1128" unicode="2"/><glyph d="M14 59v267q84 -50 182 -75.5t191 -25.5q158 0 243 63.5t85 176.5q0 172 -258 172h-138l46 221h73q167 0 263 62t96 172q0 67 -43 104t-121 37q-134 0 -287 -100l-127 204q124 81 232.5 113.5t246.5 32.5q190 0 298 -90.5t108 -243.5q0 -156 -94.5 -262t-261.5 -135v-4 q131 -26 198.5 -106.5t67.5 -201.5q0 -133 -74 -238t-212 -163.5t-327 -58.5q-239 0 -387 79z" horiz-adv-x="1128" unicode="3"/><glyph d="M-25 303l48 234l770 925h311l-195 -919h170l-51 -240h-170l-63 -303h-293l63 303h-590zM305 543h311l58 248q12 58 40 164t42 141h-6q-35 -63 -132 -181z" horiz-adv-x="1128" unicode="4"/><glyph d="M27 61v269q174 -99 352 -99q154 0 241 71t87 194q0 94 -57.5 141t-166.5 47q-102 0 -213 -33l-104 78l207 733h755l-55 -262h-489l-88 -293q72 15 127 15q183 0 289 -103t106 -287q0 -167 -71.5 -292t-208.5 -192.5t-330 -67.5q-117 0 -218.5 23t-162.5 58z" horiz-adv-x="1128" unicode="5"/><glyph d="M88 469q0 202 61 395.5t167.5 335t256.5 213.5t357 72q125 0 223 -27l-51 -246q-84 25 -191 25q-194 0 -313.5 -108t-185.5 -345h4q115 166 311 166q157 0 242.5 -97t85.5 -273q0 -169 -71 -313.5t-190.5 -215.5t-277.5 -71q-212 0 -320 127t-108 362zM383 422 q0 -91 40 -143t107 -52q99 0 161.5 94t62.5 236q0 71 -33.5 113.5t-102.5 42.5q-60 0 -114.5 -35.5t-87.5 -95.5t-33 -160z" horiz-adv-x="1128" unicode="6"/><glyph d="M78 0l737 1202h-629l56 260h975l-41 -194l-752 -1268h-346z" horiz-adv-x="1128" unicode="7"/><glyph d="M55 350q0 298 348 426q-165 132 -165 299q0 119 58 212.5t168 145.5t257 52q123 0 215.5 -42t141 -118t48.5 -174q0 -134 -80.5 -233.5t-230.5 -151.5q217 -141 217 -365q0 -122 -63.5 -218.5t-181 -149.5t-273.5 -53q-214 0 -336.5 100t-122.5 270zM352 383 q0 -81 50 -128.5t135 -47.5q93 0 147.5 53.5t54.5 138.5q0 73 -36.5 131.5t-120.5 112.5q-116 -45 -173 -107t-57 -153zM528 1094q0 -132 123 -201q185 72 185 221q0 68 -39.5 107t-102.5 39q-76 0 -121 -46.5t-45 -119.5z" horiz-adv-x="1128" unicode="8"/><glyph d="M86 12v256q111 -41 227 -41q121 0 207.5 49t144 138.5t99.5 257.5h-4q-111 -158 -295 -158q-163 0 -252.5 103.5t-89.5 285.5q0 166 73 305.5t196 208t286 68.5q203 0 308.5 -123t105.5 -361q0 -280 -99 -533t-264 -370.5t-403 -117.5q-128 0 -240 32zM424 928 q0 -87 37.5 -131.5t105.5 -44.5q60 0 111.5 36.5t82 100t30.5 158.5q0 84 -35.5 137t-110.5 53q-65 0 -115.5 -42t-78 -114t-27.5 -153z" horiz-adv-x="1128" unicode="9"/><glyph d="M25 115q0 90 53.5 144t150.5 54q68 0 109 -38t41 -107q0 -87 -55 -141t-144 -54q-73 0 -114 37.5t-41 104.5zM207 940q0 92 55.5 145.5t149.5 53.5q68 0 108.5 -38.5t40.5 -107.5q0 -86 -54.5 -140t-144.5 -54q-72 0 -113.5 36.5t-41.5 104.5z" horiz-adv-x="584" unicode=":"/><glyph d="M-102 -264q74 167 194 502h285l8 -23q-118 -255 -262 -479h-225zM207 940q0 92 55.5 145.5t149.5 53.5q68 0 108.5 -38.5t40.5 -107.5q0 -86 -54.5 -140t-144.5 -54q-72 0 -113.5 36.5t-41.5 104.5z" horiz-adv-x="584" unicode=";"/><glyph d="M109 641v143l952 496v-240l-643 -317l643 -281v-239z" horiz-adv-x="1128" unicode="&lt;"/><glyph d="M109 418v219h952v-219h-952zM109 807v217h952v-217h-952z" horiz-adv-x="1128" unicode="="/><glyph d="M109 203v239l643 281l-643 317v240l952 -496v-143z" horiz-adv-x="1128" unicode="&gt;"/><glyph d="M166 115q0 91 55 144.5t150 53.5q68 0 108.5 -38t40.5 -107q0 -87 -55 -141t-143 -54q-74 0 -115 38t-41 104zM178 1358q230 125 445 125q177 0 280 -87.5t103 -244.5q0 -83 -28.5 -149.5t-82.5 -123t-190 -147.5q-64 -43 -96.5 -73t-52.5 -64.5t-38 -108.5h-258l14 78 q19 103 73.5 177t172.5 155q124 84 157.5 127t33.5 96q0 119 -133 119q-50 0 -106.5 -16t-201.5 -84z" horiz-adv-x="940" unicode="?"/><glyph d="M92 500q0 279 120.5 497t343 341.5t497.5 123.5q318 0 499 -163.5t181 -458.5q0 -173 -64 -321t-177.5 -231t-254.5 -83q-88 0 -144.5 38.5t-72.5 108.5h-6q-50 -77 -113 -112t-147 -35q-127 0 -198 79.5t-71 229.5q0 147 67.5 276.5t187.5 205t268 75.5q185 0 327 -55 l-106 -420q-11 -44 -19 -76.5t-8 -64.5q0 -68 58 -68q66 0 124 64t92.5 171t34.5 214q0 213 -123.5 325.5t-359.5 112.5q-203 0 -366.5 -94t-255 -266t-91.5 -392q0 -243 134 -380.5t376 -137.5q117 0 219.5 20t221.5 66v-186q-230 -90 -465 -90q-217 0 -378 85.5 t-246 241.5t-85 359zM713 526q0 -65 24.5 -102t69.5 -37q141 0 213 270l57 222q-36 10 -82 10q-82 0 -145.5 -51.5t-100 -137t-36.5 -174.5z" horiz-adv-x="1753" unicode="@"/><glyph d="M-123 0l766 1468h373l147 -1468h-297l-24 348h-473l-172 -348h-320zM494 608h333l-26 350q-10 131 -10 253v36q-44 -120 -109 -254z" horiz-adv-x="1286" unicode="A"/><glyph d="M53 0l309 1462h426q229 0 346 -81.5t117 -243.5q0 -150 -83 -247.5t-236 -129.5v-6q100 -26 159.5 -96.5t59.5 -180.5q0 -229 -153 -353t-423 -124h-522zM412 256h180q117 0 183.5 58t66.5 161q0 162 -183 162h-165zM545 883h149q121 0 181.5 48.5t60.5 139.5 q0 137 -170 137h-152z" horiz-adv-x="1270" unicode="B"/><glyph d="M123 553q0 262 104 482.5t278 335t400 114.5q125 0 222 -22.5t208 -82.5l-118 -250q-106 59 -175 78t-137 19q-132 0 -237.5 -81t-169.5 -238.5t-64 -338.5q0 -167 68.5 -248t218.5 -81q146 0 338 77v-260q-199 -77 -400 -77q-254 0 -395 149.5t-141 423.5z" horiz-adv-x="1253" unicode="C"/><glyph d="M53 0l309 1462h396q270 0 417.5 -143t147.5 -410q0 -280 -98 -486.5t-283.5 -314.5t-437.5 -108h-451zM412 256h106q148 0 258 76t172 223.5t62 337.5q0 154 -72.5 234.5t-208.5 80.5h-115z" horiz-adv-x="1386" unicode="D"/><glyph d="M53 0l309 1462h818l-54 -254h-512l-67 -321h477l-55 -254h-477l-80 -377h512l-54 -256h-817z" horiz-adv-x="1110" unicode="E"/><glyph d="M53 0l309 1462h814l-54 -254h-508l-79 -377h473l-56 -253h-473l-121 -578h-305z" horiz-adv-x="1087" unicode="F"/><glyph d="M123 549q0 268 107 484.5t301 334t448 117.5q218 0 410 -99l-115 -251q-74 40 -148 64t-161 24q-153 0 -273.5 -83t-189 -236.5t-68.5 -330.5q0 -172 72.5 -252.5t222.5 -80.5q76 0 170 24l66 299h-267l56 258h563l-162 -762q-134 -46 -248.5 -62.5t-242.5 -16.5 q-259 0 -400 147t-141 422z" horiz-adv-x="1413" unicode="G"/><glyph d="M53 0l309 1462h306l-121 -573h471l121 573h305l-309 -1462h-306l134 631h-471l-134 -631h-305z" horiz-adv-x="1434" unicode="H"/><glyph d="M53 0l312 1462h305l-312 -1462h-305z" horiz-adv-x="659" unicode="I"/><glyph d="M-322 -150q88 -20 164 -20q99 0 160.5 60.5t89.5 191.5l293 1380h305l-303 -1423q-52 -245 -175.5 -357t-346.5 -112q-94 0 -187 27v253z" horiz-adv-x="678" unicode="J"/><glyph d="M53 0l309 1462h306l-152 -702l158 205l409 497h361l-594 -700l291 -762h-338l-211 592l-125 -70l-109 -522h-305z" horiz-adv-x="1255" unicode="K"/><glyph d="M53 0l309 1462h306l-256 -1206h512l-54 -256h-817z" horiz-adv-x="1061" unicode="L"/><glyph d="M53 0l309 1462h404l68 -1093h4l551 1093h423l-309 -1462h-280l145 692q53 247 105 441h-5l-569 -1133h-281l-61 1133h-4q-11 -88 -38 -231t-187 -902h-275z" horiz-adv-x="1802" unicode="M"/><glyph d="M53 0l309 1462h357l340 -1077h4q12 76 39 217t180 860h274l-309 -1462h-342l-356 1106h-6l-4 -32q-32 -216 -66 -386l-145 -688h-275z" horiz-adv-x="1546" unicode="N"/><glyph d="M123 537q0 265 99 487.5t273 341.5t402 119q255 0 395 -144t140 -403q0 -283 -99 -506.5t-271 -337.5t-396 -114q-256 0 -399.5 147.5t-143.5 409.5zM434 537q0 -147 66.5 -222t187.5 -75t220.5 87t155.5 246t56 357q0 142 -65 219.5t-183 77.5q-121 0 -222 -91.5 t-158.5 -251.5t-57.5 -347z" horiz-adv-x="1495" unicode="O"/><glyph d="M53 0l309 1462h338q242 0 366 -106.5t124 -319.5q0 -241 -169.5 -378.5t-467.5 -137.5h-86l-109 -520h-305zM522 774h56q142 0 223.5 69t81.5 185q0 180 -195 180h-74z" horiz-adv-x="1188" unicode="P"/><glyph d="M123 537q0 265 99 487.5t273 341.5t402 119q255 0 395 -144t140 -403q0 -316 -122.5 -555.5t-334.5 -337.5l254 -393h-359l-178 328h-26q-256 0 -399.5 147.5t-143.5 409.5zM434 537q0 -147 66.5 -222t187.5 -75t220.5 87t155.5 246t56 357q0 142 -65 219.5t-183 77.5 q-121 0 -222 -91.5t-158.5 -251.5t-57.5 -347z" horiz-adv-x="1495" unicode="Q"/><glyph d="M53 0l309 1462h359q237 0 356 -102t119 -299q0 -158 -83 -271.5t-239 -168.5l261 -621h-332l-207 561h-119l-119 -561h-305zM530 813h78q131 0 204 57t73 174q0 82 -47.5 123t-149.5 41h-74z" horiz-adv-x="1247" unicode="R"/><glyph d="M41 70v274q193 -108 358 -108q112 0 175 42.5t63 116.5q0 43 -13.5 75.5t-38.5 60.5t-124 102q-138 99 -194 196t-56 209q0 129 62 230.5t176.5 158t263.5 56.5q217 0 397 -99l-109 -233q-156 74 -288 74q-83 0 -136 -45t-53 -119q0 -61 33 -106.5t148 -120.5 q121 -80 181 -176.5t60 -225.5q0 -209 -148 -330.5t-401 -121.5q-221 0 -356 90z" horiz-adv-x="1085" unicode="S"/><glyph d="M168 1204l55 258h1010l-55 -258h-353l-254 -1204h-305l254 1204h-352z" horiz-adv-x="1087" unicode="T"/><glyph d="M141 401q0 72 15 138l196 923h305l-194 -919q-17 -74 -17 -125q0 -178 189 -178q123 0 195 76.5t104 228.5l194 917h306l-201 -946q-57 -266 -218 -401t-419 -135q-212 0 -333.5 113.5t-121.5 307.5z" horiz-adv-x="1415" unicode="U"/><glyph d="M184 1462h295l51 -880q4 -45 4 -133q-2 -103 -6 -150h7q78 221 110 283l432 880h316l-748 -1462h-334z" horiz-adv-x="1208" unicode="V"/><glyph d="M184 1462h287l6 -798q0 -52 -4 -173t-10 -174h6q22 64 67 180.5t60 145.5l369 819h270l21 -873q0 -146 -9 -272h6q43 129 131 349l330 796h309l-647 -1462h-346l-22 721l-2 139q0 88 4 158h-4q-46 -146 -115 -299l-324 -719h-338z" horiz-adv-x="1831" unicode="W"/><glyph d="M-117 0l576 764l-238 698h320l153 -518l363 518h344l-545 -725l268 -737h-331l-172 543l-396 -543h-342z" horiz-adv-x="1241" unicode="X"/><glyph d="M186 1462h312l129 -592l374 592h342l-618 -903l-119 -559h-303l119 559z" horiz-adv-x="1155" unicode="Y"/><glyph d="M-61 0l38 201l777 1005h-543l53 256h936l-41 -202l-782 -1004h596l-53 -256h-981z" horiz-adv-x="1098" unicode="Z"/><glyph d="M-37 -324l381 1786h473l-45 -211h-215l-291 -1364h215l-45 -211h-473z" horiz-adv-x="678" unicode="["/><glyph d="M221 1462h260l224 -1462h-267z" horiz-adv-x="862" unicode="\"/><glyph d="M-137 -324l45 211h213l291 1364h-215l45 211h473l-381 -1786h-471z" horiz-adv-x="678" unicode="]"/><glyph d="M20 520l619 950h147l277 -950h-223l-174 633l-402 -633h-244z" horiz-adv-x="1081" unicode="^"/><glyph d="M-186 -324l30 140h822l-31 -140h-821z" horiz-adv-x="819" unicode="_"/><glyph d="M508 1548v21h311q36 -148 115 -303v-25h-184q-71 69 -138.5 153.5t-103.5 153.5z" horiz-adv-x="1135" unicode="`"/><glyph d="M90 385q0 198 72 377.5t189 278t257 98.5q97 0 167.5 -42t109.5 -122h8l57 143h232l-238 -1118h-229l14 145h-4q-134 -165 -319 -165q-147 0 -231.5 106.5t-84.5 298.5zM395 399q0 -88 33.5 -132t95.5 -44q69 0 133 67t103 181.5t39 259.5q0 71 -38.5 117.5t-101.5 46.5 q-68 0 -129.5 -72t-98 -190t-36.5 -234z" unicode="a"/><glyph d="M37 0l330 1556h301l-62 -288q-41 -182 -84 -299h8q78 98 142.5 134t140.5 36q146 0 230.5 -108t84.5 -298t-68 -367.5t-187 -281.5t-263 -104q-194 0 -276 163h-8l-58 -143h-231zM420 399q0 -80 37 -128t102 -48q67 0 128 69t98.5 189.5t37.5 237.5q0 176 -131 176 q-68 0 -130 -65t-102 -180.5t-40 -250.5z" horiz-adv-x="1219" unicode="b"/><glyph d="M90 391q0 212 74.5 385.5t209.5 268t308 94.5q182 0 328 -72l-92 -229q-54 23 -106 40t-118 17q-85 0 -153.5 -64t-107 -175.5t-38.5 -239.5q0 -96 45.5 -144.5t126.5 -48.5q76 0 141 23.5t134 58.5v-246q-152 -79 -336 -79q-201 0 -308.5 107.5t-107.5 303.5z" horiz-adv-x="989" unicode="c"/><glyph d="M90 387q0 196 71.5 374.5t188.5 278t258 99.5q82 0 141.5 -37t112.5 -127h8l2 28q6 110 25 195l76 358h301l-330 -1556h-229l14 145h-4q-71 -87 -148.5 -126t-170.5 -39q-147 0 -231.5 107t-84.5 300zM395 399q0 -176 137 -176q66 0 128.5 68.5t100.5 182.5t38 245 q0 80 -37.5 128t-102.5 48q-68 0 -129.5 -72t-98 -190t-36.5 -234z" unicode="d"/><glyph d="M90 412q0 207 82.5 377.5t223.5 260t319 89.5q177 0 276 -81.5t99 -223.5q0 -187 -167 -288.5t-477 -101.5h-51l-2 -21v-20q0 -91 51.5 -143.5t147.5 -52.5q87 0 158 19t172 67v-227q-172 -86 -390 -86q-210 0 -326 113t-116 319zM428 647h45q155 0 241.5 48.5 t86.5 131.5q0 95 -105 95q-88 0 -166 -80t-102 -195z" horiz-adv-x="1141" unicode="e"/><glyph d="M-219 -225q61 -21 115 -21q61 0 107 40t65 130l204 965h-163l30 145l183 84l18 84q41 190 138.5 277.5t273.5 87.5q131 0 235 -49l-80 -224q-69 31 -133 31q-57 0 -92 -40t-47 -105l-12 -62h219l-49 -229h-220l-215 -1010q-77 -371 -403 -371q-104 0 -174 25v242z" horiz-adv-x="764" unicode="f"/><glyph d="M-115 -209q0 102 68.5 175.5t214.5 121.5q-74 47 -74 133q0 71 44.5 122.5t146.5 98.5q-65 49 -96 112t-31 153q0 199 125.5 315.5t341.5 116.5q83 0 166 -23h395l-35 -166l-174 -41q16 -52 16 -118q0 -195 -121 -308.5t-329 -113.5q-59 0 -99 10q-84 -27 -84 -78 q0 -34 30 -49t89 -23l137 -18q163 -21 237.5 -84.5t74.5 -183.5q0 -211 -156 -323t-446 -112q-208 0 -324.5 75.5t-116.5 207.5zM150 -172q0 -115 194 -115q151 0 228 45t77 127q0 39 -32.5 60t-137.5 35l-114 14q-106 -14 -160.5 -57t-54.5 -109zM442 680q0 -119 103 -119 q75 0 121.5 76.5t46.5 193.5t-99 117q-77 0 -124.5 -76.5t-47.5 -191.5z" horiz-adv-x="1108" unicode="g"/><glyph d="M37 0l330 1556h301q-39 -181 -60 -278t-86 -309h8q62 77 138 123.5t176 46.5q138 0 213.5 -83.5t75.5 -238.5q0 -73 -23 -180l-133 -637h-301l137 653q16 68 16 119q0 123 -108 123q-92 0 -167 -114t-118 -318l-98 -463h-301z" horiz-adv-x="1237" unicode="h"/><glyph d="M37 0l237 1118h301l-237 -1118h-301zM322 1380q0 87 47.5 131.5t134.5 44.5q73 0 111 -31t38 -89q0 -80 -44 -129.5t-136 -49.5q-151 0 -151 123z" horiz-adv-x="608" unicode="i"/><glyph d="M-264 -225q61 -21 114 -21q137 0 173 170l253 1194h302l-265 -1239q-77 -371 -403 -371q-104 0 -174 25v242zM324 1380q0 87 47.5 131.5t134.5 44.5q73 0 111 -31t38 -89q0 -80 -44 -129.5t-136 -49.5q-151 0 -151 123z" horiz-adv-x="608" unicode="j"/><glyph d="M37 0l330 1556h301l-148 -694q-8 -41 -29 -117l-28 -102h4l453 475h344l-498 -504l285 -614h-336l-183 420l-120 -72l-74 -348h-301z" horiz-adv-x="1163" unicode="k"/><glyph d="M37 0l330 1556h301l-330 -1556h-301z" horiz-adv-x="608" unicode="l"/><glyph d="M37 0l237 1118h230l-21 -207h6q146 228 355 228q219 0 262 -228h6q68 110 160.5 169t197.5 59q136 0 207.5 -85t71.5 -237q0 -76 -23 -180l-133 -637h-301l138 653q16 68 16 119q0 123 -98 123q-92 0 -166.5 -112t-118.5 -318l-96 -465h-301l137 653q16 68 16 119 q0 123 -98 123q-92 0 -167 -114t-118 -318l-98 -463h-301z" horiz-adv-x="1853" unicode="m"/><glyph d="M37 0l237 1118h230l-21 -207h6q146 228 355 228q138 0 213.5 -83.5t75.5 -238.5q0 -73 -23 -180l-133 -637h-301l137 653q16 68 16 119q0 123 -108 123q-92 0 -167 -114t-118 -318l-98 -463h-301z" horiz-adv-x="1237" unicode="n"/><glyph d="M90 410q0 213 71.5 379.5t206.5 258t316 91.5q196 0 310 -118t114 -325q0 -211 -70.5 -374t-203.5 -252.5t-316 -89.5q-195 0 -311.5 117.5t-116.5 312.5zM393 410q0 -185 150 -185q75 0 135 61.5t93.5 171t33.5 238.5q0 197 -143 197q-75 0 -134.5 -61t-97 -179 t-37.5 -243z" horiz-adv-x="1198" unicode="o"/><glyph d="M-68 -492l342 1610h230l-17 -170h9q138 191 317 191q146 0 230.5 -107.5t84.5 -300.5q0 -191 -68.5 -367.5t-187.5 -280t-262 -103.5q-83 0 -143 37t-111 126h-8q-12 -159 -43 -295l-72 -340h-301zM420 399q0 -80 37 -128t102 -48q67 0 128 69t98.5 189.5t37.5 237.5 q0 176 -131 176q-68 0 -131.5 -67.5t-102 -180t-38.5 -248.5z" horiz-adv-x="1219" unicode="p"/><glyph d="M90 385q0 198 72 377.5t189 278t257 98.5q86 0 152.5 -37.5t124.5 -126.5h8l57 143h232l-342 -1610h-301q47 218 73 337.5t84 304.5h-8q-72 -94 -143 -132t-154 -38q-88 0 -156 47.5t-106.5 138.5t-38.5 219zM395 399q0 -88 36.5 -132t103.5 -44q64 0 127.5 70t100 181 t36.5 245q0 80 -37.5 128t-102.5 48q-68 0 -129.5 -72t-98 -190t-36.5 -234z" unicode="q"/><glyph d="M37 0l237 1118h230l-21 -207h6q147 228 353 228q59 0 96 -11l-66 -290q-45 16 -100 16q-116 0 -203.5 -91.5t-124.5 -262.5l-106 -500h-301z" horiz-adv-x="862" unicode="r"/><glyph d="M23 45v248q157 -90 319 -90q80 0 131 32.5t51 88.5q0 43 -37 77t-131 86q-121 68 -169 135.5t-48 159.5q0 170 110.5 263.5t315.5 93.5q201 0 363 -95l-99 -215q-140 84 -258 84q-57 0 -92 -25.5t-35 -68.5q0 -39 32 -68.5t120 -74.5q123 -63 178 -137t55 -170 q0 -188 -124.5 -288.5t-346.5 -100.5q-107 0 -186.5 15t-148.5 50z" horiz-adv-x="969" unicode="s"/><glyph d="M94 889l29 147l196 84l132 236h194l-49 -238h283l-50 -229h-282l-115 -539q-6 -30 -6 -53q0 -74 88 -74q65 0 162 35v-225q-111 -53 -266 -53q-150 0 -220.5 63t-70.5 195q0 50 12 112l115 539h-152z" horiz-adv-x="840" unicode="t"/><glyph d="M111 301q0 93 24 213l127 604h301l-137 -653q-16 -68 -16 -119q0 -123 108 -123q92 0 167 114t118 318l98 463h301l-237 -1118h-230l21 207h-6q-145 -227 -355 -227q-138 0 -211 82.5t-73 238.5z" horiz-adv-x="1237" unicode="u"/><glyph d="M102 1118h295l45 -586q7 -133 7 -231h6q55 153 92 223l297 594h323l-604 -1118h-323z" horiz-adv-x="1049" unicode="v"/><glyph d="M125 1118h281l4 -495l-4 -167l-7 -171h4q6 20 14 41.5t51 136.5t46 119l231 536h328v-536q0 -142 -10 -297h6l28 80q73 208 95 258l219 495h307l-530 -1118h-330l-6 520q0 155 10 340h-6q-62 -178 -123 -319l-233 -541h-324z" horiz-adv-x="1614" unicode="w"/><glyph d="M-100 0l479 573l-225 545h321l115 -334l244 334h354l-467 -561l244 -557h-326l-125 342l-264 -342h-350z" horiz-adv-x="1087" unicode="x"/><glyph d="M-141 -233q68 -13 116 -13q84 0 147.5 48t117.5 149l26 49l-164 1118h295l56 -518q14 -122 14 -293h6q20 51 44 119.5t65 153.5l260 538h327l-680 -1278q-177 -332 -483 -332q-90 0 -147 19v240z" horiz-adv-x="1063" unicode="y"/><glyph d="M-47 0l35 180l575 705h-397l51 233h750l-43 -200l-566 -685h439l-49 -233h-795z" horiz-adv-x="932" unicode="z"/><glyph d="M-8 459l45 229q122 0 192.5 41.5t92.5 138.5l61 285q38 170 131 239.5t270 69.5h84l-49 -225q-90 -2 -130.5 -34.5t-55.5 -106.5l-66 -297q-45 -207 -276 -236v-8q85 -26 126.5 -82.5t41.5 -134.5q0 -44 -15 -113l-36 -178q-7 -28 -7 -51q0 -54 33.5 -74t91.5 -20v-226 h-53q-167 0 -253.5 63.5t-86.5 184.5q0 57 14 125l39 184q15 69 15 86q0 140 -209 140z" horiz-adv-x="727" unicode="{"/><glyph d="M455 -465v2015h219v-2015h-219z" horiz-adv-x="1128" unicode="|"/><glyph d="M-100 -98q93 3 137 35.5t59 105.5l66 297q25 111 95 166t181 69v9q-168 51 -168 217q0 43 15 112l37 179q6 30 6 51q0 54 -36.5 74t-109.5 20l41 225h33q340 0 340 -248q0 -56 -14 -124l-39 -185q-15 -69 -15 -86q0 -139 209 -139l-45 -229q-122 0 -192.5 -42t-91.5 -139 l-62 -284q-37 -170 -130.5 -240t-270.5 -70h-45v226z" horiz-adv-x="727" unicode="}"/><glyph d="M109 551v231q101 109 256 109q64 0 117 -14t139 -50q64 -27 111 -41t95 -14q51 0 112 30.5t122 90.5v-231q-103 -109 -256 -109q-59 0 -109 11.5t-147 51.5q-89 38 -127 47t-80 9q-54 0 -116.5 -33t-116.5 -88z" horiz-adv-x="1128" unicode="~"/><glyph d="M-74 -371l256 977h242l-158 -977h-340zM195 924q0 85 54 139.5t144 54.5q73 0 114.5 -37t41.5 -104q0 -92 -55.5 -145.5t-149.5 -53.5q-68 0 -108.5 38t-40.5 108z" horiz-adv-x="586" unicode="¡"/><glyph d="M164 584q0 193 62.5 355t178 262.5t267.5 123.5l33 158h188l-35 -158q118 -14 225 -65l-92 -230q-53 23 -105 40t-118 17q-133 0 -216 -143t-83 -336q0 -96 45 -144t127 -48q75 0 140 23.5t134 58.5v-246q-136 -71 -299 -80l-41 -192h-188l49 210q-134 36 -203 136 t-69 258z" horiz-adv-x="1128" unicode="¢"/><glyph d="M-12 0l49 246q196 48 244 264l22 104h-192l45 220h192l49 247q41 197 162 300.5t313 103.5q195 0 369 -86l-113 -232q-141 68 -237 68q-75 0 -123 -39.5t-68 -132.5l-47 -229h299l-45 -220h-299l-18 -84q-42 -195 -209 -270h655l-55 -260h-993z" horiz-adv-x="1128" unicode="£"/><glyph d="M115 1047l147 147l127 -127q91 53 197 53q105 0 196 -55l127 129l150 -143l-129 -129q53 -89 53 -199q0 -107 -53 -199l125 -125l-146 -145l-127 125q-95 -51 -196 -51q-115 0 -199 51l-125 -123l-145 145l127 125q-54 93 -54 197q0 102 54 197zM397 723 q0 -77 54.5 -132.5t134.5 -55.5q81 0 136.5 55t55.5 133q0 80 -56.5 135t-135.5 55q-78 0 -133.5 -56t-55.5 -134z" horiz-adv-x="1128" unicode="¤"/><glyph d="M88 221l37 178h252l29 138h-252l39 178h196l-192 747h297l114 -590l371 590h311l-506 -747h203l-39 -178h-252l-28 -138h252l-37 -178h-252l-47 -221h-291l47 221h-252z" horiz-adv-x="1128" unicode="¥"/><glyph d="M455 350h219v-815h-219v815zM455 735v815h219v-815h-219z" horiz-adv-x="1128" unicode="¦"/><glyph d="M20 55v224q172 -105 345 -105q99 0 144.5 35t45.5 92q0 39 -33 72.5t-127 79.5q-117 57 -181 131t-64 176q0 89 47.5 163t154.5 142q-42 34 -70 84.5t-28 107.5q0 149 117 234.5t313 85.5q172 0 344 -88l-82 -193q-147 84 -282 84q-144 0 -144 -106q0 -43 40.5 -76 t127.5 -72q242 -106 242 -303q0 -188 -193 -303q38 -35 64 -85.5t26 -108.5q0 -161 -126 -253.5t-345 -92.5q-204 0 -336 75zM393 797q0 -54 43.5 -96.5t143.5 -88.5q49 31 75.5 78.5t26.5 95.5q0 109 -176 181q-51 -25 -82 -70.5t-31 -99.5z" horiz-adv-x="995" unicode="§"/><glyph d="M397 1382q0 78 42.5 118t119.5 40q133 0 133 -108q0 -73 -39 -116.5t-121 -43.5q-135 0 -135 110zM799 1382q0 78 42 118t120 40q65 0 99 -28t34 -80q0 -73 -39.5 -116.5t-120.5 -43.5q-135 0 -135 110z" horiz-adv-x="1135" unicode="¨"/><glyph d="M125 731q0 200 100 375t275 276t377 101q199 0 373.5 -99t276 -275.5t101.5 -377.5q0 -199 -98.5 -373t-272.5 -276t-380 -102q-207 0 -382 103.5t-272.5 276.5t-97.5 371zM266 731q0 -164 81.5 -305t224 -223t305.5 -82q167 0 308 83t221.5 223.5t80.5 303.5 t-80.5 303.5t-222 223.5t-307.5 83q-164 0 -306.5 -82.5t-223.5 -223.5t-81 -304zM485 721q0 225 117.5 351t325.5 126q142 0 284 -72l-75 -174q-114 58 -205 58q-111 0 -163 -73t-52 -214q0 -134 55.5 -203t159.5 -69q43 0 108.5 15.5t124.5 43.5v-191q-131 -57 -262 -57 q-196 0 -307 122.5t-111 336.5z" horiz-adv-x="1704" unicode="©"/><glyph d="M152 1020q0 117 46 228t123 171t177 60q120 0 180 -103h6l39 90h154l-158 -702h-154l8 92h-2q-80 -104 -202 -104q-103 0 -160 70t-57 198zM356 1014q0 -111 86 -111q45 0 84 41.5t65.5 120t26.5 154.5q0 106 -88 106q-73 0 -123.5 -96t-50.5 -215z" horiz-adv-x="772" unicode="ª"/><glyph d="M72 551v18l401 463l191 -155l-279 -334l135 -350l-246 -103zM559 551v18l402 463l190 -155l-279 -334l136 -350l-246 -103z" horiz-adv-x="1151" unicode="«"/><glyph d="M109 612v219h952v-583h-219v364h-733z" horiz-adv-x="1128" unicode="¬"/><glyph d="M41 424l53 250h524l-53 -250h-524z" horiz-adv-x="659" unicode="­"/><glyph d="M125 731q0 200 100 375t275 276t377 101q199 0 373.5 -99t276 -275.5t101.5 -377.5q0 -199 -98.5 -373t-272.5 -276t-380 -102q-207 0 -382 103.5t-272.5 276.5t-97.5 371zM266 731q0 -164 81.5 -305t224 -223t305.5 -82q167 0 308 83t221.5 223.5t80.5 303.5 t-80.5 303.5t-222 223.5t-307.5 83q-164 0 -306.5 -82.5t-223.5 -223.5t-81 -304zM571 293v874h308q173 0 265.5 -67.5t92.5 -200.5q0 -86 -44 -149.5t-130 -96.5l197 -360h-254l-138 297h-67v-297h-230zM801 758h51q72 0 113 31t41 92q0 59 -35.5 88.5t-116.5 29.5h-53 v-241z" horiz-adv-x="1704" unicode="®"/><glyph d="M-6 1556l45 201h1036l-45 -201h-1036z" horiz-adv-x="1024" unicode="¯"/><glyph d="M164 1137q0 93 46.5 173.5t127.5 126.5t172 46q93 0 173.5 -47t126.5 -127t46 -172q0 -93 -46 -173t-126 -125.5t-174 -45.5q-93 0 -173 45t-126.5 125t-46.5 174zM354 1137q0 -63 45.5 -108.5t110.5 -45.5q66 0 111 46t45 108q0 63 -45.5 110t-110.5 47t-110.5 -47.5 t-45.5 -109.5z" horiz-adv-x="877" unicode="°"/><glyph d="M109 0v219h952v-219h-952zM109 674v219h366v369h219v-369h367v-219h-367v-365h-219v365h-366z" horiz-adv-x="1128" unicode="±"/><glyph d="M59 586l35 166l273 219q111 91 141 122t44.5 59t14.5 56q0 42 -25.5 62t-60.5 20q-86 0 -188 -82l-100 158q74 57 156 87t192 30q123 0 196.5 -63t73.5 -160q0 -70 -22 -123t-70 -103.5t-189 -152.5l-129 -95h347l-41 -200h-648z" horiz-adv-x="776" unicode="²"/><glyph d="M92 625v192q125 -72 254 -72q76 0 125 30.5t49 88.5q0 37 -26 62.5t-88 25.5h-127l34 160h90q84 0 132.5 28t48.5 85q0 40 -26 60t-71 20q-86 0 -188 -66l-82 150q142 92 313 92q130 0 206.5 -55.5t76.5 -155.5q0 -87 -51 -145.5t-166 -88.5v-4q154 -33 154 -176 q0 -131 -107 -209t-285 -78q-75 0 -145.5 15.5t-120.5 40.5z" horiz-adv-x="776" unicode="³"/><glyph d="M483 1241v25q79 88 222 303h335v-17q-46 -56 -154 -152.5t-194 -158.5h-209z" horiz-adv-x="1135" unicode="´"/><glyph d="M-68 -492l342 1610h301l-135 -645q-16 -70 -16 -125q0 -60 31.5 -92.5t79.5 -32.5q90 0 162.5 106.5t117.5 319.5l98 469h301l-237 -1118h-229l18 176h-6q-117 -196 -266 -196q-51 0 -89.5 19.5t-58.5 47.5h-6q-8 -66 -21.5 -139t-82.5 -400h-304z" horiz-adv-x="1249" unicode="µ"/><glyph d="M147 1042q0 256 107.5 385t343.5 129h604v-1816h-162v1616h-166v-1616h-161v819q-62 -18 -146 -18q-216 0 -318 125t-102 376z" horiz-adv-x="1341" unicode="¶"/><glyph d="M131 695q0 90 53.5 144t150.5 54q68 0 109 -38t41 -107q0 -87 -55 -141t-144 -54q-73 0 -114 37.5t-41 104.5z" horiz-adv-x="584" unicode="·"/><glyph d="M-207 -301q63 -23 125 -23q102 0 102 82q0 34 -31 56.5t-110 31.5l96 154h185l-39 -72q141 -49 141 -178q0 -116 -83 -179t-234 -63q-86 0 -152 23v168z" horiz-adv-x="420" unicode="¸"/><glyph d="M129 1214l399 248h207l-186 -876h-246l84 397q24 109 55 207q-16 -15 -80 -60l-131 -81z" horiz-adv-x="776" unicode="¹"/><glyph d="M162 1038q0 197 104 319t277 122q129 0 197.5 -73.5t68.5 -211.5q0 -128 -48.5 -232.5t-132.5 -157t-196 -52.5q-134 0 -202 75t-68 211zM371 1026q0 -111 80 -111q63 0 105 85.5t42 207.5q0 107 -76 107q-64 0 -107.5 -89.5t-43.5 -199.5z" horiz-adv-x="754" unicode="º"/><glyph d="M0 227l279 334l-136 350l246 103l203 -461v-18l-402 -463zM487 227l279 334l-135 350l246 103l202 -461v-18l-401 -463z" horiz-adv-x="1151" unicode="»"/><glyph d="M177 0l1087 1462h236l-1084 -1462h-239zM97 1214l399 248h207l-186 -876h-246l84 397q24 109 55 207q-16 -15 -80 -60l-131 -81zM844 152l31 174l475 557h260l-121 -563h119l-35 -168h-119l-32 -151h-238l33 151h-373zM1078 320h174l58 231l22 74q-13 -20 -43 -58 t-211 -247z" horiz-adv-x="1804" unicode="¼"/><glyph d="M940 1l35 166l273 219q111 91 141 122t44.5 59t14.5 56q0 42 -25.5 62t-60.5 20q-86 0 -188 -82l-100 158q74 57 156 87t192 30q123 0 196.5 -63t73.5 -160q0 -70 -22 -123t-70 -103.5t-189 -152.5l-129 -95h347l-41 -200h-648zM97 1214l399 248h207l-186 -876h-246 l84 397q24 109 55 207q-16 -15 -80 -60l-131 -81zM177 0l1087 1462h236l-1084 -1462h-239z" horiz-adv-x="1804" unicode="½"/><glyph d="M310 0l1087 1462h236l-1084 -1462h-239zM905 152l31 174l475 557h260l-121 -563h119l-35 -168h-119l-32 -151h-238l33 151h-373zM1139 320h174l58 231l22 74q-13 -20 -43 -58t-211 -247zM133 625v192q125 -72 254 -72q76 0 125 30.5t49 88.5q0 37 -26 62.5t-88 25.5h-127 l34 160h90q84 0 132.5 28t48.5 85q0 40 -26 60t-71 20q-86 0 -188 -66l-82 150q142 92 313 92q130 0 206.5 -55.5t76.5 -155.5q0 -87 -51 -145.5t-166 -88.5v-4q154 -33 154 -176q0 -131 -107 -209t-285 -78q-75 0 -145.5 15.5t-120.5 40.5z" horiz-adv-x="1804" unicode="¾"/><glyph d="M-68 -59q0 82 28.5 148.5t83.5 124t189 146.5q93 62 128 106.5t51 106.5l8 33h258l-14 -78q-19 -105 -76.5 -180t-169.5 -151q-122 -83 -156.5 -126t-34.5 -98q0 -118 133 -118q50 0 106.5 16t201.5 84l92 -221q-221 -125 -445 -125q-177 0 -280 87.5t-103 244.5z M418 924q0 86 54.5 140t143.5 54q73 0 114.5 -37t41.5 -104q0 -92 -55.5 -145.5t-149.5 -53.5q-68 0 -108.5 38t-40.5 108z" horiz-adv-x="940" unicode="¿"/><glyph d="M-123 0l766 1468h373l147 -1468h-297l-24 348h-473l-172 -348h-320zM494 608h333l-26 350q-10 131 -10 253v36q-44 -120 -109 -254zM539 1886v21h311q36 -148 115 -303v-25h-184q-71 69 -138.5 153.5t-103.5 153.5z" horiz-adv-x="1286" unicode="À"/><glyph d="M-123 0l766 1468h373l147 -1468h-297l-24 348h-473l-172 -348h-320zM494 608h333l-26 350q-10 131 -10 253v36q-44 -120 -109 -254zM735 1579v25q79 88 222 303h335v-17q-46 -56 -154 -152.5t-194 -158.5h-209z" horiz-adv-x="1286" unicode="Á"/><glyph d="M-123 0l766 1468h373l147 -1468h-297l-24 348h-473l-172 -348h-320zM494 608h333l-26 350q-10 131 -10 253v36q-44 -120 -109 -254zM426 1579v25q63 57 153 147t142 156h338q22 -54 74 -142.5t102 -160.5v-25h-198q-63 53 -162 168q-105 -88 -232 -168h-217z" horiz-adv-x="1286" unicode="Â"/><glyph d="M-123 0l766 1468h373l147 -1468h-297l-24 348h-473l-172 -348h-320zM494 608h333l-26 350q-10 131 -10 253v36q-44 -120 -109 -254zM448 1577q59 309 281 309q49 0 87.5 -16.5t71.5 -36t62 -35.5t60 -16q34 0 58 25.5t46 80.5h172q-66 -309 -287 -309q-49 0 -86.5 16.5 t-69.5 36t-61.5 36t-62.5 16.5q-31 0 -55.5 -28t-38.5 -79h-177z" horiz-adv-x="1286" unicode="Ã"/><glyph d="M-123 0l766 1468h373l147 -1468h-297l-24 348h-473l-172 -348h-320zM494 608h333l-26 350q-10 131 -10 253v36q-44 -120 -109 -254zM516 1720q0 78 42.5 118t119.5 40q133 0 133 -108q0 -73 -39 -116.5t-121 -43.5q-135 0 -135 110zM918 1720q0 78 42 118t120 40 q65 0 99 -28t34 -80q0 -73 -39.5 -116.5t-120.5 -43.5q-135 0 -135 110z" horiz-adv-x="1286" unicode="Ä"/><glyph d="M-123 0l766 1468h373l147 -1468h-297l-24 348h-473l-172 -348h-320zM494 608h333l-26 350q-10 131 -10 253v36q-44 -120 -109 -254zM585 1565q0 109 68.5 173t179.5 64q110 0 182 -65t72 -170q0 -107 -70 -173.5t-184 -66.5q-110 0 -179 63.5t-69 174.5zM737 1565 q0 -45 24 -71t72 -26q42 0 69.5 26t27.5 71t-27.5 70.5t-69.5 25.5t-69 -25.5t-27 -70.5z" horiz-adv-x="1286" unicode="Å"/><glyph d="M-123 0l922 1462h1104l-54 -254h-512l-67 -321h477l-55 -254h-478l-79 -377h512l-54 -256h-817l74 348h-426l-219 -348h-328zM588 608h317l127 600h-80z" horiz-adv-x="1833" unicode="Æ"/><glyph d="M123 553q0 262 104 482.5t278 335t400 114.5q125 0 222 -22.5t208 -82.5l-118 -250q-106 59 -175 78t-137 19q-132 0 -237.5 -81t-169.5 -238.5t-64 -338.5q0 -167 68.5 -248t218.5 -81q146 0 338 77v-260q-199 -77 -400 -77q-254 0 -395 149.5t-141 423.5zM356 -301 q63 -23 125 -23q102 0 102 82q0 34 -31 56.5t-110 31.5l96 154h185l-39 -72q141 -49 141 -178q0 -116 -83 -179t-234 -63q-86 0 -152 23v168z" horiz-adv-x="1253" unicode="Ç"/><glyph d="M53 0l309 1462h818l-54 -254h-512l-67 -321h477l-55 -254h-477l-80 -377h512l-54 -256h-817zM480 1886v21h311q36 -148 115 -303v-25h-184q-71 69 -138.5 153.5t-103.5 153.5z" horiz-adv-x="1110" unicode="È"/><glyph d="M53 0l309 1462h818l-54 -254h-512l-67 -321h477l-55 -254h-477l-80 -377h512l-54 -256h-817zM608 1579v25q79 88 222 303h335v-17q-46 -56 -154 -152.5t-194 -158.5h-209z" horiz-adv-x="1110" unicode="É"/><glyph d="M53 0l309 1462h818l-54 -254h-512l-67 -321h477l-55 -254h-477l-80 -377h512l-54 -256h-817zM368 1579v25q63 57 153 147t142 156h338q22 -54 74 -142.5t102 -160.5v-25h-198q-63 53 -162 168q-105 -88 -232 -168h-217z" horiz-adv-x="1110" unicode="Ê"/><glyph d="M53 0l309 1462h818l-54 -254h-512l-67 -321h477l-55 -254h-477l-80 -377h512l-54 -256h-817zM438 1720q0 78 42.5 118t119.5 40q133 0 133 -108q0 -73 -39 -116.5t-121 -43.5q-135 0 -135 110zM840 1720q0 78 42 118t120 40q65 0 99 -28t34 -80q0 -73 -39.5 -116.5 t-120.5 -43.5q-135 0 -135 110z" horiz-adv-x="1110" unicode="Ë"/><glyph d="M53 0l312 1462h305l-312 -1462h-305zM241 1886v21h311q36 -148 115 -303v-25h-184q-71 69 -138.5 153.5t-103.5 153.5z" horiz-adv-x="659" unicode="Ì"/><glyph d="M53 0l312 1462h305l-312 -1462h-305zM414 1579v25q79 88 222 303h335v-17q-46 -56 -154 -152.5t-194 -158.5h-209z" horiz-adv-x="659" unicode="Í"/><glyph d="M53 0l312 1462h305l-312 -1462h-305zM128 1579v25q63 57 153 147t142 156h338q22 -54 74 -142.5t102 -160.5v-25h-198q-63 53 -162 168q-105 -88 -232 -168h-217z" horiz-adv-x="659" unicode="Î"/><glyph d="M53 0l312 1462h305l-312 -1462h-305zM222 1720q0 78 42.5 118t119.5 40q133 0 133 -108q0 -73 -39 -116.5t-121 -43.5q-135 0 -135 110zM624 1720q0 78 42 118t120 40q65 0 99 -28t34 -80q0 -73 -39.5 -116.5t-120.5 -43.5q-135 0 -135 110z" horiz-adv-x="659" unicode="Ï"/><glyph d="M37 596l55 254h139l131 612h396q270 0 417.5 -143t147.5 -410q0 -280 -98 -486.5t-283.5 -314.5t-437.5 -108h-451l125 596h-141zM412 256h106q148 0 258 76t172 223.5t62 337.5q0 154 -72.5 234.5t-208.5 80.5h-115l-75 -358h237l-55 -254h-238z" horiz-adv-x="1386" unicode="Ð"/><glyph d="M53 0l309 1462h357l340 -1077h4q12 76 39 217t180 860h274l-309 -1462h-342l-356 1106h-6l-4 -32q-32 -216 -66 -386l-145 -688h-275zM563 1577q59 309 281 309q49 0 87.5 -16.5t71.5 -36t62 -35.5t60 -16q34 0 58 25.5t46 80.5h172q-66 -309 -287 -309q-49 0 -86.5 16.5 t-69.5 36t-61.5 36t-62.5 16.5q-31 0 -55.5 -28t-38.5 -79h-177z" horiz-adv-x="1546" unicode="Ñ"/><glyph d="M123 537q0 265 99 487.5t273 341.5t402 119q255 0 395 -144t140 -403q0 -283 -99 -506.5t-271 -337.5t-396 -114q-256 0 -399.5 147.5t-143.5 409.5zM434 537q0 -147 66.5 -222t187.5 -75t220.5 87t155.5 246t56 357q0 142 -65 219.5t-183 77.5q-121 0 -222 -91.5 t-158.5 -251.5t-57.5 -347zM627 1886v21h311q36 -148 115 -303v-25h-184q-71 69 -138.5 153.5t-103.5 153.5z" horiz-adv-x="1495" unicode="Ò"/><glyph d="M123 537q0 265 99 487.5t273 341.5t402 119q255 0 395 -144t140 -403q0 -283 -99 -506.5t-271 -337.5t-396 -114q-256 0 -399.5 147.5t-143.5 409.5zM434 537q0 -147 66.5 -222t187.5 -75t220.5 87t155.5 246t56 357q0 142 -65 219.5t-183 77.5q-121 0 -222 -91.5 t-158.5 -251.5t-57.5 -347zM753 1579v25q79 88 222 303h335v-17q-46 -56 -154 -152.5t-194 -158.5h-209z" horiz-adv-x="1495" unicode="Ó"/><glyph d="M123 537q0 265 99 487.5t273 341.5t402 119q255 0 395 -144t140 -403q0 -283 -99 -506.5t-271 -337.5t-396 -114q-256 0 -399.5 147.5t-143.5 409.5zM434 537q0 -147 66.5 -222t187.5 -75t220.5 87t155.5 246t56 357q0 142 -65 219.5t-183 77.5q-121 0 -222 -91.5 t-158.5 -251.5t-57.5 -347zM499 1579v25q63 57 153 147t142 156h338q22 -54 74 -142.5t102 -160.5v-25h-198q-63 53 -162 168q-105 -88 -232 -168h-217z" horiz-adv-x="1495" unicode="Ô"/><glyph d="M123 537q0 265 99 487.5t273 341.5t402 119q255 0 395 -144t140 -403q0 -283 -99 -506.5t-271 -337.5t-396 -114q-256 0 -399.5 147.5t-143.5 409.5zM434 537q0 -147 66.5 -222t187.5 -75t220.5 87t155.5 246t56 357q0 142 -65 219.5t-183 77.5q-121 0 -222 -91.5 t-158.5 -251.5t-57.5 -347zM520 1577q59 309 281 309q49 0 87.5 -16.5t71.5 -36t62 -35.5t60 -16q34 0 58 25.5t46 80.5h172q-66 -309 -287 -309q-49 0 -86.5 16.5t-69.5 36t-61.5 36t-62.5 16.5q-31 0 -55.5 -28t-38.5 -79h-177z" horiz-adv-x="1495" unicode="Õ"/><glyph d="M123 537q0 265 99 487.5t273 341.5t402 119q255 0 395 -144t140 -403q0 -283 -99 -506.5t-271 -337.5t-396 -114q-256 0 -399.5 147.5t-143.5 409.5zM434 537q0 -147 66.5 -222t187.5 -75t220.5 87t155.5 246t56 357q0 142 -65 219.5t-183 77.5q-121 0 -222 -91.5 t-158.5 -251.5t-57.5 -347zM585 1720q0 78 42.5 118t119.5 40q133 0 133 -108q0 -73 -39 -116.5t-121 -43.5q-135 0 -135 110zM987 1720q0 78 42 118t120 40q65 0 99 -28t34 -80q0 -73 -39.5 -116.5t-120.5 -43.5q-135 0 -135 110z" horiz-adv-x="1495" unicode="Ö"/><glyph d="M129 1024l152 154l301 -299l305 299l153 -150l-305 -305l301 -303l-149 -152l-305 301l-301 -299l-150 152l297 301z" horiz-adv-x="1128" unicode="×"/><glyph d="M100 29l121 151q-98 138 -98 357q0 265 99 487.5t273 341.5t402 119q182 0 305 -76l105 131l151 -117l-117 -145q91 -134 91 -340q0 -283 -99 -506.5t-271 -337.5t-396 -114q-180 0 -304 71l-108 -137zM424 537q0 -32 8 -101l596 754q-69 43 -158 43q-126 0 -229 -91.5 t-160 -252.5t-57 -352zM539 270q59 -37 153 -37q124 0 226 89t158.5 247.5t56.5 360.5l-5 80z" horiz-adv-x="1495" unicode="Ø"/><glyph d="M141 401q0 72 15 138l196 923h305l-194 -919q-17 -74 -17 -125q0 -178 189 -178q123 0 195 76.5t104 228.5l194 917h306l-201 -946q-57 -266 -218 -401t-419 -135q-212 0 -333.5 113.5t-121.5 307.5zM576 1886v21h311q36 -148 115 -303v-25h-184q-71 69 -138.5 153.5 t-103.5 153.5z" horiz-adv-x="1415" unicode="Ù"/><glyph d="M141 401q0 72 15 138l196 923h305l-194 -919q-17 -74 -17 -125q0 -178 189 -178q123 0 195 76.5t104 228.5l194 917h306l-201 -946q-57 -266 -218 -401t-419 -135q-212 0 -333.5 113.5t-121.5 307.5zM757 1579v25q79 88 222 303h335v-17q-46 -56 -154 -152.5t-194 -158.5 h-209z" horiz-adv-x="1415" unicode="Ú"/><glyph d="M141 401q0 72 15 138l196 923h305l-194 -919q-17 -74 -17 -125q0 -178 189 -178q123 0 195 76.5t104 228.5l194 917h306l-201 -946q-57 -266 -218 -401t-419 -135q-212 0 -333.5 113.5t-121.5 307.5zM475 1579v25q63 57 153 147t142 156h338q22 -54 74 -142.5t102 -160.5 v-25h-198q-63 53 -162 168q-105 -88 -232 -168h-217z" horiz-adv-x="1415" unicode="Û"/><glyph d="M141 401q0 72 15 138l196 923h305l-194 -919q-17 -74 -17 -125q0 -178 189 -178q123 0 195 76.5t104 228.5l194 917h306l-201 -946q-57 -266 -218 -401t-419 -135q-212 0 -333.5 113.5t-121.5 307.5zM565 1720q0 78 42.5 118t119.5 40q133 0 133 -108q0 -73 -39 -116.5 t-121 -43.5q-135 0 -135 110zM967 1720q0 78 42 118t120 40q65 0 99 -28t34 -80q0 -73 -39.5 -116.5t-120.5 -43.5q-135 0 -135 110z" horiz-adv-x="1415" unicode="Ü"/><glyph d="M186 1462h312l129 -592l374 592h342l-618 -903l-119 -559h-303l119 559zM606 1579v25q79 88 222 303h335v-17q-46 -56 -154 -152.5t-194 -158.5h-209z" horiz-adv-x="1155" unicode="Ý"/><glyph d="M53 0l309 1462h306l-50 -229h35q242 0 366 -106.5t124 -319.5q0 -243 -170.5 -378.5t-466.5 -135.5h-86l-62 -293h-305zM475 547h55q139 0 222.5 66.5t83.5 185.5q0 180 -195 180h-74z" horiz-adv-x="1188" unicode="Þ"/><glyph d="M-260 -225q61 -21 115 -21q133 0 170 178l254 1207q47 224 182 326t385 102q208 0 331 -90t123 -240q0 -114 -49 -192t-178 -152q-73 -42 -96 -68.5t-23 -54.5q0 -23 22 -49.5t79 -69.5q107 -83 144.5 -150.5t37.5 -150.5q0 -170 -123.5 -270t-337.5 -100q-187 0 -297 61 v240q128 -78 258 -78q101 0 148 33t47 86q0 40 -26.5 75t-108.5 97q-94 72 -129 130t-35 126q0 84 45 145t162 127q66 37 104.5 76t38.5 96q0 62 -39.5 98.5t-124.5 36.5q-96 0 -156 -51.5t-85 -171.5l-254 -1219q-43 -198 -147 -288.5t-277 -90.5q-90 0 -160 25v242z" horiz-adv-x="1350" unicode="ß"/><glyph d="M90 385q0 198 72 377.5t189 278t257 98.5q97 0 167.5 -42t109.5 -122h8l57 143h232l-238 -1118h-229l14 145h-4q-134 -165 -319 -165q-147 0 -231.5 106.5t-84.5 298.5zM395 399q0 -88 33.5 -132t95.5 -44q69 0 133 67t103 181.5t39 259.5q0 71 -38.5 117.5t-101.5 46.5 q-68 0 -129.5 -72t-98 -190t-36.5 -234zM443 1548v21h311q36 -148 115 -303v-25h-184q-71 69 -138.5 153.5t-103.5 153.5z" unicode="à"/><glyph d="M90 385q0 198 72 377.5t189 278t257 98.5q97 0 167.5 -42t109.5 -122h8l57 143h232l-238 -1118h-229l14 145h-4q-134 -165 -319 -165q-147 0 -231.5 106.5t-84.5 298.5zM395 399q0 -88 33.5 -132t95.5 -44q69 0 133 67t103 181.5t39 259.5q0 71 -38.5 117.5t-101.5 46.5 q-68 0 -129.5 -72t-98 -190t-36.5 -234zM598 1241v25q79 88 222 303h335v-17q-46 -56 -154 -152.5t-194 -158.5h-209z" unicode="á"/><glyph d="M90 385q0 198 72 377.5t189 278t257 98.5q97 0 167.5 -42t109.5 -122h8l57 143h232l-238 -1118h-229l14 145h-4q-134 -165 -319 -165q-147 0 -231.5 106.5t-84.5 298.5zM395 399q0 -88 33.5 -132t95.5 -44q69 0 133 67t103 181.5t39 259.5q0 71 -38.5 117.5t-101.5 46.5 q-68 0 -129.5 -72t-98 -190t-36.5 -234zM311 1240v25q63 57 153 147t142 156h338q22 -54 74 -142.5t102 -160.5v-25h-198q-63 53 -162 168q-105 -88 -232 -168h-217z" unicode="â"/><glyph d="M90 385q0 198 72 377.5t189 278t257 98.5q97 0 167.5 -42t109.5 -122h8l57 143h232l-238 -1118h-229l14 145h-4q-134 -165 -319 -165q-147 0 -231.5 106.5t-84.5 298.5zM395 399q0 -88 33.5 -132t95.5 -44q69 0 133 67t103 181.5t39 259.5q0 71 -38.5 117.5t-101.5 46.5 q-68 0 -129.5 -72t-98 -190t-36.5 -234zM333 1239q59 309 281 309q49 0 87.5 -16.5t71.5 -36t62 -35.5t60 -16q34 0 58 25.5t46 80.5h172q-66 -309 -287 -309q-49 0 -86.5 16.5t-69.5 36t-61.5 36t-62.5 16.5q-31 0 -55.5 -28t-38.5 -79h-177z" unicode="ã"/><glyph d="M90 385q0 198 72 377.5t189 278t257 98.5q97 0 167.5 -42t109.5 -122h8l57 143h232l-238 -1118h-229l14 145h-4q-134 -165 -319 -165q-147 0 -231.5 106.5t-84.5 298.5zM395 399q0 -88 33.5 -132t95.5 -44q69 0 133 67t103 181.5t39 259.5q0 71 -38.5 117.5t-101.5 46.5 q-68 0 -129.5 -72t-98 -190t-36.5 -234zM397 1382q0 78 42.5 118t119.5 40q133 0 133 -108q0 -73 -39 -116.5t-121 -43.5q-135 0 -135 110zM799 1382q0 78 42 118t120 40q65 0 99 -28t34 -80q0 -73 -39.5 -116.5t-120.5 -43.5q-135 0 -135 110z" unicode="ä"/><glyph d="M90 385q0 198 72 377.5t189 278t257 98.5q97 0 167.5 -42t109.5 -122h8l57 143h232l-238 -1118h-229l14 145h-4q-134 -165 -319 -165q-147 0 -231.5 106.5t-84.5 298.5zM395 399q0 -88 33.5 -132t95.5 -44q69 0 133 67t103 181.5t39 259.5q0 71 -38.5 117.5t-101.5 46.5 q-68 0 -129.5 -72t-98 -190t-36.5 -234zM521 1477q0 109 68.5 173t179.5 64q110 0 182 -65t72 -170q0 -107 -70 -173.5t-184 -66.5q-110 0 -179 63.5t-69 174.5zM673 1477q0 -45 24 -71t72 -26q42 0 69.5 26t27.5 71t-27.5 70.5t-69.5 25.5t-69 -25.5t-27 -70.5z" unicode="å"/><glyph d="M90 385q0 200 68.5 375.5t185 277t258.5 101.5q96 0 160.5 -38.5t114.5 -125.5h6l57 143h188l-18 -90q44 49 120.5 80t168.5 31q157 0 246.5 -83.5t89.5 -221.5q0 -187 -167 -288.5t-476 -101.5h-52l-2 -19v-19q0 -96 55.5 -147.5t159.5 -51.5q66 0 152 23t162 63v-227 q-179 -86 -361 -86q-109 0 -179.5 27t-117.5 87l-16 -94h-188l14 145h-6q-71 -88 -146.5 -126.5t-167.5 -38.5q-146 0 -227.5 109t-81.5 296zM395 399q0 -84 32.5 -130t90.5 -46q72 0 134 68t99 184.5t37 243.5q0 80 -33 128t-102 48q-68 0 -128 -69t-95 -185.5t-35 -241.5z M1073 647h45q155 0 241.5 48.5t86.5 131.5q0 95 -105 95q-88 0 -166 -80t-102 -195z" horiz-adv-x="1786" unicode="æ"/><glyph d="M90 391q0 212 74.5 385.5t209.5 268t308 94.5q182 0 328 -72l-92 -229q-54 23 -106 40t-118 17q-85 0 -153.5 -64t-107 -175.5t-38.5 -239.5q0 -96 45.5 -144.5t126.5 -48.5q76 0 141 23.5t134 58.5v-246q-152 -79 -336 -79q-201 0 -308.5 107.5t-107.5 303.5zM184 -301 q63 -23 125 -23q102 0 102 82q0 34 -31 56.5t-110 31.5l96 154h185l-39 -72q141 -49 141 -178q0 -116 -83 -179t-234 -63q-86 0 -152 23v168z" horiz-adv-x="989" unicode="ç"/><glyph d="M90 412q0 207 82.5 377.5t223.5 260t319 89.5q177 0 276 -81.5t99 -223.5q0 -187 -167 -288.5t-477 -101.5h-51l-2 -21v-20q0 -91 51.5 -143.5t147.5 -52.5q87 0 158 19t172 67v-227q-172 -86 -390 -86q-210 0 -326 113t-116 319zM428 647h45q155 0 241.5 48.5 t86.5 131.5q0 95 -105 95q-88 0 -166 -80t-102 -195zM423 1548v21h311q36 -148 115 -303v-25h-184q-71 69 -138.5 153.5t-103.5 153.5z" horiz-adv-x="1141" unicode="è"/><glyph d="M90 412q0 207 82.5 377.5t223.5 260t319 89.5q177 0 276 -81.5t99 -223.5q0 -187 -167 -288.5t-477 -101.5h-51l-2 -21v-20q0 -91 51.5 -143.5t147.5 -52.5q87 0 158 19t172 67v-227q-172 -86 -390 -86q-210 0 -326 113t-116 319zM428 647h45q155 0 241.5 48.5 t86.5 131.5q0 95 -105 95q-88 0 -166 -80t-102 -195zM528 1241v25q79 88 222 303h335v-17q-46 -56 -154 -152.5t-194 -158.5h-209z" horiz-adv-x="1141" unicode="é"/><glyph d="M90 412q0 207 82.5 377.5t223.5 260t319 89.5q177 0 276 -81.5t99 -223.5q0 -187 -167 -288.5t-477 -101.5h-51l-2 -21v-20q0 -91 51.5 -143.5t147.5 -52.5q87 0 158 19t172 67v-227q-172 -86 -390 -86q-210 0 -326 113t-116 319zM428 647h45q155 0 241.5 48.5 t86.5 131.5q0 95 -105 95q-88 0 -166 -80t-102 -195zM292 1241v25q63 57 153 147t142 156h338q22 -54 74 -142.5t102 -160.5v-25h-198q-63 53 -162 168q-105 -88 -232 -168h-217z" horiz-adv-x="1141" unicode="ê"/><glyph d="M90 412q0 207 82.5 377.5t223.5 260t319 89.5q177 0 276 -81.5t99 -223.5q0 -187 -167 -288.5t-477 -101.5h-51l-2 -21v-20q0 -91 51.5 -143.5t147.5 -52.5q87 0 158 19t172 67v-227q-172 -86 -390 -86q-210 0 -326 113t-116 319zM428 647h45q155 0 241.5 48.5 t86.5 131.5q0 95 -105 95q-88 0 -166 -80t-102 -195zM365 1382q0 78 42.5 118t119.5 40q133 0 133 -108q0 -73 -39 -116.5t-121 -43.5q-135 0 -135 110zM767 1382q0 78 42 118t120 40q65 0 99 -28t34 -80q0 -73 -39.5 -116.5t-120.5 -43.5q-135 0 -135 110z" horiz-adv-x="1141" unicode="ë"/><glyph d="M37 0l237 1118h301l-237 -1118h-301zM153 1548v21h311q36 -148 115 -303v-25h-184q-71 69 -138.5 153.5t-103.5 153.5z" horiz-adv-x="608" unicode="ì"/><glyph d="M37 0l237 1118h301l-237 -1118h-301zM291 1241v25q79 88 222 303h335v-17q-46 -56 -154 -152.5t-194 -158.5h-209z" horiz-adv-x="608" unicode="í"/><glyph d="M37 0l237 1118h301l-237 -1118h-301zM36 1241v25q63 57 153 147t142 156h338q22 -54 74 -142.5t102 -160.5v-25h-198q-63 53 -162 168q-105 -88 -232 -168h-217z" horiz-adv-x="608" unicode="î"/><glyph d="M37 0l237 1118h301l-237 -1118h-301zM126 1382q0 78 42.5 118t119.5 40q133 0 133 -108q0 -73 -39 -116.5t-121 -43.5q-135 0 -135 110zM528 1382q0 78 42 118t120 40q65 0 99 -28t34 -80q0 -73 -39.5 -116.5t-120.5 -43.5q-135 0 -135 110z" horiz-adv-x="608" unicode="ï"/><glyph d="M72 406q0 165 64.5 301t180.5 212t265 76q83 0 151.5 -31t114.5 -94h6q-20 213 -117 310l-231 -131l-88 147l200 113q-34 34 -124 80l118 186q134 -61 232 -139l237 131l76 -152l-192 -106q81 -107 113 -235t32 -279q0 -249 -69.5 -432.5t-203.5 -283t-323 -99.5 q-216 0 -329 110t-113 316zM375 377q0 -81 39 -126.5t114 -45.5q66 0 122.5 55.5t89 148.5t32.5 193q0 77 -38.5 122.5t-108.5 45.5q-73 0 -130 -53t-88.5 -143t-31.5 -197z" horiz-adv-x="1182" unicode="ð"/><glyph d="M37 0l237 1118h230l-21 -207h6q146 228 355 228q138 0 213.5 -83.5t75.5 -238.5q0 -73 -23 -180l-133 -637h-301l137 653q16 68 16 119q0 123 -108 123q-92 0 -167 -114t-118 -318l-98 -463h-301zM358 1239q59 309 281 309q49 0 87.5 -16.5t71.5 -36t62 -35.5t60 -16 q34 0 58 25.5t46 80.5h172q-66 -309 -287 -309q-49 0 -86.5 16.5t-69.5 36t-61.5 36t-62.5 16.5q-31 0 -55.5 -28t-38.5 -79h-177z" horiz-adv-x="1237" unicode="ñ"/><glyph d="M90 410q0 213 71.5 379.5t206.5 258t316 91.5q196 0 310 -118t114 -325q0 -211 -70.5 -374t-203.5 -252.5t-316 -89.5q-195 0 -311.5 117.5t-116.5 312.5zM393 410q0 -185 150 -185q75 0 135 61.5t93.5 171t33.5 238.5q0 197 -143 197q-75 0 -134.5 -61t-97 -179 t-37.5 -243zM419 1548v21h311q36 -148 115 -303v-25h-184q-71 69 -138.5 153.5t-103.5 153.5z" horiz-adv-x="1198" unicode="ò"/><glyph d="M90 410q0 213 71.5 379.5t206.5 258t316 91.5q196 0 310 -118t114 -325q0 -211 -70.5 -374t-203.5 -252.5t-316 -89.5q-195 0 -311.5 117.5t-116.5 312.5zM393 410q0 -185 150 -185q75 0 135 61.5t93.5 171t33.5 238.5q0 197 -143 197q-75 0 -134.5 -61t-97 -179 t-37.5 -243zM571 1241v25q79 88 222 303h335v-17q-46 -56 -154 -152.5t-194 -158.5h-209z" horiz-adv-x="1198" unicode="ó"/><glyph d="M90 410q0 213 71.5 379.5t206.5 258t316 91.5q196 0 310 -118t114 -325q0 -211 -70.5 -374t-203.5 -252.5t-316 -89.5q-195 0 -311.5 117.5t-116.5 312.5zM393 410q0 -185 150 -185q75 0 135 61.5t93.5 171t33.5 238.5q0 197 -143 197q-75 0 -134.5 -61t-97 -179 t-37.5 -243zM300 1241v25q63 57 153 147t142 156h338q22 -54 74 -142.5t102 -160.5v-25h-198q-63 53 -162 168q-105 -88 -232 -168h-217z" horiz-adv-x="1198" unicode="ô"/><glyph d="M90 410q0 213 71.5 379.5t206.5 258t316 91.5q196 0 310 -118t114 -325q0 -211 -70.5 -374t-203.5 -252.5t-316 -89.5q-195 0 -311.5 117.5t-116.5 312.5zM393 410q0 -185 150 -185q75 0 135 61.5t93.5 171t33.5 238.5q0 197 -143 197q-75 0 -134.5 -61t-97 -179 t-37.5 -243zM314 1239q59 309 281 309q49 0 87.5 -16.5t71.5 -36t62 -35.5t60 -16q34 0 58 25.5t46 80.5h172q-66 -309 -287 -309q-49 0 -86.5 16.5t-69.5 36t-61.5 36t-62.5 16.5q-31 0 -55.5 -28t-38.5 -79h-177z" horiz-adv-x="1198" unicode="õ"/><glyph d="M90 410q0 213 71.5 379.5t206.5 258t316 91.5q196 0 310 -118t114 -325q0 -211 -70.5 -374t-203.5 -252.5t-316 -89.5q-195 0 -311.5 117.5t-116.5 312.5zM393 410q0 -185 150 -185q75 0 135 61.5t93.5 171t33.5 238.5q0 197 -143 197q-75 0 -134.5 -61t-97 -179 t-37.5 -243zM386 1382q0 78 42.5 118t119.5 40q133 0 133 -108q0 -73 -39 -116.5t-121 -43.5q-135 0 -135 110zM788 1382q0 78 42 118t120 40q65 0 99 -28t34 -80q0 -73 -39.5 -116.5t-120.5 -43.5q-135 0 -135 110z" horiz-adv-x="1198" unicode="ö"/><glyph d="M109 612v219h952v-219h-952zM444 373q0 76 37 113.5t103 37.5t102.5 -39t36.5 -112q0 -70 -37 -111t-102 -41t-102.5 39t-37.5 113zM444 1071q0 75 37 113.5t103 38.5q67 0 103 -40.5t36 -111.5q0 -70 -37 -110.5t-102 -40.5t-102.5 39t-37.5 112z" horiz-adv-x="1128" unicode="÷"/><glyph d="M43 6l119 148q-72 107 -72 256q0 213 71.5 379.5t206.5 258t316 91.5q131 0 227 -56l70 88l145 -110l-84 -105q66 -107 66 -260q0 -211 -70.5 -374t-203.5 -252.5t-316 -89.5q-123 0 -225 53l-109 -135zM385 426l365 453q-35 24 -88 24q-81 0 -144.5 -62.5t-98 -169.5 t-34.5 -233v-12zM457 238q11 -8 35.5 -15.5t50.5 -7.5q114 0 193 133t79 318v16z" horiz-adv-x="1198" unicode="ø"/><glyph d="M111 301q0 93 24 213l127 604h301l-137 -653q-16 -68 -16 -119q0 -123 108 -123q92 0 167 114t118 318l98 463h301l-237 -1118h-230l21 207h-6q-145 -227 -355 -227q-138 0 -211 82.5t-73 238.5zM419 1548v21h311q36 -148 115 -303v-25h-184q-71 69 -138.5 153.5 t-103.5 153.5z" horiz-adv-x="1237" unicode="ù"/><glyph d="M111 301q0 93 24 213l127 604h301l-137 -653q-16 -68 -16 -119q0 -123 108 -123q92 0 167 114t118 318l98 463h301l-237 -1118h-230l21 207h-6q-145 -227 -355 -227q-138 0 -211 82.5t-73 238.5zM610 1241v25q79 88 222 303h335v-17q-46 -56 -154 -152.5t-194 -158.5 h-209z" horiz-adv-x="1237" unicode="ú"/><glyph d="M111 301q0 93 24 213l127 604h301l-137 -653q-16 -68 -16 -119q0 -123 108 -123q92 0 167 114t118 318l98 463h301l-237 -1118h-230l21 207h-6q-145 -227 -355 -227q-138 0 -211 82.5t-73 238.5zM334 1241v25q63 57 153 147t142 156h338q22 -54 74 -142.5t102 -160.5v-25 h-198q-63 53 -162 168q-105 -88 -232 -168h-217z" horiz-adv-x="1237" unicode="û"/><glyph d="M111 301q0 93 24 213l127 604h301l-137 -653q-16 -68 -16 -119q0 -123 108 -123q92 0 167 114t118 318l98 463h301l-237 -1118h-230l21 207h-6q-145 -227 -355 -227q-138 0 -211 82.5t-73 238.5zM411 1382q0 78 42.5 118t119.5 40q133 0 133 -108q0 -73 -39 -116.5 t-121 -43.5q-135 0 -135 110zM813 1382q0 78 42 118t120 40q65 0 99 -28t34 -80q0 -73 -39.5 -116.5t-120.5 -43.5q-135 0 -135 110z" horiz-adv-x="1237" unicode="ü"/><glyph d="M-141 -233q68 -13 116 -13q84 0 147.5 48t117.5 149l26 49l-164 1118h295l56 -518q14 -122 14 -293h6q20 51 44 119.5t65 153.5l260 538h327l-680 -1278q-177 -332 -483 -332q-90 0 -147 19v240zM497 1241v25q79 88 222 303h335v-17q-46 -56 -154 -152.5t-194 -158.5 h-209z" horiz-adv-x="1063" unicode="ý"/><glyph d="M-68 -492l435 2048h301l-66 -307q-29 -131 -80 -280h8q131 170 283 170q150 0 232.5 -106.5t82.5 -301.5q0 -199 -69 -381t-182 -276t-250 -94q-178 0 -271 163h-8q-12 -159 -43 -295l-72 -340h-301zM420 399q0 -80 33.5 -128t105.5 -48q69 0 129 65t97.5 183.5 t37.5 247.5q0 88 -37.5 132t-103.5 44q-71 0 -130 -65t-95.5 -184.5t-36.5 -246.5z" horiz-adv-x="1219" unicode="þ"/><glyph d="M-141 -233q68 -13 116 -13q84 0 147.5 48t117.5 149l26 49l-164 1118h295l56 -518q14 -122 14 -293h6q20 51 44 119.5t65 153.5l260 538h327l-680 -1278q-177 -332 -483 -332q-90 0 -147 19v240zM310 1382q0 78 42.5 118t119.5 40q133 0 133 -108q0 -73 -39 -116.5 t-121 -43.5q-135 0 -135 110zM712 1382q0 78 42 118t120 40q65 0 99 -28t34 -80q0 -73 -39.5 -116.5t-120.5 -43.5q-135 0 -135 110z" horiz-adv-x="1063" unicode="ÿ"/><glyph d="M-123 0l766 1468h373l147 -1468h-297l-24 348h-473l-172 -348h-320zM494 608h333l-26 350q-10 131 -10 253v36q-44 -120 -109 -254zM532 1579l45 211h619l-45 -211h-619z" horiz-adv-x="1286" unicode="Ā"/><glyph d="M90 385q0 198 72 377.5t189 278t257 98.5q97 0 167.5 -42t109.5 -122h8l57 143h232l-238 -1118h-229l14 145h-4q-134 -165 -319 -165q-147 0 -231.5 106.5t-84.5 298.5zM395 399q0 -88 33.5 -132t95.5 -44q69 0 133 67t103 181.5t39 259.5q0 71 -38.5 117.5t-101.5 46.5 q-68 0 -129.5 -72t-98 -190t-36.5 -234zM420 1241l45 211h619l-45 -211h-619z" unicode="ā"/><glyph d="M-123 0l766 1468h373l147 -1468h-297l-24 348h-473l-172 -348h-320zM494 608h333l-26 350q-10 131 -10 253v36q-44 -120 -109 -254zM522 1851q0 38 6 66h174q0 -65 36.5 -95t117.5 -30q78 0 127.5 27t66.5 98h189q-55 -338 -393 -338q-153 0 -238.5 73t-85.5 199z" horiz-adv-x="1286" unicode="Ă"/><glyph d="M90 385q0 198 72 377.5t189 278t257 98.5q97 0 167.5 -42t109.5 -122h8l57 143h232l-238 -1118h-229l14 145h-4q-134 -165 -319 -165q-147 0 -231.5 106.5t-84.5 298.5zM395 399q0 -88 33.5 -132t95.5 -44q69 0 133 67t103 181.5t39 259.5q0 71 -38.5 117.5t-101.5 46.5 q-68 0 -129.5 -72t-98 -190t-36.5 -234zM413 1513q0 38 6 66h174q0 -65 36.5 -95t117.5 -30q78 0 127.5 27t66.5 98h189q-55 -338 -393 -338q-153 0 -238.5 73t-85.5 199z" unicode="ă"/><glyph d="M-123 0l766 1468h373l147 -1468h-297l-24 348h-473l-172 -348h-320zM494 608h333l-26 350q-10 131 -10 253v36q-44 -120 -109 -254zM651 -297q0 82 47.5 151t167.5 146h199q-119 -96 -155 -148t-36 -102q0 -28 16 -43.5t44 -15.5q44 0 102 18v-176q-84 -25 -164 -25 q-102 0 -161.5 53.5t-59.5 141.5z" horiz-adv-x="1286" unicode="Ą"/><glyph d="M90 385q0 198 72 377.5t189 278t257 98.5q97 0 167.5 -42t109.5 -122h8l57 143h232l-238 -1118h-229l14 145h-4q-134 -165 -319 -165q-147 0 -231.5 106.5t-84.5 298.5zM395 399q0 -88 33.5 -132t95.5 -44q69 0 133 67t103 181.5t39 259.5q0 71 -38.5 117.5t-101.5 46.5 q-68 0 -129.5 -72t-98 -190t-36.5 -234zM500 -297q0 82 47.5 151t167.5 146h199q-119 -96 -155 -148t-36 -102q0 -28 16 -43.5t44 -15.5q44 0 102 18v-176q-84 -25 -164 -25q-102 0 -161.5 53.5t-59.5 141.5z" unicode="ą"/><glyph d="M123 553q0 262 104 482.5t278 335t400 114.5q125 0 222 -22.5t208 -82.5l-118 -250q-106 59 -175 78t-137 19q-132 0 -237.5 -81t-169.5 -238.5t-64 -338.5q0 -167 68.5 -248t218.5 -81q146 0 338 77v-260q-199 -77 -400 -77q-254 0 -395 149.5t-141 423.5zM735 1579v25 q79 88 222 303h335v-17q-46 -56 -154 -152.5t-194 -158.5h-209z" horiz-adv-x="1253" unicode="Ć"/><glyph d="M90 391q0 212 74.5 385.5t209.5 268t308 94.5q182 0 328 -72l-92 -229q-54 23 -106 40t-118 17q-85 0 -153.5 -64t-107 -175.5t-38.5 -239.5q0 -96 45.5 -144.5t126.5 -48.5q76 0 141 23.5t134 58.5v-246q-152 -79 -336 -79q-201 0 -308.5 107.5t-107.5 303.5zM510 1241 v25q79 88 222 303h335v-17q-46 -56 -154 -152.5t-194 -158.5h-209z" horiz-adv-x="989" unicode="ć"/><glyph d="M123 553q0 262 104 482.5t278 335t400 114.5q125 0 222 -22.5t208 -82.5l-118 -250q-106 59 -175 78t-137 19q-132 0 -237.5 -81t-169.5 -238.5t-64 -338.5q0 -167 68.5 -248t218.5 -81q146 0 338 77v-260q-199 -77 -400 -77q-254 0 -395 149.5t-141 423.5zM483 1579v25 q63 57 153 147t142 156h338q22 -54 74 -142.5t102 -160.5v-25h-198q-63 53 -162 168q-105 -88 -232 -168h-217z" horiz-adv-x="1253" unicode="Ĉ"/><glyph d="M90 391q0 212 74.5 385.5t209.5 268t308 94.5q182 0 328 -72l-92 -229q-54 23 -106 40t-118 17q-85 0 -153.5 -64t-107 -175.5t-38.5 -239.5q0 -96 45.5 -144.5t126.5 -48.5q76 0 141 23.5t134 58.5v-246q-152 -79 -336 -79q-201 0 -308.5 107.5t-107.5 303.5zM253 1241 v25q63 57 153 147t142 156h338q22 -54 74 -142.5t102 -160.5v-25h-198q-63 53 -162 168q-105 -88 -232 -168h-217z" horiz-adv-x="989" unicode="ĉ"/><glyph d="M123 553q0 262 104 482.5t278 335t400 114.5q125 0 222 -22.5t208 -82.5l-118 -250q-106 59 -175 78t-137 19q-132 0 -237.5 -81t-169.5 -238.5t-64 -338.5q0 -167 68.5 -248t218.5 -81q146 0 338 77v-260q-199 -77 -400 -77q-254 0 -395 149.5t-141 423.5zM775 1718 q0 87 47.5 131.5t134.5 44.5q73 0 111 -31t38 -89q0 -80 -44 -129.5t-136 -49.5q-151 0 -151 123z" horiz-adv-x="1253" unicode="Ċ"/><glyph d="M90 391q0 212 74.5 385.5t209.5 268t308 94.5q182 0 328 -72l-92 -229q-54 23 -106 40t-118 17q-85 0 -153.5 -64t-107 -175.5t-38.5 -239.5q0 -96 45.5 -144.5t126.5 -48.5q76 0 141 23.5t134 58.5v-246q-152 -79 -336 -79q-201 0 -308.5 107.5t-107.5 303.5zM531 1380 q0 87 47.5 131.5t134.5 44.5q73 0 111 -31t38 -89q0 -80 -44 -129.5t-136 -49.5q-151 0 -151 123z" horiz-adv-x="989" unicode="ċ"/><glyph d="M123 553q0 262 104 482.5t278 335t400 114.5q125 0 222 -22.5t208 -82.5l-118 -250q-106 59 -175 78t-137 19q-132 0 -237.5 -81t-169.5 -238.5t-64 -338.5q0 -167 68.5 -248t218.5 -81q146 0 338 77v-260q-199 -77 -400 -77q-254 0 -395 149.5t-141 423.5zM514 1882v25 h198q63 -53 162 -168q115 94 232 168h217v-25q-212 -198 -295 -303h-338q-22 54 -74 142.5t-102 160.5z" horiz-adv-x="1253" unicode="Č"/><glyph d="M90 391q0 212 74.5 385.5t209.5 268t308 94.5q182 0 328 -72l-92 -229q-54 23 -106 40t-118 17q-85 0 -153.5 -64t-107 -175.5t-38.5 -239.5q0 -96 45.5 -144.5t126.5 -48.5q76 0 141 23.5t134 58.5v-246q-152 -79 -336 -79q-201 0 -308.5 107.5t-107.5 303.5zM308 1544 v25h198q63 -53 162 -168q115 94 232 168h217v-25q-212 -198 -295 -303h-338q-22 54 -74 142.5t-102 160.5z" horiz-adv-x="989" unicode="č"/><glyph d="M53 0l309 1462h396q270 0 417.5 -143t147.5 -410q0 -280 -98 -486.5t-283.5 -314.5t-437.5 -108h-451zM412 256h106q148 0 258 76t172 223.5t62 337.5q0 154 -72.5 234.5t-208.5 80.5h-115zM469 1882v25h198q63 -53 162 -168q115 94 232 168h217v-25q-212 -198 -295 -303 h-338q-22 54 -74 142.5t-102 160.5z" horiz-adv-x="1386" unicode="Ď"/><glyph d="M90 387q0 196 71.5 374.5t188.5 278t258 99.5q82 0 141.5 -37t112.5 -127h8l2 28q6 110 25 195l76 358h301l-330 -1556h-229l14 145h-4q-71 -87 -148.5 -126t-170.5 -39q-147 0 -231.5 107t-84.5 300zM395 399q0 -176 137 -176q66 0 128.5 68.5t100.5 182.5t38 245 q0 80 -37.5 128t-102.5 48q-68 0 -129.5 -72t-98 -190t-36.5 -234zM1301 1229v26q83 178 124 301h283v-20q-30 -57 -96.5 -147.5t-130.5 -159.5h-180z" unicode="ď"/><glyph d="M37 596l55 254h139l131 612h396q270 0 417.5 -143t147.5 -410q0 -280 -98 -486.5t-283.5 -314.5t-437.5 -108h-451l125 596h-141zM412 256h106q148 0 258 76t172 223.5t62 337.5q0 154 -72.5 234.5t-208.5 80.5h-115l-75 -358h237l-55 -254h-238z" horiz-adv-x="1386" unicode="Đ"/><glyph d="M90 387q0 181 70 348t183 254.5t253 87.5q88 0 150.5 -34.5t107.5 -114.5h8q0 27 5.5 81t29.5 187h-295l41 199h295l35 161h301l-35 -161h154l-41 -199h-156l-252 -1196h-229l14 145h-4q-77 -90 -150.5 -127.5t-158.5 -37.5q-152 0 -239 106t-87 301zM395 399 q0 -88 38 -132t104 -44q68 0 126 59.5t96 171.5t38 220q0 72 -32.5 116t-105.5 44q-71 0 -132 -61t-96.5 -162t-35.5 -212z" unicode="đ"/><glyph d="M53 0l309 1462h818l-54 -254h-512l-67 -321h477l-55 -254h-477l-80 -377h512l-54 -256h-817zM471 1579l45 211h619l-45 -211h-619z" horiz-adv-x="1110" unicode="Ē"/><glyph d="M90 412q0 207 82.5 377.5t223.5 260t319 89.5q177 0 276 -81.5t99 -223.5q0 -187 -167 -288.5t-477 -101.5h-51l-2 -21v-20q0 -91 51.5 -143.5t147.5 -52.5q87 0 158 19t172 67v-227q-172 -86 -390 -86q-210 0 -326 113t-116 319zM428 647h45q155 0 241.5 48.5 t86.5 131.5q0 95 -105 95q-88 0 -166 -80t-102 -195zM395 1241l45 211h619l-45 -211h-619z" horiz-adv-x="1141" unicode="ē"/><glyph d="M53 0l309 1462h818l-54 -254h-512l-67 -321h477l-55 -254h-477l-80 -377h512l-54 -256h-817zM461 1851q0 38 6 66h174q0 -65 36.5 -95t117.5 -30q78 0 127.5 27t66.5 98h189q-55 -338 -393 -338q-153 0 -238.5 73t-85.5 199z" horiz-adv-x="1110" unicode="Ĕ"/><glyph d="M90 412q0 207 82.5 377.5t223.5 260t319 89.5q177 0 276 -81.5t99 -223.5q0 -187 -167 -288.5t-477 -101.5h-51l-2 -21v-20q0 -91 51.5 -143.5t147.5 -52.5q87 0 158 19t172 67v-227q-172 -86 -390 -86q-210 0 -326 113t-116 319zM428 647h45q155 0 241.5 48.5 t86.5 131.5q0 95 -105 95q-88 0 -166 -80t-102 -195zM406 1513q0 38 6 66h174q0 -65 36.5 -95t117.5 -30q78 0 127.5 27t66.5 98h189q-55 -338 -393 -338q-153 0 -238.5 73t-85.5 199z" horiz-adv-x="1141" unicode="ĕ"/><glyph d="M53 0l309 1462h818l-54 -254h-512l-67 -321h477l-55 -254h-477l-80 -377h512l-54 -256h-817zM623 1689q0 87 47.5 131.5t134.5 44.5q73 0 111 -31t38 -89q0 -80 -44 -129.5t-136 -49.5q-151 0 -151 123z" horiz-adv-x="1110" unicode="Ė"/><glyph d="M90 412q0 207 82.5 377.5t223.5 260t319 89.5q177 0 276 -81.5t99 -223.5q0 -187 -167 -288.5t-477 -101.5h-51l-2 -21v-20q0 -91 51.5 -143.5t147.5 -52.5q87 0 158 19t172 67v-227q-172 -86 -390 -86q-210 0 -326 113t-116 319zM428 647h45q155 0 241.5 48.5 t86.5 131.5q0 95 -105 95q-88 0 -166 -80t-102 -195zM572 1380q0 87 47.5 131.5t134.5 44.5q73 0 111 -31t38 -89q0 -80 -44 -129.5t-136 -49.5q-151 0 -151 123z" horiz-adv-x="1141" unicode="ė"/><glyph d="M53 0l309 1462h818l-54 -254h-512l-67 -321h477l-55 -254h-477l-80 -377h512l-54 -256h-817zM358 -297q0 82 47.5 151t167.5 146h199q-119 -96 -155 -148t-36 -102q0 -28 16 -43.5t44 -15.5q44 0 102 18v-176q-84 -25 -164 -25q-102 0 -161.5 53.5t-59.5 141.5z" horiz-adv-x="1110" unicode="Ę"/><glyph d="M90 412q0 207 82.5 377.5t223.5 260t319 89.5q177 0 276 -81.5t99 -223.5q0 -187 -167 -288.5t-477 -101.5h-51l-2 -21v-20q0 -91 51.5 -143.5t147.5 -52.5q87 0 158 19t172 67v-227q-172 -86 -390 -86q-210 0 -326 113t-116 319zM428 647h45q155 0 241.5 48.5 t86.5 131.5q0 95 -105 95q-88 0 -166 -80t-102 -195zM277 -277q0 82 47.5 151t167.5 146h199q-119 -96 -155 -148t-36 -102q0 -28 16 -43.5t44 -15.5q44 0 102 18v-176q-84 -25 -164 -25q-102 0 -161.5 53.5t-59.5 141.5z" horiz-adv-x="1141" unicode="ę"/><glyph d="M53 0l309 1462h818l-54 -254h-512l-67 -321h477l-55 -254h-477l-80 -377h512l-54 -256h-817zM422 1882v25h198q63 -53 162 -168q115 94 232 168h217v-25q-212 -198 -295 -303h-338q-22 54 -74 142.5t-102 160.5z" horiz-adv-x="1110" unicode="Ě"/><glyph d="M90 412q0 207 82.5 377.5t223.5 260t319 89.5q177 0 276 -81.5t99 -223.5q0 -187 -167 -288.5t-477 -101.5h-51l-2 -21v-20q0 -91 51.5 -143.5t147.5 -52.5q87 0 158 19t172 67v-227q-172 -86 -390 -86q-210 0 -326 113t-116 319zM428 647h45q155 0 241.5 48.5 t86.5 131.5q0 95 -105 95q-88 0 -166 -80t-102 -195zM364 1544v25h198q63 -53 162 -168q115 94 232 168h217v-25q-212 -198 -295 -303h-338q-22 54 -74 142.5t-102 160.5z" horiz-adv-x="1141" unicode="ě"/><glyph d="M123 549q0 268 107 484.5t301 334t448 117.5q218 0 410 -99l-115 -251q-74 40 -148 64t-161 24q-153 0 -273.5 -83t-189 -236.5t-68.5 -330.5q0 -172 72.5 -252.5t222.5 -80.5q76 0 170 24l66 299h-267l56 258h563l-162 -762q-134 -46 -248.5 -62.5t-242.5 -16.5 q-259 0 -400 147t-141 422zM499 1579v25q63 57 153 147t142 156h338q22 -54 74 -142.5t102 -160.5v-25h-198q-63 53 -162 168q-105 -88 -232 -168h-217z" horiz-adv-x="1413" unicode="Ĝ"/><glyph d="M-115 -209q0 102 68.5 175.5t214.5 121.5q-74 47 -74 133q0 71 44.5 122.5t146.5 98.5q-65 49 -96 112t-31 153q0 199 125.5 315.5t341.5 116.5q83 0 166 -23h395l-35 -166l-174 -41q16 -52 16 -118q0 -195 -121 -308.5t-329 -113.5q-59 0 -99 10q-84 -27 -84 -78 q0 -34 30 -49t89 -23l137 -18q163 -21 237.5 -84.5t74.5 -183.5q0 -211 -156 -323t-446 -112q-208 0 -324.5 75.5t-116.5 207.5zM150 -172q0 -115 194 -115q151 0 228 45t77 127q0 39 -32.5 60t-137.5 35l-114 14q-106 -14 -160.5 -57t-54.5 -109zM442 680q0 -119 103 -119 q75 0 121.5 76.5t46.5 193.5t-99 117q-77 0 -124.5 -76.5t-47.5 -191.5zM381 1241v25q63 57 153 147t142 156h338q22 -54 74 -142.5t102 -160.5v-25h-198q-63 53 -162 168q-105 -88 -232 -168h-217z" horiz-adv-x="1108" unicode="ĝ"/><glyph d="M123 549q0 268 107 484.5t301 334t448 117.5q218 0 410 -99l-115 -251q-74 40 -148 64t-161 24q-153 0 -273.5 -83t-189 -236.5t-68.5 -330.5q0 -172 72.5 -252.5t222.5 -80.5q76 0 170 24l66 299h-267l56 258h563l-162 -762q-134 -46 -248.5 -62.5t-242.5 -16.5 q-259 0 -400 147t-141 422zM586 1851q0 38 6 66h174q0 -65 36.5 -95t117.5 -30q78 0 127.5 27t66.5 98h189q-55 -338 -393 -338q-153 0 -238.5 73t-85.5 199z" horiz-adv-x="1413" unicode="Ğ"/><glyph d="M-115 -209q0 102 68.5 175.5t214.5 121.5q-74 47 -74 133q0 71 44.5 122.5t146.5 98.5q-65 49 -96 112t-31 153q0 199 125.5 315.5t341.5 116.5q83 0 166 -23h395l-35 -166l-174 -41q16 -52 16 -118q0 -195 -121 -308.5t-329 -113.5q-59 0 -99 10q-84 -27 -84 -78 q0 -34 30 -49t89 -23l137 -18q163 -21 237.5 -84.5t74.5 -183.5q0 -211 -156 -323t-446 -112q-208 0 -324.5 75.5t-116.5 207.5zM150 -172q0 -115 194 -115q151 0 228 45t77 127q0 39 -32.5 60t-137.5 35l-114 14q-106 -14 -160.5 -57t-54.5 -109zM442 680q0 -119 103 -119 q75 0 121.5 76.5t46.5 193.5t-99 117q-77 0 -124.5 -76.5t-47.5 -191.5zM432 1513q0 38 6 66h174q0 -65 36.5 -95t117.5 -30q78 0 127.5 27t66.5 98h189q-55 -338 -393 -338q-153 0 -238.5 73t-85.5 199z" horiz-adv-x="1108" unicode="ğ"/><glyph d="M123 549q0 268 107 484.5t301 334t448 117.5q218 0 410 -99l-115 -251q-74 40 -148 64t-161 24q-153 0 -273.5 -83t-189 -236.5t-68.5 -330.5q0 -172 72.5 -252.5t222.5 -80.5q76 0 170 24l66 299h-267l56 258h563l-162 -762q-134 -46 -248.5 -62.5t-242.5 -16.5 q-259 0 -400 147t-141 422zM777 1718q0 87 47.5 131.5t134.5 44.5q73 0 111 -31t38 -89q0 -80 -44 -129.5t-136 -49.5q-151 0 -151 123z" horiz-adv-x="1413" unicode="Ġ"/><glyph d="M-115 -209q0 102 68.5 175.5t214.5 121.5q-74 47 -74 133q0 71 44.5 122.5t146.5 98.5q-65 49 -96 112t-31 153q0 199 125.5 315.5t341.5 116.5q83 0 166 -23h395l-35 -166l-174 -41q16 -52 16 -118q0 -195 -121 -308.5t-329 -113.5q-59 0 -99 10q-84 -27 -84 -78 q0 -34 30 -49t89 -23l137 -18q163 -21 237.5 -84.5t74.5 -183.5q0 -211 -156 -323t-446 -112q-208 0 -324.5 75.5t-116.5 207.5zM150 -172q0 -115 194 -115q151 0 228 45t77 127q0 39 -32.5 60t-137.5 35l-114 14q-106 -14 -160.5 -57t-54.5 -109zM442 680q0 -119 103 -119 q75 0 121.5 76.5t46.5 193.5t-99 117q-77 0 -124.5 -76.5t-47.5 -191.5zM613 1380q0 87 47.5 131.5t134.5 44.5q73 0 111 -31t38 -89q0 -80 -44 -129.5t-136 -49.5q-151 0 -151 123z" horiz-adv-x="1108" unicode="ġ"/><glyph d="M123 549q0 268 107 484.5t301 334t448 117.5q218 0 410 -99l-115 -251q-74 40 -148 64t-161 24q-153 0 -273.5 -83t-189 -236.5t-68.5 -330.5q0 -172 72.5 -252.5t222.5 -80.5q76 0 170 24l66 299h-267l56 258h563l-162 -762q-134 -46 -248.5 -62.5t-242.5 -16.5 q-259 0 -400 147t-141 422zM404 -426q25 51 65.5 147.5t59.5 153.5h282v-20q-33 -62 -95.5 -146.5t-131.5 -161.5h-180v27z" horiz-adv-x="1413" unicode="Ģ"/><glyph d="M-115 -209q0 102 68.5 175.5t214.5 121.5q-74 47 -74 133q0 71 44.5 122.5t146.5 98.5q-65 49 -96 112t-31 153q0 199 125.5 315.5t341.5 116.5q83 0 166 -23h395l-35 -166l-174 -41q16 -52 16 -118q0 -195 -121 -308.5t-329 -113.5q-59 0 -99 10q-84 -27 -84 -78 q0 -34 30 -49t89 -23l137 -18q163 -21 237.5 -84.5t74.5 -183.5q0 -211 -156 -323t-446 -112q-208 0 -324.5 75.5t-116.5 207.5zM150 -172q0 -115 194 -115q151 0 228 45t77 127q0 39 -32.5 60t-137.5 35l-114 14q-106 -14 -160.5 -57t-54.5 -109zM442 680q0 -119 103 -119 q75 0 121.5 76.5t46.5 193.5t-99 117q-77 0 -124.5 -76.5t-47.5 -191.5zM588 1241v21q31 59 95.5 146t131.5 161h181v-27q-20 -40 -63.5 -141t-61.5 -160h-283z" horiz-adv-x="1108" unicode="ģ"/><glyph d="M53 0l309 1462h306l-121 -573h471l121 573h305l-309 -1462h-306l134 631h-471l-134 -631h-305zM495 1579v25q63 57 153 147t142 156h338q22 -54 74 -142.5t102 -160.5v-25h-198q-63 53 -162 168q-105 -88 -232 -168h-217z" horiz-adv-x="1434" unicode="Ĥ"/><glyph d="M37 0l330 1556h301q-39 -181 -60 -278t-86 -309h8q62 77 138 123.5t176 46.5q138 0 213.5 -83.5t75.5 -238.5q0 -73 -23 -180l-133 -637h-301l137 653q16 68 16 119q0 123 -108 123q-92 0 -167 -114t-118 -318l-98 -463h-301zM389 1634v25q63 57 153 147t142 156h338 q22 -54 74 -142.5t102 -160.5v-25h-198q-63 53 -162 168q-105 -88 -232 -168h-217z" horiz-adv-x="1237" unicode="ĥ"/><glyph d="M53 0l226 1069h-177l41 199h179l40 194h306l-41 -194h471l41 194h305l-41 -194h178l-41 -199h-180l-225 -1069h-306l134 631h-471l-134 -631h-305zM547 889h471l37 180h-471z" horiz-adv-x="1434" unicode="Ħ"/><glyph d="M37 0l254 1196h-162l43 199h160l35 161h301l-33 -161h299l-43 -199h-299q-38 -164 -80 -289h8q62 78 136.5 124t174.5 46q140 0 214.5 -84t74.5 -237q0 -79 -22 -181l-121 -575h-301l125 592q16 68 16 119q0 123 -106 123q-93 0 -168.5 -115.5t-118.5 -317.5l-86 -401 h-301z" horiz-adv-x="1237" unicode="ħ"/><glyph d="M53 0l312 1462h305l-312 -1462h-305zM138 1577q59 309 281 309q49 0 87.5 -16.5t71.5 -36t62 -35.5t60 -16q34 0 58 25.5t46 80.5h172q-66 -309 -287 -309q-49 0 -86.5 16.5t-69.5 36t-61.5 36t-62.5 16.5q-31 0 -55.5 -28t-38.5 -79h-177z" horiz-adv-x="659" unicode="Ĩ"/><glyph d="M37 0l237 1118h301l-237 -1118h-301zM54 1239q59 309 281 309q49 0 87.5 -16.5t71.5 -36t62 -35.5t60 -16q34 0 58 25.5t46 80.5h172q-66 -309 -287 -309q-49 0 -86.5 16.5t-69.5 36t-61.5 36t-62.5 16.5q-31 0 -55.5 -28t-38.5 -79h-177z" horiz-adv-x="608" unicode="ĩ"/><glyph d="M53 0l312 1462h305l-312 -1462h-305zM230 1579l45 211h619l-45 -211h-619z" horiz-adv-x="659" unicode="Ī"/><glyph d="M37 0l237 1118h301l-237 -1118h-301zM128 1241l45 211h619l-45 -211h-619z" horiz-adv-x="608" unicode="ī"/><glyph d="M53 0l312 1462h305l-312 -1462h-305zM226 1851q0 38 6 66h174q0 -65 36.5 -95t117.5 -30q78 0 127.5 27t66.5 98h189q-55 -338 -393 -338q-153 0 -238.5 73t-85.5 199z" horiz-adv-x="659" unicode="Ĭ"/><glyph d="M37 0l237 1118h301l-237 -1118h-301zM134 1513q0 38 6 66h174q0 -65 36.5 -95t117.5 -30q78 0 127.5 27t66.5 98h189q-55 -338 -393 -338q-153 0 -238.5 73t-85.5 199z" horiz-adv-x="608" unicode="ĭ"/><glyph d="M53 0l312 1462h305l-312 -1462h-305zM-72 -297q0 82 47.5 151t167.5 146h199q-119 -96 -155 -148t-36 -102q0 -28 16 -43.5t44 -15.5q44 0 102 18v-176q-84 -25 -164 -25q-102 0 -161.5 53.5t-59.5 141.5z" horiz-adv-x="659" unicode="Į"/><glyph d="M37 0l237 1118h301l-237 -1118h-301zM322 1380q0 87 47.5 131.5t134.5 44.5q73 0 111 -31t38 -89q0 -80 -44 -129.5t-136 -49.5q-151 0 -151 123zM-76 -297q0 82 47.5 151t167.5 146h199q-119 -96 -155 -148t-36 -102q0 -28 16 -43.5t44 -15.5q44 0 102 18v-176 q-84 -25 -164 -25q-102 0 -161.5 53.5t-59.5 141.5z" horiz-adv-x="608" unicode="į"/><glyph d="M53 0l312 1462h305l-312 -1462h-305zM410 1718q0 87 47.5 131.5t134.5 44.5q73 0 111 -31t38 -89q0 -80 -44 -129.5t-136 -49.5q-151 0 -151 123z" horiz-adv-x="659" unicode="İ"/><glyph d="M37 0l237 1118h301l-237 -1118h-301z" horiz-adv-x="608" unicode="ı"/><glyph d="M53 0l312 1462h305l-312 -1462h-305zM337 -150q88 -20 164 -20q99 0 160.5 60.5t89.5 191.5l293 1380h305l-303 -1423q-52 -245 -175.5 -357t-346.5 -112q-94 0 -187 27v253z" horiz-adv-x="1337" unicode="Ĳ"/><glyph d="M37 0l237 1118h301l-237 -1118h-301zM322 1380q0 87 47.5 131.5t134.5 44.5q73 0 111 -31t38 -89q0 -80 -44 -129.5t-136 -49.5q-151 0 -151 123zM344 -225q61 -21 114 -21q137 0 173 170l253 1194h302l-265 -1239q-77 -371 -403 -371q-104 0 -174 25v242zM932 1380 q0 87 47.5 131.5t134.5 44.5q73 0 111 -31t38 -89q0 -80 -44 -129.5t-136 -49.5q-151 0 -151 123z" unicode="ĳ"/><glyph d="M-322 -150q88 -20 164 -20q99 0 160.5 60.5t89.5 191.5l293 1380h305l-303 -1423q-52 -245 -175.5 -357t-346.5 -112q-94 0 -187 27v253zM140 1579v25q63 57 153 147t142 156h338q22 -54 74 -142.5t102 -160.5v-25h-198q-63 53 -162 168q-105 -88 -232 -168h-217z" horiz-adv-x="678" unicode="Ĵ"/><glyph d="M-262 -225q61 -21 115 -21q61 0 107 40t65 130l254 1194h301l-265 -1239q-77 -371 -403 -371q-104 0 -174 25v242zM27 1241v25q63 57 153 147t142 156h338q22 -54 74 -142.5t102 -160.5v-25h-198q-63 53 -162 168q-105 -88 -232 -168h-217z" horiz-adv-x="608" unicode="ĵ"/><glyph d="M53 0l309 1462h306l-152 -702l158 205l409 497h361l-594 -700l291 -762h-338l-211 592l-125 -70l-109 -522h-305zM303 -426q25 51 65.5 147.5t59.5 153.5h282v-20q-33 -62 -95.5 -146.5t-131.5 -161.5h-180v27z" horiz-adv-x="1255" unicode="Ķ"/><glyph d="M37 0l330 1556h301l-148 -694q-8 -41 -29 -117l-28 -102h4l453 475h344l-498 -504l285 -614h-336l-183 420l-120 -72l-74 -348h-301zM246 -426q25 51 65.5 147.5t59.5 153.5h282v-20q-33 -62 -95.5 -146.5t-131.5 -161.5h-180v27z" horiz-adv-x="1163" unicode="ķ"/><glyph d="M37 0l237 1118h301q-71 -319 -87 -379t-29 -102h4l457 481h344l-498 -504l285 -614h-336l-183 420l-120 -72l-74 -348h-301z" horiz-adv-x="1163" unicode="ĸ"/><glyph d="M53 0l309 1462h306l-256 -1206h512l-54 -256h-817zM404 1579v25q79 88 222 303h335v-17q-46 -56 -154 -152.5t-194 -158.5h-209z" horiz-adv-x="1061" unicode="Ĺ"/><glyph d="M37 0l330 1556h301l-330 -1556h-301zM384 1636v25q79 88 222 303h335v-17q-46 -56 -154 -152.5t-194 -158.5h-209z" horiz-adv-x="608" unicode="ĺ"/><glyph d="M53 0l309 1462h306l-256 -1206h512l-54 -256h-817zM189 -426q25 51 65.5 147.5t59.5 153.5h282v-20q-33 -62 -95.5 -146.5t-131.5 -161.5h-180v27z" horiz-adv-x="1061" unicode="Ļ"/><glyph d="M37 0l330 1556h301l-330 -1556h-301zM-99 -426q25 51 65.5 147.5t59.5 153.5h282v-20q-33 -62 -95.5 -146.5t-131.5 -161.5h-180v27z" horiz-adv-x="608" unicode="ļ"/><glyph d="M53 0l309 1462h306l-256 -1206h512l-54 -256h-817zM783 1136v26q83 178 124 301h283v-20q-30 -57 -96.5 -147.5t-130.5 -159.5h-180z" horiz-adv-x="1061" unicode="Ľ"/><glyph d="M37 0l330 1556h301l-330 -1556h-301zM695 1229v26q83 178 124 301h283v-20q-30 -57 -96.5 -147.5t-130.5 -159.5h-180z" horiz-adv-x="608" unicode="ľ"/><glyph d="M53 0l309 1462h306l-256 -1206h512l-54 -256h-817zM695 724q0 87 47.5 131.5t134.5 44.5q73 0 111 -31t38 -89q0 -80 -44 -129.5t-136 -49.5q-151 0 -151 123z" horiz-adv-x="1061" unicode="Ŀ"/><glyph d="M37 0l330 1556h301l-330 -1556h-301zM611 668q0 87 47.5 131.5t134.5 44.5q73 0 111 -31t38 -89q0 -80 -44 -129.5t-136 -49.5q-151 0 -151 123z" horiz-adv-x="889" unicode="ŀ"/><glyph d="M0 653l221 119l146 690h303l-107 -506l142 78l106 -203l-311 -167l-86 -408h512l-54 -256h-815l103 481l-58 -30z" horiz-adv-x="1063" unicode="Ł"/><glyph d="M0 637l223 121l170 798h297l-131 -620l64 37l106 -203l-231 -125l-138 -645h-297l99 467l-60 -33z" horiz-adv-x="670" unicode="ł"/><glyph d="M53 0l309 1462h357l340 -1077h4q12 76 39 217t180 860h274l-309 -1462h-342l-356 1106h-6l-4 -32q-32 -216 -66 -386l-145 -688h-275zM856 1579v25q79 88 222 303h335v-17q-46 -56 -154 -152.5t-194 -158.5h-209z" horiz-adv-x="1546" unicode="Ń"/><glyph d="M37 0l237 1118h230l-21 -207h6q146 228 355 228q138 0 213.5 -83.5t75.5 -238.5q0 -73 -23 -180l-133 -637h-301l137 653q16 68 16 119q0 123 -108 123q-92 0 -167 -114t-118 -318l-98 -463h-301zM598 1241v25q79 88 222 303h335v-17q-46 -56 -154 -152.5t-194 -158.5 h-209z" horiz-adv-x="1237" unicode="ń"/><glyph d="M53 0l309 1462h357l340 -1077h4q12 76 39 217t180 860h274l-309 -1462h-342l-356 1106h-6l-4 -32q-32 -216 -66 -386l-145 -688h-275zM381 -426q25 51 65.5 147.5t59.5 153.5h282v-20q-33 -62 -95.5 -146.5t-131.5 -161.5h-180v27z" horiz-adv-x="1546" unicode="Ņ"/><glyph d="M37 0l237 1118h230l-21 -207h6q146 228 355 228q138 0 213.5 -83.5t75.5 -238.5q0 -73 -23 -180l-133 -637h-301l137 653q16 68 16 119q0 123 -108 123q-92 0 -167 -114t-118 -318l-98 -463h-301zM238 -426q25 51 65.5 147.5t59.5 153.5h282v-20q-33 -62 -95.5 -146.5 t-131.5 -161.5h-180v27z" horiz-adv-x="1237" unicode="ņ"/><glyph d="M53 0l309 1462h357l340 -1077h4q12 76 39 217t180 860h274l-309 -1462h-342l-356 1106h-6l-4 -32q-32 -216 -66 -386l-145 -688h-275zM621 1882v25h198q63 -53 162 -168q115 94 232 168h217v-25q-212 -198 -295 -303h-338q-22 54 -74 142.5t-102 160.5z" horiz-adv-x="1546" unicode="Ň"/><glyph d="M37 0l237 1118h230l-21 -207h6q146 228 355 228q138 0 213.5 -83.5t75.5 -238.5q0 -73 -23 -180l-133 -637h-301l137 653q16 68 16 119q0 123 -108 123q-92 0 -167 -114t-118 -318l-98 -463h-301zM383 1544v25h198q63 -53 162 -168q115 94 232 168h217v-25 q-212 -198 -295 -303h-338q-22 54 -74 142.5t-102 160.5z" horiz-adv-x="1237" unicode="ň"/><glyph d="M195 0l237 1118h230l-21 -207h6q146 228 355 228q138 0 213.5 -83.5t75.5 -238.5q0 -73 -23 -180l-133 -637h-301l137 653q16 68 16 119q0 123 -108 123q-92 0 -167 -114t-118 -318l-98 -463h-301zM1 961q89 206 195 501h285l8 -22q-103 -227 -262 -479h-226z" horiz-adv-x="1395" unicode="ŉ"/><glyph d="M53 0l309 1462h330l381 -985h6q41 260 72 397l131 588h274l-309 -1462q-46 -215 -178.5 -322.5t-341.5 -107.5q-120 0 -190 24v259q85 -23 161 -23q215 0 269 170l-418 1106h-6l-4 -32q-32 -216 -66 -386l-145 -688h-275z" horiz-adv-x="1546" unicode="Ŋ"/><glyph d="M37 0l237 1118h230l-21 -207h6q146 228 355 228q138 0 213.5 -83.5t75.5 -238.5q0 -73 -23 -180l-158 -754q-41 -192 -141.5 -283.5t-263.5 -91.5q-104 0 -174 25v242q61 -21 114 -21q61 0 107.5 40.5t64.5 129.5l154 729q16 68 16 119q0 123 -108 123q-92 0 -167 -114 t-118 -318l-98 -463h-301z" horiz-adv-x="1237" unicode="ŋ"/><glyph d="M123 537q0 265 99 487.5t273 341.5t402 119q255 0 395 -144t140 -403q0 -283 -99 -506.5t-271 -337.5t-396 -114q-256 0 -399.5 147.5t-143.5 409.5zM434 537q0 -147 66.5 -222t187.5 -75t220.5 87t155.5 246t56 357q0 142 -65 219.5t-183 77.5q-121 0 -222 -91.5 t-158.5 -251.5t-57.5 -347zM623 1579l45 211h619l-45 -211h-619z" horiz-adv-x="1495" unicode="Ō"/><glyph d="M90 410q0 213 71.5 379.5t206.5 258t316 91.5q196 0 310 -118t114 -325q0 -211 -70.5 -374t-203.5 -252.5t-316 -89.5q-195 0 -311.5 117.5t-116.5 312.5zM393 410q0 -185 150 -185q75 0 135 61.5t93.5 171t33.5 238.5q0 197 -143 197q-75 0 -134.5 -61t-97 -179 t-37.5 -243zM399 1241l45 211h619l-45 -211h-619z" horiz-adv-x="1198" unicode="ō"/><glyph d="M123 537q0 265 99 487.5t273 341.5t402 119q255 0 395 -144t140 -403q0 -283 -99 -506.5t-271 -337.5t-396 -114q-256 0 -399.5 147.5t-143.5 409.5zM434 537q0 -147 66.5 -222t187.5 -75t220.5 87t155.5 246t56 357q0 142 -65 219.5t-183 77.5q-121 0 -222 -91.5 t-158.5 -251.5t-57.5 -347zM606 1851q0 38 6 66h174q0 -65 36.5 -95t117.5 -30q78 0 127.5 27t66.5 98h189q-55 -338 -393 -338q-153 0 -238.5 73t-85.5 199z" horiz-adv-x="1495" unicode="Ŏ"/><glyph d="M90 410q0 213 71.5 379.5t206.5 258t316 91.5q196 0 310 -118t114 -325q0 -211 -70.5 -374t-203.5 -252.5t-316 -89.5q-195 0 -311.5 117.5t-116.5 312.5zM393 410q0 -185 150 -185q75 0 135 61.5t93.5 171t33.5 238.5q0 197 -143 197q-75 0 -134.5 -61t-97 -179 t-37.5 -243zM394 1513q0 38 6 66h174q0 -65 36.5 -95t117.5 -30q78 0 127.5 27t66.5 98h189q-55 -338 -393 -338q-153 0 -238.5 73t-85.5 199z" horiz-adv-x="1198" unicode="ŏ"/><glyph d="M123 537q0 265 99 487.5t273 341.5t402 119q255 0 395 -144t140 -403q0 -283 -99 -506.5t-271 -337.5t-396 -114q-256 0 -399.5 147.5t-143.5 409.5zM434 537q0 -147 66.5 -222t187.5 -75t220.5 87t155.5 246t56 357q0 142 -65 219.5t-183 77.5q-121 0 -222 -91.5 t-158.5 -251.5t-57.5 -347zM601 1579v25q114 128 231 303h305v-17q-43 -53 -152.5 -147.5t-205.5 -163.5h-178zM998 1579v25q114 128 231 303h305v-17q-43 -53 -152.5 -147.5t-205.5 -163.5h-178z" horiz-adv-x="1495" unicode="Ő"/><glyph d="M90 410q0 213 71.5 379.5t206.5 258t316 91.5q196 0 310 -118t114 -325q0 -211 -70.5 -374t-203.5 -252.5t-316 -89.5q-195 0 -311.5 117.5t-116.5 312.5zM393 410q0 -185 150 -185q75 0 135 61.5t93.5 171t33.5 238.5q0 197 -143 197q-75 0 -134.5 -61t-97 -179 t-37.5 -243zM375 1241v25q114 128 231 303h305v-17q-43 -53 -152.5 -147.5t-205.5 -163.5h-178zM772 1241v25q114 128 231 303h305v-17q-43 -53 -152.5 -147.5t-205.5 -163.5h-178z" horiz-adv-x="1198" unicode="ő"/><glyph d="M123 537q0 265 99 487.5t273 341.5t402 119q140 0 209 -23h809l-53 -254h-512l-68 -321h477l-55 -254h-477l-80 -377h512l-53 -256h-760q-93 -20 -180 -20q-256 0 -399.5 147.5t-143.5 409.5zM434 537q0 -147 66.5 -222t187.5 -75q88 0 158 32l194 916q-62 39 -168 39 q-121 0 -222 -91.5t-158.5 -251.5t-57.5 -347z" horiz-adv-x="1845" unicode="Œ"/><glyph d="M90 414q0 216 69 380.5t200 254.5t309 90q209 0 313 -160q154 160 399 160q177 0 276 -81.5t99 -223.5q0 -187 -167 -288.5t-476 -101.5h-51l-2 -21v-20q0 -91 51 -143.5t147 -52.5q87 0 158 19t172 67v-227q-93 -46 -185.5 -66t-203.5 -20q-116 0 -208 38.5t-138 106.5 q-63 -68 -147 -106.5t-207 -38.5q-187 0 -297.5 117t-110.5 317zM393 414q0 -91 36.5 -140t109.5 -49q109 0 179 134.5t70 336.5q0 96 -37 146.5t-106 50.5q-71 0 -127 -60.5t-90.5 -176.5t-34.5 -242zM1094 647h45q155 0 241 48.5t86 131.5q0 95 -104 95 q-88 0 -165.5 -78.5t-102.5 -196.5z" horiz-adv-x="1806" unicode="œ"/><glyph d="M53 0l309 1462h359q237 0 356 -102t119 -299q0 -158 -83 -271.5t-239 -168.5l261 -621h-332l-207 561h-119l-119 -561h-305zM530 813h78q131 0 204 57t73 174q0 82 -47.5 123t-149.5 41h-74zM645 1579v25q79 88 222 303h335v-17q-46 -56 -154 -152.5t-194 -158.5h-209z" horiz-adv-x="1247" unicode="Ŕ"/><glyph d="M37 0l237 1118h230l-21 -207h6q147 228 353 228q59 0 96 -11l-66 -290q-45 16 -100 16q-116 0 -203.5 -91.5t-124.5 -262.5l-106 -500h-301zM459 1241v25q79 88 222 303h335v-17q-46 -56 -154 -152.5t-194 -158.5h-209z" horiz-adv-x="862" unicode="ŕ"/><glyph d="M53 0l309 1462h359q237 0 356 -102t119 -299q0 -158 -83 -271.5t-239 -168.5l261 -621h-332l-207 561h-119l-119 -561h-305zM530 813h78q131 0 204 57t73 174q0 82 -47.5 123t-149.5 41h-74zM299 -426q25 51 65.5 147.5t59.5 153.5h282v-20q-33 -62 -95.5 -146.5 t-131.5 -161.5h-180v27z" horiz-adv-x="1247" unicode="Ŗ"/><glyph d="M37 0l237 1118h230l-21 -207h6q147 228 353 228q59 0 96 -11l-66 -290q-45 16 -100 16q-116 0 -203.5 -91.5t-124.5 -262.5l-106 -500h-301zM-95 -426q25 51 65.5 147.5t59.5 153.5h282v-20q-33 -62 -95.5 -146.5t-131.5 -161.5h-180v27z" horiz-adv-x="862" unicode="ŗ"/><glyph d="M53 0l309 1462h359q237 0 356 -102t119 -299q0 -158 -83 -271.5t-239 -168.5l261 -621h-332l-207 561h-119l-119 -561h-305zM530 813h78q131 0 204 57t73 174q0 82 -47.5 123t-149.5 41h-74zM443 1882v25h198q63 -53 162 -168q115 94 232 168h217v-25 q-212 -198 -295 -303h-338q-22 54 -74 142.5t-102 160.5z" horiz-adv-x="1247" unicode="Ř"/><glyph d="M37 0l237 1118h230l-21 -207h6q147 228 353 228q59 0 96 -11l-66 -290q-45 16 -100 16q-116 0 -203.5 -91.5t-124.5 -262.5l-106 -500h-301zM259 1544v25h198q63 -53 162 -168q115 94 232 168h217v-25q-212 -198 -295 -303h-338q-22 54 -74 142.5t-102 160.5z" horiz-adv-x="862" unicode="ř"/><glyph d="M41 70v274q193 -108 358 -108q112 0 175 42.5t63 116.5q0 43 -13.5 75.5t-38.5 60.5t-124 102q-138 99 -194 196t-56 209q0 129 62 230.5t176.5 158t263.5 56.5q217 0 397 -99l-109 -233q-156 74 -288 74q-83 0 -136 -45t-53 -119q0 -61 33 -106.5t148 -120.5 q121 -80 181 -176.5t60 -225.5q0 -209 -148 -330.5t-401 -121.5q-221 0 -356 90zM587 1579v25q79 88 222 303h335v-17q-46 -56 -154 -152.5t-194 -158.5h-209z" horiz-adv-x="1085" unicode="Ś"/><glyph d="M23 45v248q157 -90 319 -90q80 0 131 32.5t51 88.5q0 43 -37 77t-131 86q-121 68 -169 135.5t-48 159.5q0 170 110.5 263.5t315.5 93.5q201 0 363 -95l-99 -215q-140 84 -258 84q-57 0 -92 -25.5t-35 -68.5q0 -39 32 -68.5t120 -74.5q123 -63 178 -137t55 -170 q0 -188 -124.5 -288.5t-346.5 -100.5q-107 0 -186.5 15t-148.5 50zM443 1241v25q79 88 222 303h335v-17q-46 -56 -154 -152.5t-194 -158.5h-209z" horiz-adv-x="969" unicode="ś"/><glyph d="M41 70v274q193 -108 358 -108q112 0 175 42.5t63 116.5q0 43 -13.5 75.5t-38.5 60.5t-124 102q-138 99 -194 196t-56 209q0 129 62 230.5t176.5 158t263.5 56.5q217 0 397 -99l-109 -233q-156 74 -288 74q-83 0 -136 -45t-53 -119q0 -61 33 -106.5t148 -120.5 q121 -80 181 -176.5t60 -225.5q0 -209 -148 -330.5t-401 -121.5q-221 0 -356 90zM315 1579v25q63 57 153 147t142 156h338q22 -54 74 -142.5t102 -160.5v-25h-198q-63 53 -162 168q-105 -88 -232 -168h-217z" horiz-adv-x="1085" unicode="Ŝ"/><glyph d="M23 45v248q157 -90 319 -90q80 0 131 32.5t51 88.5q0 43 -37 77t-131 86q-121 68 -169 135.5t-48 159.5q0 170 110.5 263.5t315.5 93.5q201 0 363 -95l-99 -215q-140 84 -258 84q-57 0 -92 -25.5t-35 -68.5q0 -39 32 -68.5t120 -74.5q123 -63 178 -137t55 -170 q0 -188 -124.5 -288.5t-346.5 -100.5q-107 0 -186.5 15t-148.5 50zM171 1241v25q63 57 153 147t142 156h338q22 -54 74 -142.5t102 -160.5v-25h-198q-63 53 -162 168q-105 -88 -232 -168h-217z" horiz-adv-x="969" unicode="ŝ"/><glyph d="M41 70v274q193 -108 358 -108q112 0 175 42.5t63 116.5q0 43 -13.5 75.5t-38.5 60.5t-124 102q-138 99 -194 196t-56 209q0 129 62 230.5t176.5 158t263.5 56.5q217 0 397 -99l-109 -233q-156 74 -288 74q-83 0 -136 -45t-53 -119q0 -61 33 -106.5t148 -120.5 q121 -80 181 -176.5t60 -225.5q0 -209 -148 -330.5t-401 -121.5q-221 0 -356 90zM149 -301q63 -23 125 -23q102 0 102 82q0 34 -31 56.5t-110 31.5l96 154h185l-39 -72q141 -49 141 -178q0 -116 -83 -179t-234 -63q-86 0 -152 23v168z" horiz-adv-x="1085" unicode="Ş"/><glyph d="M23 45v248q157 -90 319 -90q80 0 131 32.5t51 88.5q0 43 -37 77t-131 86q-121 68 -169 135.5t-48 159.5q0 170 110.5 263.5t315.5 93.5q201 0 363 -95l-99 -215q-140 84 -258 84q-57 0 -92 -25.5t-35 -68.5q0 -39 32 -68.5t120 -74.5q123 -63 178 -137t55 -170 q0 -188 -124.5 -288.5t-346.5 -100.5q-107 0 -186.5 15t-148.5 50zM96 -301q63 -23 125 -23q102 0 102 82q0 34 -31 56.5t-110 31.5l96 154h185l-39 -72q141 -49 141 -178q0 -116 -83 -179t-234 -63q-86 0 -152 23v168z" horiz-adv-x="969" unicode="ş"/><glyph d="M41 70v274q193 -108 358 -108q112 0 175 42.5t63 116.5q0 43 -13.5 75.5t-38.5 60.5t-124 102q-138 99 -194 196t-56 209q0 129 62 230.5t176.5 158t263.5 56.5q217 0 397 -99l-109 -233q-156 74 -288 74q-83 0 -136 -45t-53 -119q0 -61 33 -106.5t148 -120.5 q121 -80 181 -176.5t60 -225.5q0 -209 -148 -330.5t-401 -121.5q-221 0 -356 90zM362 1882v25h198q63 -53 162 -168q115 94 232 168h217v-25q-212 -198 -295 -303h-338q-22 54 -74 142.5t-102 160.5z" horiz-adv-x="1085" unicode="Š"/><glyph d="M23 45v248q157 -90 319 -90q80 0 131 32.5t51 88.5q0 43 -37 77t-131 86q-121 68 -169 135.5t-48 159.5q0 170 110.5 263.5t315.5 93.5q201 0 363 -95l-99 -215q-140 84 -258 84q-57 0 -92 -25.5t-35 -68.5q0 -39 32 -68.5t120 -74.5q123 -63 178 -137t55 -170 q0 -188 -124.5 -288.5t-346.5 -100.5q-107 0 -186.5 15t-148.5 50zM249 1544v25h198q63 -53 162 -168q115 94 232 168h217v-25q-212 -198 -295 -303h-338q-22 54 -74 142.5t-102 160.5z" horiz-adv-x="969" unicode="š"/><glyph d="M168 1204l55 258h1010l-55 -258h-353l-254 -1204h-305l254 1204h-352zM141 -301q63 -23 125 -23q102 0 102 82q0 34 -31 56.5t-110 31.5l96 154h185l-39 -72q141 -49 141 -178q0 -116 -83 -179t-234 -63q-86 0 -152 23v168z" horiz-adv-x="1087" unicode="Ţ"/><glyph d="M94 889l29 147l196 84l132 236h194l-49 -238h283l-50 -229h-282l-115 -539q-6 -30 -6 -53q0 -74 88 -74q65 0 162 35v-225q-111 -53 -266 -53q-150 0 -220.5 63t-70.5 195q0 50 12 112l115 539h-152zM86 -301q63 -23 125 -23q102 0 102 82q0 34 -31 56.5t-110 31.5 l96 154h185l-39 -72q141 -49 141 -178q0 -116 -83 -179t-234 -63q-86 0 -152 23v168z" horiz-adv-x="840" unicode="ţ"/><glyph d="M168 1204l55 258h1010l-55 -258h-353l-254 -1204h-305l254 1204h-352zM397 1882v25h198q63 -53 162 -168q115 94 232 168h217v-25q-212 -198 -295 -303h-338q-22 54 -74 142.5t-102 160.5z" horiz-adv-x="1087" unicode="Ť"/><glyph d="M94 889l29 147l196 84l132 236h194l-49 -238h283l-50 -229h-282l-115 -539q-6 -30 -6 -53q0 -74 88 -74q65 0 162 35v-225q-111 -53 -266 -53q-150 0 -220.5 63t-70.5 195q0 50 12 112l115 539h-152zM752 1249v26q83 178 124 301h283v-20q-30 -57 -96.5 -147.5 t-130.5 -159.5h-180z" horiz-adv-x="840" unicode="ť"/><glyph d="M166 596l55 254h223l76 354h-352l55 258h1010l-55 -258h-353l-75 -354h235l-55 -254h-234l-125 -596h-305l125 596h-225z" horiz-adv-x="1087" unicode="Ŧ"/><glyph d="M31 498l41 198h133l41 193h-152l29 147l196 84l132 236h194l-49 -238h283l-50 -229h-282l-41 -193h233l-41 -198h-235l-31 -148q-6 -30 -6 -53q0 -74 88 -74q65 0 162 35v-225q-111 -53 -266 -53q-150 0 -220.5 63t-70.5 195q0 50 12 112l33 148h-133z" horiz-adv-x="840" unicode="ŧ"/><glyph d="M141 401q0 72 15 138l196 923h305l-194 -919q-17 -74 -17 -125q0 -178 189 -178q123 0 195 76.5t104 228.5l194 917h306l-201 -946q-57 -266 -218 -401t-419 -135q-212 0 -333.5 113.5t-121.5 307.5zM520 1577q59 309 281 309q49 0 87.5 -16.5t71.5 -36t62 -35.5t60 -16 q34 0 58 25.5t46 80.5h172q-66 -309 -287 -309q-49 0 -86.5 16.5t-69.5 36t-61.5 36t-62.5 16.5q-31 0 -55.5 -28t-38.5 -79h-177z" horiz-adv-x="1415" unicode="Ũ"/><glyph d="M111 301q0 93 24 213l127 604h301l-137 -653q-16 -68 -16 -119q0 -123 108 -123q92 0 167 114t118 318l98 463h301l-237 -1118h-230l21 207h-6q-145 -227 -355 -227q-138 0 -211 82.5t-73 238.5zM364 1239q59 309 281 309q49 0 87.5 -16.5t71.5 -36t62 -35.5t60 -16 q34 0 58 25.5t46 80.5h172q-66 -309 -287 -309q-49 0 -86.5 16.5t-69.5 36t-61.5 36t-62.5 16.5q-31 0 -55.5 -28t-38.5 -79h-177z" horiz-adv-x="1237" unicode="ũ"/><glyph d="M141 401q0 72 15 138l196 923h305l-194 -919q-17 -74 -17 -125q0 -178 189 -178q123 0 195 76.5t104 228.5l194 917h306l-201 -946q-57 -266 -218 -401t-419 -135q-212 0 -333.5 113.5t-121.5 307.5zM602 1579l45 211h619l-45 -211h-619z" horiz-adv-x="1415" unicode="Ū"/><glyph d="M111 301q0 93 24 213l127 604h301l-137 -653q-16 -68 -16 -119q0 -123 108 -123q92 0 167 114t118 318l98 463h301l-237 -1118h-230l21 207h-6q-145 -227 -355 -227q-138 0 -211 82.5t-73 238.5zM442 1241l45 211h619l-45 -211h-619z" horiz-adv-x="1237" unicode="ū"/><glyph d="M141 401q0 72 15 138l196 923h305l-194 -919q-17 -74 -17 -125q0 -178 189 -178q123 0 195 76.5t104 228.5l194 917h306l-201 -946q-57 -266 -218 -401t-419 -135q-212 0 -333.5 113.5t-121.5 307.5zM592 1851q0 38 6 66h174q0 -65 36.5 -95t117.5 -30q78 0 127.5 27 t66.5 98h189q-55 -338 -393 -338q-153 0 -238.5 73t-85.5 199z" horiz-adv-x="1415" unicode="Ŭ"/><glyph d="M111 301q0 93 24 213l127 604h301l-137 -653q-16 -68 -16 -119q0 -123 108 -123q92 0 167 114t118 318l98 463h301l-237 -1118h-230l21 207h-6q-145 -227 -355 -227q-138 0 -211 82.5t-73 238.5zM444 1513q0 38 6 66h174q0 -65 36.5 -95t117.5 -30q78 0 127.5 27t66.5 98 h189q-55 -338 -393 -338q-153 0 -238.5 73t-85.5 199z" horiz-adv-x="1237" unicode="ŭ"/><glyph d="M141 401q0 72 15 138l196 923h305l-194 -919q-17 -74 -17 -125q0 -178 189 -178q123 0 195 76.5t104 228.5l194 917h306l-201 -946q-57 -266 -218 -401t-419 -135q-212 0 -333.5 113.5t-121.5 307.5zM692 1815q0 109 68.5 173t179.5 64q110 0 182 -65t72 -170 q0 -107 -70 -173.5t-184 -66.5q-110 0 -179 63.5t-69 174.5zM844 1815q0 -45 24 -71t72 -26q42 0 69.5 26t27.5 71t-27.5 70.5t-69.5 25.5t-69 -25.5t-27 -70.5z" horiz-adv-x="1415" unicode="Ů"/><glyph d="M111 301q0 93 24 213l127 604h301l-137 -653q-16 -68 -16 -119q0 -123 108 -123q92 0 167 114t118 318l98 463h301l-237 -1118h-230l21 207h-6q-145 -227 -355 -227q-138 0 -211 82.5t-73 238.5zM532 1477q0 109 68.5 173t179.5 64q110 0 182 -65t72 -170 q0 -107 -70 -173.5t-184 -66.5q-110 0 -179 63.5t-69 174.5zM684 1477q0 -45 24 -71t72 -26q42 0 69.5 26t27.5 71t-27.5 70.5t-69.5 25.5t-69 -25.5t-27 -70.5z" horiz-adv-x="1237" unicode="ů"/><glyph d="M141 401q0 72 15 138l196 923h305l-194 -919q-17 -74 -17 -125q0 -178 189 -178q123 0 195 76.5t104 228.5l194 917h306l-201 -946q-57 -266 -218 -401t-419 -135q-212 0 -333.5 113.5t-121.5 307.5zM598 1579v25q114 128 231 303h305v-17q-43 -53 -152.5 -147.5 t-205.5 -163.5h-178zM995 1579v25q114 128 231 303h305v-17q-43 -53 -152.5 -147.5t-205.5 -163.5h-178z" horiz-adv-x="1415" unicode="Ű"/><glyph d="M111 301q0 93 24 213l127 604h301l-137 -653q-16 -68 -16 -119q0 -123 108 -123q92 0 167 114t118 318l98 463h301l-237 -1118h-230l21 207h-6q-145 -227 -355 -227q-138 0 -211 82.5t-73 238.5zM429 1241v25q114 128 231 303h305v-17q-43 -53 -152.5 -147.5 t-205.5 -163.5h-178zM826 1241v25q114 128 231 303h305v-17q-43 -53 -152.5 -147.5t-205.5 -163.5h-178z" horiz-adv-x="1237" unicode="ű"/><glyph d="M141 401q0 72 15 138l196 923h305l-194 -919q-17 -74 -17 -125q0 -178 189 -178q123 0 195 76.5t104 228.5l194 917h306l-201 -946q-57 -266 -218 -401t-419 -135q-212 0 -333.5 113.5t-121.5 307.5zM449 -297q0 82 47.5 151t167.5 146h199q-119 -96 -155 -148t-36 -102 q0 -28 16 -43.5t44 -15.5q44 0 102 18v-176q-84 -25 -164 -25q-102 0 -161.5 53.5t-59.5 141.5z" horiz-adv-x="1415" unicode="Ų"/><glyph d="M111 301q0 93 24 213l127 604h301l-137 -653q-16 -68 -16 -119q0 -123 108 -123q92 0 167 114t118 318l98 463h301l-237 -1118h-230l21 207h-6q-145 -227 -355 -227q-138 0 -211 82.5t-73 238.5zM520 -297q0 82 47.5 151t167.5 146h199q-119 -96 -155 -148t-36 -102 q0 -28 16 -43.5t44 -15.5q44 0 102 18v-176q-84 -25 -164 -25q-102 0 -161.5 53.5t-59.5 141.5z" horiz-adv-x="1237" unicode="ų"/><glyph d="M184 1462h287l6 -798q0 -52 -4 -173t-10 -174h6q22 64 67 180.5t60 145.5l369 819h270l21 -873q0 -146 -9 -272h6q43 129 131 349l330 796h309l-647 -1462h-346l-22 721l-2 139q0 88 4 158h-4q-46 -146 -115 -299l-324 -719h-338zM710 1579v25q63 57 153 147t142 156h338 q22 -54 74 -142.5t102 -160.5v-25h-198q-63 53 -162 168q-105 -88 -232 -168h-217z" horiz-adv-x="1831" unicode="Ŵ"/><glyph d="M125 1118h281l4 -495l-4 -167l-7 -171h4q6 20 14 41.5t51 136.5t46 119l231 536h328v-536q0 -142 -10 -297h6l28 80q73 208 95 258l219 495h307l-530 -1118h-330l-6 520q0 155 10 340h-6q-62 -178 -123 -319l-233 -541h-324zM512 1241v25q63 57 153 147t142 156h338 q22 -54 74 -142.5t102 -160.5v-25h-198q-63 53 -162 168q-105 -88 -232 -168h-217z" horiz-adv-x="1614" unicode="ŵ"/><glyph d="M186 1462h312l129 -592l374 592h342l-618 -903l-119 -559h-303l119 559zM342 1579v25q63 57 153 147t142 156h338q22 -54 74 -142.5t102 -160.5v-25h-198q-63 53 -162 168q-105 -88 -232 -168h-217z" horiz-adv-x="1155" unicode="Ŷ"/><glyph d="M-141 -233q68 -13 116 -13q84 0 147.5 48t117.5 149l26 49l-164 1118h295l56 -518q14 -122 14 -293h6q20 51 44 119.5t65 153.5l260 538h327l-680 -1278q-177 -332 -483 -332q-90 0 -147 19v240zM224 1241v25q63 57 153 147t142 156h338q22 -54 74 -142.5t102 -160.5v-25 h-198q-63 53 -162 168q-105 -88 -232 -168h-217z" horiz-adv-x="1063" unicode="ŷ"/><glyph d="M186 1462h312l129 -592l374 592h342l-618 -903l-119 -559h-303l119 559zM432 1720q0 78 42.5 118t119.5 40q133 0 133 -108q0 -73 -39 -116.5t-121 -43.5q-135 0 -135 110zM834 1720q0 78 42 118t120 40q65 0 99 -28t34 -80q0 -73 -39.5 -116.5t-120.5 -43.5 q-135 0 -135 110z" horiz-adv-x="1155" unicode="Ÿ"/><glyph d="M-61 0l38 201l777 1005h-543l53 256h936l-41 -202l-782 -1004h596l-53 -256h-981zM589 1579v25q79 88 222 303h335v-17q-46 -56 -154 -152.5t-194 -158.5h-209z" horiz-adv-x="1098" unicode="Ź"/><glyph d="M-47 0l35 180l575 705h-397l51 233h750l-43 -200l-566 -685h439l-49 -233h-795zM476 1241v25q79 88 222 303h335v-17q-46 -56 -154 -152.5t-194 -158.5h-209z" horiz-adv-x="932" unicode="ź"/><glyph d="M-61 0l38 201l777 1005h-543l53 256h936l-41 -202l-782 -1004h596l-53 -256h-981zM594 1718q0 87 47.5 131.5t134.5 44.5q73 0 111 -31t38 -89q0 -80 -44 -129.5t-136 -49.5q-151 0 -151 123z" horiz-adv-x="1098" unicode="Ż"/><glyph d="M-47 0l35 180l575 705h-397l51 233h750l-43 -200l-566 -685h439l-49 -233h-795zM455 1380q0 87 47.5 131.5t134.5 44.5q73 0 111 -31t38 -89q0 -80 -44 -129.5t-136 -49.5q-151 0 -151 123z" horiz-adv-x="932" unicode="ż"/><glyph d="M-61 0l38 201l777 1005h-543l53 256h936l-41 -202l-782 -1004h596l-53 -256h-981zM387 1882v25h198q63 -53 162 -168q115 94 232 168h217v-25q-212 -198 -295 -303h-338q-22 54 -74 142.5t-102 160.5z" horiz-adv-x="1098" unicode="Ž"/><glyph d="M-47 0l35 180l575 705h-397l51 233h750l-43 -200l-566 -685h439l-49 -233h-795zM265 1544v25h198q63 -53 162 -168q115 94 232 168h217v-25q-212 -198 -295 -303h-338q-22 54 -74 142.5t-102 160.5z" horiz-adv-x="932" unicode="ž"/><glyph d="M-246 -225q61 -21 115 -21q136 0 172 170l272 1278q42 192 139.5 278.5t272.5 86.5q129 0 236 -49l-80 -224q-69 31 -133 31q-57 0 -91.5 -40t-48.5 -105l-276 -1301q-77 -371 -404 -371q-104 0 -174 25v242z" horiz-adv-x="733" unicode="ſ"/><glyph d="M-31 -225q61 -21 115 -21q136 0 172 170l186 881h-168l29 149l189 80l18 84q41 190 138.5 277.5t273.5 87.5q131 0 235 -49l-80 -224q-69 31 -133 31q-57 0 -92 -40t-47 -105l-12 -62h219l-49 -229h-220l-196 -926q-77 -371 -404 -371q-104 0 -174 25v242z" horiz-adv-x="1128" unicode="ƒ"/><glyph d="M123 537q0 265 99 487.5t273 341.5t402 119q306 0 444 -207q112 74 144 278h303l10 -24q-47 -159 -140.5 -263.5t-244.5 -162.5q19 -84 19 -168q0 -283 -99 -506.5t-271 -337.5t-396 -114q-256 0 -399.5 147.5t-143.5 409.5zM434 537q0 -147 66.5 -222t187.5 -75 t220.5 87t155.5 246t56 357q0 142 -65 219.5t-183 77.5q-121 0 -222 -91.5t-158.5 -251.5t-57.5 -347z" horiz-adv-x="1581" unicode="Ơ"/><glyph d="M90 410q0 213 71.5 379.5t206.5 258t316 91.5q219 0 334 -146q68 27 110 96t64 197h295l10 -24q-48 -180 -140.5 -278.5t-262.5 -158.5q14 -51 14 -129q0 -211 -70.5 -374t-203.5 -252.5t-316 -89.5q-195 0 -311.5 117.5t-116.5 312.5zM393 410q0 -185 150 -185 q75 0 135 61.5t93.5 171t33.5 238.5q0 197 -143 197q-75 0 -134.5 -61t-97 -179t-37.5 -243z" horiz-adv-x="1317" unicode="ơ"/><glyph d="M141 401q0 72 15 138l196 923h305l-194 -919q-17 -74 -17 -125q0 -178 189 -178q123 0 195 76.5t104 228.5l194 917h306l-39 -184q76 24 118 86.5t62 191.5h303l10 -24q-60 -204 -197 -316.5t-337 -125.5l-121 -574q-57 -266 -218 -401t-419 -135q-212 0 -333.5 113.5 t-121.5 307.5z" horiz-adv-x="1587" unicode="Ư"/><glyph d="M106 301q0 68 29 213l127 604h301l-137 -653q-16 -68 -16 -119q0 -123 108 -123q92 0 167 114t118 318l98 463h301l-24 -112q51 13 85 44t55.5 79.5t41.5 154.5h303l10 -24q-58 -201 -194 -314t-340 -129l-174 -817h-230l21 207h-6q-145 -227 -355 -227q-137 0 -213 82.5 t-76 238.5z" horiz-adv-x="1456" unicode="ư"/><glyph d="M-262 -225q61 -21 115 -21q61 0 107 40t65 130l254 1194h301l-265 -1239q-77 -371 -403 -371q-104 0 -174 25v242zM97 1544v25h198q63 -53 162 -168q115 94 232 168h217v-25q-212 -198 -295 -303h-338q-22 54 -74 142.5t-102 160.5z" horiz-adv-x="608" unicode="ǰ"/><glyph d="M-123 0l731 1346q-24 48 -24 114q0 110 68 174t179 64q110 0 182 -65t72 -171q0 -112 -77 -180l155 -1282h-297l-30 330h-469l-170 -330h-320zM498 590h323l-26 309q-10 85 -15 250h-12q-43 -111 -96 -217zM735 1460q0 -45 24 -70.5t72 -25.5q42 0 69.5 25.5t27.5 70.5 t-27.5 70.5t-69.5 25.5t-69 -25.5t-27 -70.5zM768 1753v14q36 27 102.5 87.5t108.5 107.5h342v-10q-58 -49 -156 -105t-182 -94h-215z" horiz-adv-x="1286" unicode="Ǻ"/><glyph d="M90 385q0 198 72 377.5t189 278t257 98.5q97 0 167.5 -42t109.5 -122h8l57 143h232l-238 -1118h-229l14 145h-4q-134 -165 -319 -165q-147 0 -231.5 106.5t-84.5 298.5zM395 399q0 -88 33.5 -132t95.5 -44q69 0 133 67t103 181.5t39 259.5q0 71 -38.5 117.5t-101.5 46.5 q-68 0 -129.5 -72t-98 -190t-36.5 -234zM494 1436q0 108 67.5 172.5t179.5 64.5q110 0 182 -65t72 -170q0 -107 -70 -173.5t-184 -66.5q-112 0 -179.5 64.5t-67.5 173.5zM645 1436q0 -45 24 -71t72 -26q42 0 69.5 26t27.5 71t-27.5 70.5t-69.5 25.5t-69 -25.5t-27 -70.5z M680 1753v14q39 31 106 92t105 103h342v-10q-58 -49 -156 -105t-182 -94h-215z" horiz-adv-x="1206" unicode="ǻ"/><glyph d="M-123 0l922 1462h1104l-54 -254h-512l-67 -321h477l-55 -254h-478l-79 -377h512l-54 -256h-817l74 348h-426l-219 -348h-328zM588 608h317l127 600h-80zM1128 1579v25q79 88 222 303h335v-17q-46 -56 -154 -152.5t-194 -158.5h-209z" horiz-adv-x="1833" unicode="Ǽ"/><glyph d="M90 385q0 200 68.5 375.5t185 277t258.5 101.5q96 0 160.5 -38.5t114.5 -125.5h6l57 143h188l-18 -90q44 49 120.5 80t168.5 31q157 0 246.5 -83.5t89.5 -221.5q0 -187 -167 -288.5t-476 -101.5h-52l-2 -19v-19q0 -96 55.5 -147.5t159.5 -51.5q66 0 152 23t162 63v-227 q-179 -86 -361 -86q-109 0 -179.5 27t-117.5 87l-16 -94h-188l14 145h-6q-71 -88 -146.5 -126.5t-167.5 -38.5q-146 0 -227.5 109t-81.5 296zM395 399q0 -84 32.5 -130t90.5 -46q72 0 134 68t99 184.5t37 243.5q0 80 -33 128t-102 48q-68 0 -128 -69t-95 -185.5t-35 -241.5z M1073 647h45q155 0 241.5 48.5t86.5 131.5q0 95 -105 95q-88 0 -166 -80t-102 -195zM948 1241v25q79 88 222 303h335v-17q-46 -56 -154 -152.5t-194 -158.5h-209z" horiz-adv-x="1786" unicode="ǽ"/><glyph d="M100 29l121 151q-98 138 -98 357q0 265 99 487.5t273 341.5t402 119q182 0 305 -76l105 131l151 -117l-117 -145q91 -134 91 -340q0 -283 -99 -506.5t-271 -337.5t-396 -114q-180 0 -304 71l-108 -137zM424 537q0 -32 8 -101l596 754q-69 43 -158 43q-126 0 -229 -91.5 t-160 -252.5t-57 -352zM539 270q59 -37 153 -37q124 0 226 89t158.5 247.5t56.5 360.5l-5 80zM753 1579v25q79 88 222 303h335v-17q-46 -56 -154 -152.5t-194 -158.5h-209z" horiz-adv-x="1495" unicode="Ǿ"/><glyph d="M43 6l119 148q-72 107 -72 256q0 213 71.5 379.5t206.5 258t316 91.5q131 0 227 -56l70 88l145 -110l-84 -105q66 -107 66 -260q0 -211 -70.5 -374t-203.5 -252.5t-316 -89.5q-123 0 -225 53l-109 -135zM385 426l365 453q-35 24 -88 24q-81 0 -144.5 -62.5t-98 -169.5 t-34.5 -233v-12zM457 238q11 -8 35.5 -15.5t50.5 -7.5q114 0 193 133t79 318v16zM555 1241v25q79 88 222 303h335v-17q-46 -56 -154 -152.5t-194 -158.5h-209z" horiz-adv-x="1198" unicode="ǿ"/><glyph d="M41 70v274q193 -108 358 -108q112 0 175 42.5t63 116.5q0 43 -13.5 75.5t-38.5 60.5t-124 102q-138 99 -194 196t-56 209q0 129 62 230.5t176.5 158t263.5 56.5q217 0 397 -99l-109 -233q-156 74 -288 74q-83 0 -136 -45t-53 -119q0 -61 33 -106.5t148 -120.5 q121 -80 181 -176.5t60 -225.5q0 -209 -148 -330.5t-401 -121.5q-221 0 -356 90zM150 -426q25 51 65.5 147.5t59.5 153.5h282v-20q-33 -62 -95.5 -146.5t-131.5 -161.5h-180v27z" horiz-adv-x="1085" unicode="Ș"/><glyph d="M23 45v248q157 -90 319 -90q80 0 131 32.5t51 88.5q0 43 -37 77t-131 86q-121 68 -169 135.5t-48 159.5q0 170 110.5 263.5t315.5 93.5q201 0 363 -95l-99 -215q-140 84 -258 84q-57 0 -92 -25.5t-35 -68.5q0 -39 32 -68.5t120 -74.5q123 -63 178 -137t55 -170 q0 -188 -124.5 -288.5t-346.5 -100.5q-107 0 -186.5 15t-148.5 50zM108 -426q25 51 65.5 147.5t59.5 153.5h282v-20q-33 -62 -95.5 -146.5t-131.5 -161.5h-180v27z" horiz-adv-x="969" unicode="ș"/><glyph d="M168 1204l55 258h1010l-55 -258h-353l-254 -1204h-305l254 1204h-352zM127 -426q25 51 65.5 147.5t59.5 153.5h282v-20q-33 -62 -95.5 -146.5t-131.5 -161.5h-180v27z" horiz-adv-x="1087" unicode="Ț"/><glyph d="M94 889l29 147l196 84l132 236h194l-49 -238h283l-50 -229h-282l-115 -539q-6 -30 -6 -53q0 -74 88 -74q65 0 162 35v-225q-111 -53 -266 -53q-150 0 -220.5 63t-70.5 195q0 50 12 112l115 539h-152zM56 -426q25 51 65.5 147.5t59.5 153.5h282v-20q-33 -62 -95.5 -146.5 t-131.5 -161.5h-180v27z" horiz-adv-x="840" unicode="ț"/><glyph d="M-262 -225q61 -21 115 -21q61 0 107 40t65 130l254 1194h301l-265 -1239q-77 -371 -403 -371q-104 0 -174 25v242z" horiz-adv-x="608" unicode="ȷ"/><glyph d="M106 961q89 206 195 501h285l8 -22q-103 -227 -262 -479h-226z" horiz-adv-x="440" unicode="ʼ"/><glyph d="M311 1241v25q63 57 153 147t142 156h338q22 -54 74 -142.5t102 -160.5v-25h-198q-63 53 -162 168q-105 -88 -232 -168h-217z" horiz-adv-x="1135" unicode="ˆ"/><glyph d="M377 1544v25h198q63 -53 162 -168q115 94 232 168h217v-25q-212 -198 -295 -303h-338q-22 54 -74 142.5t-102 160.5z" horiz-adv-x="1135" unicode="ˇ"/><glyph d="M385 1241l45 211h619l-45 -211h-619z" horiz-adv-x="1096" unicode="ˉ"/><glyph d="M430 1513q0 38 6 66h174q0 -65 36.5 -95t117.5 -30q78 0 127.5 27t66.5 98h189q-55 -338 -393 -338q-153 0 -238.5 73t-85.5 199z" horiz-adv-x="1135" unicode="˘"/><glyph d="M322 1380q0 87 47.5 131.5t134.5 44.5q73 0 111 -31t38 -89q0 -80 -44 -129.5t-136 -49.5q-151 0 -151 123z" horiz-adv-x="608" unicode="˙"/><glyph d="M532 1477q0 109 68.5 173t179.5 64q110 0 182 -65t72 -170q0 -107 -70 -173.5t-184 -66.5q-110 0 -179 63.5t-69 174.5zM684 1477q0 -45 24 -71t72 -26q42 0 69.5 26t27.5 71t-27.5 70.5t-69.5 25.5t-69 -25.5t-27 -70.5z" horiz-adv-x="1182" unicode="˚"/><glyph d="M-172 -297q0 82 47.5 151t167.5 146h199q-119 -96 -155 -148t-36 -102q0 -28 16 -43.5t44 -15.5q44 0 102 18v-176q-84 -25 -164 -25q-102 0 -161.5 53.5t-59.5 141.5z" horiz-adv-x="422" unicode="˛"/><glyph d="M315 1239q59 309 281 309q49 0 87.5 -16.5t71.5 -36t62 -35.5t60 -16q34 0 58 25.5t46 80.5h172q-66 -309 -287 -309q-49 0 -86.5 16.5t-69.5 36t-61.5 36t-62.5 16.5q-31 0 -55.5 -28t-38.5 -79h-177z" horiz-adv-x="1135" unicode="˜"/><glyph d="M279 1241v25q114 128 231 303h305v-17q-43 -53 -152.5 -147.5t-205.5 -163.5h-178zM676 1241v25q114 128 231 303h305v-17q-43 -53 -152.5 -147.5t-205.5 -163.5h-178z" horiz-adv-x="1135" unicode="˝"/><glyph d="M-102 -362q0 108 67.5 172.5t179.5 64.5q110 0 182 -65t72 -170q0 -107 -70 -173.5t-184 -66.5q-112 0 -179.5 64.5t-67.5 173.5zM49 -362q0 -45 24 -71t72 -26q42 0 69.5 26t27.5 71t-27.5 70.5t-69.5 25.5t-69 -25.5t-27 -70.5z" horiz-adv-x="682" unicode="˳"/><glyph d="M-785 1548v21h311q36 -148 115 -303v-25h-184q-71 69 -138.5 153.5t-103.5 153.5z" horiz-adv-x="0" unicode="̀"/><glyph d="M-593 1241v25q79 88 222 303h335v-17q-46 -56 -154 -152.5t-194 -158.5h-209z" horiz-adv-x="0" unicode="́"/><glyph d="M-896 1239q59 309 281 309q49 0 87.5 -16.5t71.5 -36t62 -35.5t60 -16q34 0 58 25.5t46 80.5h172q-66 -309 -287 -309q-49 0 -86.5 16.5t-69.5 36t-61.5 36t-62.5 16.5q-31 0 -55.5 -28t-38.5 -79h-177z" horiz-adv-x="0" unicode="̃"/><glyph d="M-604 1511v164q73 25 174 25q122 0 189 -47.5t67 -136.5q0 -166 -197 -226l-20 -71h-182l14 147q78 14 110.5 41.5t32.5 71.5q0 24 -16 38.5t-47 14.5q-51 0 -125 -21z" horiz-adv-x="0" unicode="̉"/><glyph d="M-928 1548v21h283q38 -156 115 -303v-25h-156q-71 69 -138.5 153.5t-103.5 153.5zM-547 1548v21h283q37 -152 114 -303v-25h-155q-71 69 -138.5 153.5t-103.5 153.5z" horiz-adv-x="0" unicode="̏"/><glyph d="M-926 -307q0 86 48 131t135 45q70 0 109.5 -30.5t39.5 -90.5q0 -80 -44 -129t-136 -49q-152 0 -152 123z" horiz-adv-x="0" unicode="̣"/><glyph d="M565 1241v31q76 152 150 358h284v-24q-120 -198 -254 -365h-180z" horiz-adv-x="1135" unicode="΄"/><glyph d="M342 1382q0 78 38.5 118t106.5 40q60 0 90.5 -28.5t30.5 -79.5q0 -73 -35.5 -116.5t-109.5 -43.5q-121 0 -121 110zM645 1389v26q21 42 57.5 134t61.5 167h260v-20q-90 -143 -238 -307h-141zM893 1382q0 78 38.5 118t106.5 40q60 0 90.5 -28.5t30.5 -79.5 q0 -73 -35.5 -116.5t-109.5 -43.5q-121 0 -121 110z" horiz-adv-x="1135" unicode="΅"/><glyph d="M-123 0l766 1468h373l147 -1468h-297l-24 348h-473l-172 -348h-320zM494 608h333l-26 350q-10 131 -10 253v36q-44 -120 -109 -254zM74 1136v31q76 152 150 358h284v-24q-120 -198 -254 -365h-180z" horiz-adv-x="1286" unicode="Ά"/><glyph d="M131 695q0 90 53.5 144t150.5 54q68 0 109 -38t41 -107q0 -87 -55 -141t-144 -54q-73 0 -114 37.5t-41 104.5z" horiz-adv-x="584" unicode="·"/><glyph d="M200 0l309 1462h818l-54 -254h-512l-67 -321h477l-55 -254h-477l-80 -377h512l-54 -256h-817zM34 1136v31q76 152 150 358h284v-24q-120 -198 -254 -365h-180z" horiz-adv-x="1290" unicode="Έ"/><glyph d="M200 0l309 1462h306l-121 -573h471l121 573h305l-309 -1462h-306l134 631h-471l-134 -631h-305zM34 1136v31q76 152 150 358h284v-24q-120 -198 -254 -365h-180z" horiz-adv-x="1581" unicode="Ή"/><glyph d="M198 0l312 1462h305l-312 -1462h-305zM34 1136v31q76 152 150 358h284v-24q-120 -198 -254 -365h-180z" horiz-adv-x="805" unicode="Ί"/><glyph d="M242 537q0 265 99 487.5t273 341.5t402 119q255 0 395 -144t140 -403q0 -283 -99 -506.5t-271 -337.5t-396 -114q-256 0 -399.5 147.5t-143.5 409.5zM553 537q0 -147 66.5 -222t187.5 -75t220.5 87t155.5 246t56 357q0 142 -65 219.5t-183 77.5q-121 0 -222 -91.5 t-158.5 -251.5t-57.5 -347zM62 1136v31q76 152 150 358h284v-24q-120 -198 -254 -365h-180z" horiz-adv-x="1614" unicode="Ό"/><glyph d="M497 1462h312l129 -592l374 592h342l-618 -903l-119 -559h-303l119 559zM34 1136v31q76 152 150 358h284v-24q-120 -198 -254 -365h-180z" horiz-adv-x="1466" unicode="Ύ"/><glyph d="M93 0l53 260h373q-101 63 -160.5 185.5t-59.5 273.5q0 223 93 401.5t257 271.5t379 93q256 0 401.5 -138t145.5 -382q0 -246 -108 -426.5t-309 -278.5h364l-55 -260h-649l59 276q387 227 387 652q0 145 -67 222t-191 77q-111 0 -199.5 -63t-144 -187.5t-55.5 -265.5 q0 -153 38 -256.5t117 -178.5l-59 -276h-610zM62 1136v31q76 152 150 358h284v-24q-120 -198 -254 -365h-180z" horiz-adv-x="1636" unicode="Ώ"/><glyph d="M96 238q0 52 23 157l153 723h301l-155 -741q-12 -59 -12 -82q0 -72 86 -72q66 0 161 35v-225q-111 -53 -266 -53q-148 0 -219.5 62.5t-71.5 195.5zM71 1382q0 78 38.5 118t106.5 40q60 0 90.5 -28.5t30.5 -79.5q0 -73 -35.5 -116.5t-109.5 -43.5q-121 0 -121 110z M374 1389v26q21 42 57.5 134t61.5 167h260v-20q-90 -143 -238 -307h-141zM622 1382q0 78 38.5 118t106.5 40q60 0 90.5 -28.5t30.5 -79.5q0 -73 -35.5 -116.5t-109.5 -43.5q-121 0 -121 110z" horiz-adv-x="752" unicode="ΐ"/><glyph d="M-123 0l766 1468h373l147 -1468h-297l-24 348h-473l-172 -348h-320zM494 608h333l-26 350q-10 131 -10 253v36q-44 -120 -109 -254z" horiz-adv-x="1286" unicode="Α"/><glyph d="M53 0l309 1462h426q229 0 346 -81.5t117 -243.5q0 -150 -83 -247.5t-236 -129.5v-6q100 -26 159.5 -96.5t59.5 -180.5q0 -229 -153 -353t-423 -124h-522zM412 256h180q117 0 183.5 58t66.5 161q0 162 -183 162h-165zM545 883h149q121 0 181.5 48.5t60.5 139.5 q0 137 -170 137h-152z" horiz-adv-x="1270" unicode="Β"/><glyph d="M53 0l309 1462h814l-54 -254h-512l-256 -1208h-301z" horiz-adv-x="1030" unicode="Γ"/><glyph d="M-53 0l35 180l647 1288h352l141 -1294l-39 -174h-1136zM319 258h517l-76 758q-8 96 -8 158q-16 -55 -58 -142z" horiz-adv-x="1239" unicode="Δ"/><glyph d="M53 0l309 1462h818l-54 -254h-512l-67 -321h477l-55 -254h-477l-80 -377h512l-54 -256h-817z" horiz-adv-x="1110" unicode="Ε"/><glyph d="M-61 0l38 201l777 1005h-543l53 256h936l-41 -202l-782 -1004h596l-53 -256h-981z" horiz-adv-x="1098" unicode="Ζ"/><glyph d="M53 0l309 1462h306l-121 -573h471l121 573h305l-309 -1462h-306l134 631h-471l-134 -631h-305z" horiz-adv-x="1434" unicode="Η"/><glyph d="M123 555q0 271 100.5 488t276 329.5t403.5 112.5q263 0 408 -153.5t145 -428.5q0 -270 -93 -483t-266.5 -326.5t-404.5 -113.5q-268 0 -418.5 153.5t-150.5 421.5zM434 547q0 -142 73 -224.5t198 -82.5q136 0 235 84.5t152 240.5t53 353q0 142 -69.5 225.5t-190.5 83.5 q-132 0 -233.5 -84t-159.5 -243.5t-58 -352.5zM543 616l53 254h444l-53 -254h-444z" horiz-adv-x="1520" unicode="Θ"/><glyph d="M53 0l312 1462h305l-312 -1462h-305z" horiz-adv-x="659" unicode="Ι"/><glyph d="M53 0l309 1462h306l-152 -702l158 205l409 497h361l-594 -700l291 -762h-338l-211 592l-125 -70l-109 -522h-305z" horiz-adv-x="1255" unicode="Κ"/><glyph d="M-123 0l748 1468h342l139 -1468h-295l-59 836q-9 113 -9 338l-29 -79q-47 -127 -89 -214l-428 -881h-320z" horiz-adv-x="1229" unicode="Λ"/><glyph d="M53 0l309 1462h404l68 -1093h4l551 1093h423l-309 -1462h-280l145 692q53 247 105 441h-5l-569 -1133h-281l-61 1133h-4q-11 -88 -38 -231t-187 -902h-275z" horiz-adv-x="1802" unicode="Μ"/><glyph d="M53 0l309 1462h357l340 -1077h4q12 76 39 217t180 860h274l-309 -1462h-342l-356 1106h-6l-4 -32q-32 -216 -66 -386l-145 -688h-275z" horiz-adv-x="1546" unicode="Ν"/><glyph d="M-43 0l51 256h903l-53 -256h-901zM207 633l55 254h668l-56 -254h-667zM252 1208l53 254h823l-53 -254h-823z" horiz-adv-x="1067" unicode="Ξ"/><glyph d="M123 537q0 265 99 487.5t273 341.5t402 119q255 0 395 -144t140 -403q0 -283 -99 -506.5t-271 -337.5t-396 -114q-256 0 -399.5 147.5t-143.5 409.5zM434 537q0 -147 66.5 -222t187.5 -75t220.5 87t155.5 246t56 357q0 142 -65 219.5t-183 77.5q-121 0 -222 -91.5 t-158.5 -251.5t-57.5 -347z" horiz-adv-x="1495" unicode="Ο"/><glyph d="M53 0l309 1462h1072l-310 -1462h-305l256 1204h-461l-256 -1204h-305z" horiz-adv-x="1423" unicode="Π"/><glyph d="M53 0l309 1462h338q242 0 366 -106.5t124 -319.5q0 -241 -169.5 -378.5t-467.5 -137.5h-86l-109 -520h-305zM522 774h56q142 0 223.5 69t81.5 185q0 180 -195 180h-74z" horiz-adv-x="1188" unicode="Ρ"/><glyph d="M-43 0l49 242l543 506l-322 481l49 233h906l-54 -254h-559l318 -481l-500 -471h596l-53 -256h-973z" horiz-adv-x="1112" unicode="Σ"/><glyph d="M168 1204l55 258h1010l-55 -258h-353l-254 -1204h-305l254 1204h-352z" horiz-adv-x="1087" unicode="Τ"/><glyph d="M186 1462h312l129 -592l374 592h342l-618 -903l-119 -559h-303l119 559z" horiz-adv-x="1155" unicode="Υ"/><glyph d="M123 690q0 281 186 440.5t531 172.5l37 180h284l-37 -180q232 -20 358 -145.5t126 -336.5q0 -287 -189.5 -449.5t-527.5 -166.5l-49 -225h-285l49 223q-147 11 -255.5 69t-168 165.5t-59.5 252.5zM428 688q0 -112 59 -176t170 -68l131 617q-168 -10 -264 -107t-96 -266z M942 444q176 12 268.5 111.5t92.5 265.5q0 109 -59 172.5t-171 67.5z" horiz-adv-x="1671" unicode="Φ"/><glyph d="M-117 0l576 764l-238 698h320l153 -518l363 518h344l-545 -725l268 -737h-331l-172 543l-396 -543h-342z" horiz-adv-x="1241" unicode="Χ"/><glyph d="M178 825q0 89 23 197l94 440h295l-101 -479q-14 -68 -14 -117q0 -98 55.5 -139t167.5 -41h17l164 776h284l-164 -776h17q147 0 222.5 69t109.5 224l102 483h297l-111 -518q-109 -510 -669 -510h-21l-92 -434h-285l95 434h-15q-222 0 -346.5 103.5t-124.5 287.5z" horiz-adv-x="1671" unicode="Ψ"/><glyph d="M-61 0l53 260h373q-101 63 -160.5 185.5t-59.5 273.5q0 223 93 401.5t257 271.5t379 93q256 0 401.5 -138t145.5 -382q0 -246 -108 -426.5t-309 -278.5h364l-55 -260h-649l59 276q387 227 387 652q0 145 -67 222t-191 77q-111 0 -199.5 -63t-144 -187.5t-55.5 -265.5 q0 -153 38 -256.5t117 -178.5l-59 -276h-610z" horiz-adv-x="1483" unicode="Ω"/><glyph d="M53 0l312 1462h305l-312 -1462h-305zM222 1720q0 78 42.5 118t119.5 40q133 0 133 -108q0 -73 -39 -116.5t-121 -43.5q-135 0 -135 110zM624 1720q0 78 42 118t120 40q65 0 99 -28t34 -80q0 -73 -39.5 -116.5t-120.5 -43.5q-135 0 -135 110z" horiz-adv-x="659" unicode="Ϊ"/><glyph d="M186 1462h312l129 -592l374 592h342l-618 -903l-119 -559h-303l119 559zM432 1720q0 78 42.5 118t119.5 40q133 0 133 -108q0 -73 -39 -116.5t-121 -43.5q-135 0 -135 110zM834 1720q0 78 42 118t120 40q65 0 99 -28t34 -80q0 -73 -39.5 -116.5t-120.5 -43.5 q-135 0 -135 110z" horiz-adv-x="1155" unicode="Ϋ"/><glyph d="M90 385q0 212 67 385.5t188 271t271 97.5q89 0 151.5 -39t113.5 -133h6q19 41 48.5 84.5t51.5 66.5h254q-45 -83 -91.5 -203.5t-72.5 -240.5l-67 -320q-6 -30 -6 -53q0 -65 61 -65q36 0 65 12v-238q-63 -30 -165 -30q-201 0 -246 165h-6q-81 -95 -153.5 -130t-164.5 -35 q-145 0 -225 106.5t-80 298.5zM395 414q0 -99 32.5 -145t100.5 -46q77 0 135 70.5t91.5 205t33.5 220.5q0 80 -32 128t-97 48q-71 0 -131.5 -68t-96.5 -180.5t-36 -232.5zM633 1241v31q76 152 150 358h284v-24q-120 -198 -254 -365h-180z" horiz-adv-x="1241" unicode="ά"/><glyph d="M39 274q0 259 328 312v6q-80 31 -123 87.5t-43 127.5q0 158 123 245t344 87q245 0 403 -86l-92 -222q-92 46 -161.5 64t-141.5 18q-97 0 -149 -32t-52 -93q0 -52 48.5 -76t148.5 -24h135l-45 -211h-148q-120 0 -189 -38.5t-69 -106.5q0 -56 45 -86.5t131 -30.5 q92 0 175.5 20.5t177.5 69.5v-246q-160 -79 -402 -79q-206 0 -325 77.5t-119 216.5zM562 1241v31q76 152 150 358h284v-24q-120 -198 -254 -365h-180z" horiz-adv-x="1051" unicode="έ"/><glyph d="M37 0l237 1118h230l-21 -207h6q146 228 355 228q138 0 213.5 -83.5t75.5 -238.5q0 -73 -23 -180l-238 -1129h-301l242 1145q16 68 16 119q0 123 -108 123q-92 0 -167 -114t-118 -318l-98 -463h-301zM631 1241v31q76 152 150 358h284v-24q-120 -198 -254 -365h-180z" horiz-adv-x="1237" unicode="ή"/><glyph d="M96 238q0 52 23 157l153 723h301l-155 -741q-12 -59 -12 -82q0 -72 86 -72q66 0 161 35v-225q-111 -53 -266 -53q-148 0 -219.5 62.5t-71.5 195.5zM333 1241v31q76 152 150 358h284v-24q-120 -198 -254 -365h-180z" horiz-adv-x="752" unicode="ί"/><glyph d="M119 360q0 70 16 150l129 608h299l-129 -616q-14 -61 -14 -121q0 -156 141 -156q309 0 309 893h301q0 -331 -40 -538.5t-117.5 -336t-198 -196t-283.5 -67.5q-201 0 -307 99t-106 281zM354 1382q0 78 38.5 118t106.5 40q60 0 90.5 -28.5t30.5 -79.5q0 -73 -35.5 -116.5 t-109.5 -43.5q-121 0 -121 110zM657 1389v26q21 42 57.5 134t61.5 167h260v-20q-90 -143 -238 -307h-141zM905 1382q0 78 38.5 118t106.5 40q60 0 90.5 -28.5t30.5 -79.5q0 -73 -35.5 -116.5t-109.5 -43.5q-121 0 -121 110z" horiz-adv-x="1262" unicode="ΰ"/><glyph d="M90 385q0 212 67 385.5t188 271t271 97.5q89 0 151.5 -39t113.5 -133h6q19 41 48.5 84.5t51.5 66.5h254q-45 -83 -91.5 -203.5t-72.5 -240.5l-67 -320q-6 -30 -6 -53q0 -65 61 -65q36 0 65 12v-238q-63 -30 -165 -30q-201 0 -246 165h-6q-81 -95 -153.5 -130t-164.5 -35 q-145 0 -225 106.5t-80 298.5zM395 414q0 -99 32.5 -145t100.5 -46q77 0 135 70.5t91.5 205t33.5 220.5q0 80 -32 128t-97 48q-71 0 -131.5 -68t-96.5 -180.5t-36 -232.5z" horiz-adv-x="1241" unicode="α"/><glyph d="M-66 -492l345 1635q46 219 172.5 321.5t351.5 102.5q204 0 316 -93t112 -257q0 -176 -92.5 -275t-259.5 -127q125 -23 196.5 -109t71.5 -219q0 -149 -64.5 -268.5t-176.5 -179t-263 -59.5q-79 0 -147 16.5t-144 58.5l-114 -547h-304zM401 285q27 -27 79 -44.5t106 -17.5 q113 0 178 75.5t65 201.5q0 92 -52.5 138t-151.5 46h-47l51 242h59q110 0 172 68t62 192q0 68 -37 105.5t-99 37.5q-83 0 -134 -60t-77 -184z" horiz-adv-x="1270" unicode="β"/><glyph d="M59 -492q51 257 183 506l-140 1104h295q25 -314 38 -482t11 -333h5q15 41 37.5 93.5t45 100t310.5 621.5h323l-551 -1012q-98 -181 -151 -318t-84 -280h-322z" horiz-adv-x="1049" unicode="γ"/><glyph d="M55 373q0 204 124 349.5t351 203.5q-151 126 -151 284q0 166 120 261.5t324 95.5q112 0 210.5 -26.5t197.5 -86.5l-119 -215q-157 102 -287 102q-67 0 -107 -32t-40 -88q0 -30 10 -54t33 -49t127 -110q233 -187 233 -437q0 -271 -156 -431t-431 -160q-202 0 -320.5 105.5 t-118.5 287.5zM373 403q0 -85 38.5 -131.5t116.5 -46.5q101 0 168.5 95t67.5 243q0 147 -102 228q-126 -43 -207.5 -150t-81.5 -238z" horiz-adv-x="1204" unicode="δ"/><glyph d="M39 274q0 259 328 312v6q-80 31 -123 87.5t-43 127.5q0 158 123 245t344 87q245 0 403 -86l-92 -222q-92 46 -161.5 64t-141.5 18q-97 0 -149 -32t-52 -93q0 -52 48.5 -76t148.5 -24h135l-45 -211h-148q-120 0 -189 -38.5t-69 -106.5q0 -56 45 -86.5t131 -30.5 q92 0 175.5 20.5t177.5 69.5v-246q-160 -79 -402 -79q-206 0 -325 77.5t-119 216.5z" horiz-adv-x="1051" unicode="ε"/><glyph d="M90 438q0 156 62.5 293t185.5 271t399 344q-78 -13 -180 -13h-238l50 223h780l-39 -182q-281 -226 -430 -374.5t-217 -271.5t-68 -247q0 -76 43 -129.5t135 -95.5q106 -50 154.5 -89.5t73 -88.5t24.5 -115q0 -91 -43.5 -170.5t-142.5 -171.5h-315q119 119 157.5 177.5 t38.5 103.5q0 34 -28 60t-109 63q-155 70 -224 169.5t-69 243.5z" horiz-adv-x="948" unicode="ζ"/><glyph d="M37 0l237 1118h230l-21 -207h6q146 228 355 228q138 0 213.5 -83.5t75.5 -238.5q0 -73 -23 -180l-238 -1129h-301l242 1145q16 68 16 119q0 123 -108 123q-92 0 -167 -114t-118 -318l-98 -463h-301z" horiz-adv-x="1237" unicode="η"/><glyph d="M100 432q0 139 30 312.5t90 347t137 276.5t180.5 157t242.5 54q190 0 286.5 -118t96.5 -339q0 -265 -85 -566.5t-230.5 -438.5t-355.5 -137q-192 0 -292 116t-100 336zM397 387q0 -186 117 -186q91 0 156 115.5t121 355.5h-363q-31 -167 -31 -285zM477 899h361 q28 158 28 283q0 80 -26.5 128t-83.5 48q-171 0 -279 -459z" horiz-adv-x="1198" unicode="θ"/><glyph d="M96 238q0 52 23 157l153 723h301l-155 -741q-12 -59 -12 -82q0 -72 86 -72q66 0 161 35v-225q-111 -53 -266 -53q-148 0 -219.5 62.5t-71.5 195.5z" horiz-adv-x="752" unicode="ι"/><glyph d="M37 0l237 1118h301q-71 -319 -87 -379t-29 -102h4l457 481h344l-498 -504l285 -614h-336l-183 420l-120 -72l-74 -348h-301z" horiz-adv-x="1163" unicode="κ"/><glyph d="M-92 0l612 1061l-10 92q-9 88 -39.5 124t-93.5 36q-44 0 -101 -13l-36 246q87 23 192 23q162 0 249.5 -87.5t113.5 -277.5l102 -766q15 -115 40.5 -158.5t74.5 -43.5q32 0 67 10v-234q-73 -32 -190 -32q-115 0 -175.5 66t-80.5 206l-29 201q-11 73 -18 239 q-23 -48 -48 -110.5t-57 -122.5l-245 -459h-328z" horiz-adv-x="1171" unicode="λ"/><glyph d="M-68 -492l342 1610h301l-135 -645q-16 -70 -16 -125q0 -60 31.5 -92.5t79.5 -32.5q90 0 162.5 106.5t117.5 319.5l98 469h301l-237 -1118h-229l18 176h-6q-117 -196 -266 -196q-51 0 -89.5 19.5t-58.5 47.5h-6q-8 -66 -21.5 -139t-82.5 -400h-304z" horiz-adv-x="1249" unicode="μ"/><glyph d="M102 1118h295l62 -616q10 -97 10 -230q133 157 219.5 355.5t149.5 490.5h307q-65 -357 -211 -624.5t-395 -493.5h-297z" horiz-adv-x="1126" unicode="ν"/><glyph d="M92 410q0 317 363 411v6q-96 23 -149.5 80t-53.5 137q0 112 77.5 186t245.5 116q-185 -13 -243 -13h-53l49 223h753l-45 -210h-24q-134 0 -240.5 -32t-159.5 -92t-53 -143q0 -80 58.5 -122t173.5 -42h102l-45 -210h-70q-179 0 -281 -64.5t-102 -179.5q0 -68 35 -110.5 t143 -94.5q120 -60 163.5 -98t66 -85.5t22.5 -109.5q0 -91 -43.5 -170.5t-142.5 -171.5h-315q113 113 152.5 174t39.5 107q0 38 -29.5 63.5t-103.5 59.5q-152 70 -221.5 163t-69.5 222z" horiz-adv-x="948" unicode="ξ"/><glyph d="M90 410q0 213 71.5 379.5t206.5 258t316 91.5q196 0 310 -118t114 -325q0 -211 -70.5 -374t-203.5 -252.5t-316 -89.5q-195 0 -311.5 117.5t-116.5 312.5zM393 410q0 -185 150 -185q75 0 135 61.5t93.5 171t33.5 238.5q0 197 -143 197q-75 0 -134.5 -61t-97 -179 t-37.5 -243z" horiz-adv-x="1198" unicode="ο"/><glyph d="M94 889l29 147l196 82h1182l-47 -229h-240l-108 -541q-8 -40 -8 -57q0 -72 76 -72q65 0 131 33v-217q-100 -55 -248 -55q-131 0 -201 64t-70 185q0 27 5.5 62t119.5 598h-274l-188 -889h-306l191 889h-240z" horiz-adv-x="1464" unicode="π"/><glyph d="M-66 -492l228 1082q46 216 113 327t174 166.5t264 55.5q195 0 305 -115t110 -319q0 -210 -65 -376t-185 -257.5t-274 -91.5q-163 0 -258 124q-9 -82 -25 -170t-88 -426h-299zM412 311q49 -88 149 -88q69 0 127.5 64.5t96.5 188.5t38 233q0 88 -33 137t-96 49 q-87 0 -140 -78.5t-87 -241.5z" horiz-adv-x="1219" unicode="ρ"/><glyph d="M90 446q0 190 81.5 355.5t215.5 251.5t303 86t320 -72l-92 -229q-126 57 -224 57q-84 0 -152 -56t-107.5 -152t-39.5 -200q0 -80 39 -133t139 -98q106 -50 154.5 -89.5t73 -88.5t24.5 -115q0 -91 -43.5 -170.5t-142.5 -171.5h-315q113 113 152.5 174t39.5 107 q0 40 -31 67.5t-102 59.5q-157 71 -225 170t-68 247z" horiz-adv-x="948" unicode="ς"/><glyph d="M90 424q0 211 80 368.5t232.5 241.5t359.5 84h577l-47 -223h-284q37 -45 63.5 -123.5t26.5 -181.5q0 -109 -43.5 -230t-118 -205t-178 -129.5t-234.5 -45.5q-201 0 -317.5 118t-116.5 326zM393 430q0 -205 150 -205q116 0 189 131t73 326q0 111 -41 213h-29 q-105 0 -182.5 -60t-118.5 -166.5t-41 -238.5z" horiz-adv-x="1266" unicode="σ"/><glyph d="M94 889l29 147l190 82h748l-49 -229h-334l-115 -539q-6 -30 -6 -53q0 -74 88 -74q65 0 162 35v-225q-111 -53 -266 -53q-148 0 -219.5 62.5t-71.5 195.5q0 50 12 112l115 539h-283z" horiz-adv-x="1022" unicode="τ"/><glyph d="M119 360q0 70 16 150l129 608h299l-129 -616q-14 -61 -14 -121q0 -156 141 -156q309 0 309 893h301q0 -331 -40 -538.5t-117.5 -336t-198 -196t-283.5 -67.5q-201 0 -307 99t-106 281z" horiz-adv-x="1262" unicode="υ"/><glyph d="M90 461q0 203 86 370.5t279 327.5l192 -176q-133 -135 -191.5 -259t-58.5 -253q0 -109 42 -169t110 -77l110 516q47 210 149 304t277 94q184 0 287 -115t103 -315q0 -209 -84.5 -371t-242 -254.5t-364.5 -101.5l-96 -474h-291l105 482q-189 25 -300.5 149t-111.5 322z M836 227q102 16 177 86t115.5 180.5t40.5 241.5q0 178 -94 178q-89 0 -129 -176z" horiz-adv-x="1565" unicode="φ"/><glyph d="M-260 -492l639 893l-53 334q-13 77 -34 109.5t-63 32.5q-34 0 -73 -15l-52 238q101 39 203 39q124 0 187.5 -70t87.5 -233l26 -183l320 465h332l-574 -774l74 -463q9 -58 33 -87.5t73 -29.5q45 0 103 15v-238q-97 -33 -195 -33q-126 0 -191.5 69.5t-88.5 229.5l-41 281 l-385 -580h-328z" horiz-adv-x="1130" unicode="χ"/><glyph d="M119 360q0 70 16 150l129 608h299l-129 -616q-14 -61 -14 -121q0 -77 45.5 -121t132.5 -49l285 1343h288l-284 -1339q196 32 286.5 248.5t90.5 654.5h301q0 -416 -78 -649.5t-239 -354.5t-412 -143l-99 -463h-288l98 463q-209 21 -318.5 120t-109.5 269z" horiz-adv-x="1655" unicode="ψ"/><glyph d="M90 381q0 346 246 737h303q-120 -176 -190 -369.5t-70 -359.5q0 -172 113 -172q70 0 112 59t70 191l63 295h285q-41 -189 -61.5 -286.5t-20.5 -143.5q0 -115 100 -115q72 0 132 78.5t96.5 226t36.5 309.5q0 151 -31 287h285q30 -125 30 -264q0 -405 -142.5 -639.5 t-399.5 -234.5q-218 0 -275 202q-66 -109 -147 -155.5t-187 -46.5q-166 0 -257 105.5t-91 295.5z" horiz-adv-x="1679" unicode="ω"/><glyph d="M96 238q0 52 23 157l153 723h301l-155 -741q-12 -59 -12 -82q0 -72 86 -72q66 0 161 35v-225q-111 -53 -266 -53q-148 0 -219.5 62.5t-71.5 195.5zM150 1382q0 78 42.5 118t119.5 40q133 0 133 -108q0 -73 -39 -116.5t-121 -43.5q-135 0 -135 110zM552 1382q0 78 42 118 t120 40q65 0 99 -28t34 -80q0 -73 -39.5 -116.5t-120.5 -43.5q-135 0 -135 110z" horiz-adv-x="752" unicode="ϊ"/><glyph d="M119 360q0 70 16 150l129 608h299l-129 -616q-14 -61 -14 -121q0 -156 141 -156q309 0 309 893h301q0 -331 -40 -538.5t-117.5 -336t-198 -196t-283.5 -67.5q-201 0 -307 99t-106 281zM401 1382q0 78 42.5 118t119.5 40q133 0 133 -108q0 -73 -39 -116.5t-121 -43.5 q-135 0 -135 110zM803 1382q0 78 42 118t120 40q65 0 99 -28t34 -80q0 -73 -39.5 -116.5t-120.5 -43.5q-135 0 -135 110z" horiz-adv-x="1262" unicode="ϋ"/><glyph d="M90 410q0 213 71.5 379.5t206.5 258t316 91.5q196 0 310 -118t114 -325q0 -211 -70.5 -374t-203.5 -252.5t-316 -89.5q-195 0 -311.5 117.5t-116.5 312.5zM393 410q0 -185 150 -185q75 0 135 61.5t93.5 171t33.5 238.5q0 197 -143 197q-75 0 -134.5 -61t-97 -179 t-37.5 -243zM596 1241v31q76 152 150 358h284v-24q-120 -198 -254 -365h-180z" horiz-adv-x="1198" unicode="ό"/><glyph d="M119 360q0 70 16 150l129 608h299l-129 -616q-14 -61 -14 -121q0 -156 141 -156q309 0 309 893h301q0 -331 -40 -538.5t-117.5 -336t-198 -196t-283.5 -67.5q-201 0 -307 99t-106 281zM614 1241v31q76 152 150 358h284v-24q-120 -198 -254 -365h-180z" horiz-adv-x="1262" unicode="ύ"/><glyph d="M90 381q0 346 246 737h303q-120 -176 -190 -369.5t-70 -359.5q0 -172 113 -172q70 0 112 59t70 191l63 295h285q-41 -189 -61.5 -286.5t-20.5 -143.5q0 -115 100 -115q72 0 132 78.5t96.5 226t36.5 309.5q0 151 -31 287h285q30 -125 30 -264q0 -405 -142.5 -639.5 t-399.5 -234.5q-218 0 -275 202q-66 -109 -147 -155.5t-187 -46.5q-166 0 -257 105.5t-91 295.5zM841 1241v31q76 152 150 358h284v-24q-120 -198 -254 -365h-180z" horiz-adv-x="1679" unicode="ώ"/><glyph d="M117 569v215q116 45 225 45q102 0 157.5 -50.5t55.5 -141.5q0 -73 -35 -191q-26 -83 -26 -127q0 -102 124 -102q122 0 210 132.5t147 408.5q-163 8 -281.5 62.5t-180.5 145.5t-62 205q0 187 120 296.5t324 109.5t311 -133t107 -381v-37l-2 -35h149l-49 -229h-133 q-54 -286 -147 -454.5t-227.5 -248t-311.5 -79.5q-179 0 -282 77t-103 211q0 69 31 162q24 77 24 107q0 57 -57 57q-43 0 -88 -25zM748 1184q0 -89 68 -139.5t192 -53.5q6 50 6 109q0 121 -36 184.5t-99 63.5q-66 0 -98.5 -46t-32.5 -118z" horiz-adv-x="1419" unicode="ϑ"/><glyph d="M184 1462h312l129 -592l67 123q157 287 261.5 384.5t236.5 97.5q83 0 162 -27l-56 -231q-31 14 -69 14q-59 0 -123 -80q-136 -168 -383 -602l-117 -549h-303l119 559z" horiz-adv-x="1178" unicode="ϒ"/><glyph d="M94 889l29 147l196 82h1641l-47 -229h-244q17 -88 17 -199q0 -198 -72 -367.5t-190 -256t-263 -86.5q-108 0 -176 48.5t-98 153.5q-66 -109 -147 -155.5t-187 -46.5q-166 0 -257 105.5t-91 295.5q0 128 44.5 265.5t117.5 242.5h-273zM494 389q0 -172 112 -172 q69 0 110.5 55.5t71.5 194.5l31 137h285l-31 -137q-18 -85 -18 -135q0 -115 100 -115q114 0 181 149.5t67 401.5q0 73 -6 121h-760q-143 -281 -143 -500z" horiz-adv-x="1921" unicode="ϖ"/><glyph d="M53 0l309 1462h818l-54 -254h-512l-67 -321h477l-55 -254h-477l-80 -377h512l-54 -256h-817zM480 1886v21h311q36 -148 115 -303v-25h-184q-71 69 -138.5 153.5t-103.5 153.5z" horiz-adv-x="1110" unicode="Ѐ"/><glyph d="M53 0l309 1462h818l-54 -254h-512l-67 -321h477l-55 -254h-477l-80 -377h512l-54 -256h-817zM456 1720q0 78 42.5 118t119.5 40q133 0 133 -108q0 -73 -39 -116.5t-121 -43.5q-135 0 -135 110zM858 1720q0 78 42 118t120 40q65 0 99 -28t34 -80q0 -73 -39.5 -116.5 t-120.5 -43.5q-135 0 -135 110z" horiz-adv-x="1110" unicode="Ё"/><glyph d="M168 1204l55 258h1000l-56 -258h-342l-57 -272h242q178 0 277 -87t99 -243q0 -39 -3 -72t-29 -172.5t-75 -219.5t-129 -118t-218 -40q-117 0 -195 38v254q80 -39 148 -39q73 0 111 38t56.5 122.5t23.5 119.5t3 46q0 61 -31.5 88t-101.5 27h-233l-144 -674h-305l256 1204 h-352z" horiz-adv-x="1520" unicode="Ђ"/><glyph d="M53 0l309 1462h814l-54 -254h-512l-256 -1208h-301zM608 1579v25q79 88 222 303h335v-17q-46 -56 -154 -152.5t-194 -158.5h-209z" horiz-adv-x="1030" unicode="Ѓ"/><glyph d="M123 553q0 262 104 482.5t278 335t400 114.5q122 0 224 -24.5t206 -80.5l-118 -250q-72 41 -148.5 69t-163.5 28q-146 0 -255.5 -95.5t-166.5 -267.5h533l-53 -254h-527l-2 -30v-31q0 -309 287 -309q146 0 338 77v-260q-187 -77 -400 -77q-254 0 -395 149.5t-141 423.5z" horiz-adv-x="1253" unicode="Є"/><glyph d="M41 70v274q193 -108 358 -108q112 0 175 42.5t63 116.5q0 43 -13.5 75.5t-38.5 60.5t-124 102q-138 99 -194 196t-56 209q0 129 62 230.5t176.5 158t263.5 56.5q217 0 397 -99l-109 -233q-156 74 -288 74q-83 0 -136 -45t-53 -119q0 -61 33 -106.5t148 -120.5 q121 -80 181 -176.5t60 -225.5q0 -209 -148 -330.5t-401 -121.5q-221 0 -356 90z" horiz-adv-x="1085" unicode="Ѕ"/><glyph d="M53 0l312 1462h305l-312 -1462h-305z" horiz-adv-x="659" unicode="І"/><glyph d="M53 0l312 1462h305l-312 -1462h-305zM222 1720q0 78 42.5 118t119.5 40q133 0 133 -108q0 -73 -39 -116.5t-121 -43.5q-135 0 -135 110zM624 1720q0 78 42 118t120 40q65 0 99 -28t34 -80q0 -73 -39.5 -116.5t-120.5 -43.5q-135 0 -135 110z" horiz-adv-x="659" unicode="Ї"/><glyph d="M-322 -150q88 -20 164 -20q99 0 160.5 60.5t89.5 191.5l293 1380h305l-303 -1423q-52 -245 -175.5 -357t-346.5 -112q-94 0 -187 27v253z" horiz-adv-x="678" unicode="Ј"/><glyph d="M-61 4v254q53 -20 100 -20q65 0 107 31.5t82 101.5t92.5 217.5t117 371.5t135.5 502h844l-119 -561h68q237 0 363 -103t126 -296q0 -243 -158 -372.5t-456 -129.5h-438l254 1204h-254q-79 -320 -161 -577t-155.5 -393.5t-164 -195t-240.5 -58.5q-80 0 -143 24zM1161 254 h119q129 0 197.5 60.5t68.5 177.5q0 74 -47.5 114.5t-144.5 40.5h-109z" horiz-adv-x="1962" unicode="Љ"/><glyph d="M53 0l309 1462h306l-119 -561h401l121 561h305l-119 -561h86q230 0 351 -102t121 -293q0 -244 -156.5 -375t-448.5 -131h-448l137 647h-403l-138 -647h-305zM1120 254h127q125 0 191.5 60.5t66.5 170.5q0 162 -192 162h-109z" horiz-adv-x="1921" unicode="Њ"/><glyph d="M168 1204l55 258h1000l-56 -258h-342l-57 -272h225q195 0 293 -90t98 -250q0 -62 -22 -174l-84 -418h-309l100 471q10 50 10 80q0 68 -37 95.5t-112 27.5h-217l-144 -674h-305l256 1204h-352z" horiz-adv-x="1520" unicode="Ћ"/><glyph d="M53 0l309 1462h306l-146 -684l541 684h344l-582 -723l295 -739h-338l-272 719l-152 -719h-305zM702 1579v25q79 88 222 303h335v-17q-46 -56 -154 -152.5t-194 -158.5h-209z" horiz-adv-x="1219" unicode="Ќ"/><glyph d="M53 0l309 1462h281l-147 -692q-65 -282 -84 -352h10l764 1044h370l-309 -1462h-276q94 446 144 682t85 379l-8 2l-764 -1063h-375zM658 1886v21h311q36 -148 115 -303v-25h-184q-71 69 -138.5 153.5t-103.5 153.5z" horiz-adv-x="1546" unicode="Ѝ"/><glyph d="M31 12v267q81 -39 198 -39q48 0 85 17t68.5 49.5t80.5 113.5l-285 1042h307l154 -631q23 -93 29 -151q46 110 67 149l344 633h334l-602 -1030q-132 -225 -205 -302t-159 -113.5t-205 -36.5q-124 0 -211 32zM364 1890q0 24 5 47h266l-2 -26v-21q0 -139 170 -139 q99 0 152.5 44t76.5 142h272q-34 -133 -98 -207.5t-170 -112.5t-258 -38q-200 0 -307 76.5t-107 234.5z" horiz-adv-x="1225" unicode="Ў"/><glyph d="M53 0l309 1462h308l-256 -1204h460l256 1204h304l-310 -1462h-383l-92 -426h-303l92 426h-385z" horiz-adv-x="1423" unicode="Џ"/><glyph d="M-123 0l766 1468h373l147 -1468h-297l-24 348h-473l-172 -348h-320zM494 608h333l-26 350q-10 131 -10 253v36q-44 -120 -109 -254z" horiz-adv-x="1286" unicode="А"/><glyph d="M53 0l309 1462h822l-54 -254h-520l-65 -307h67q238 0 364 -104.5t126 -304.5q0 -237 -158 -364.5t-457 -127.5h-434zM408 254h100q139 0 212 58.5t73 164.5q0 170 -193 170h-108z" horiz-adv-x="1212" unicode="Б"/><glyph d="M53 0l309 1462h426q229 0 346 -81.5t117 -243.5q0 -150 -83 -247.5t-236 -129.5v-6q100 -26 159.5 -96.5t59.5 -180.5q0 -229 -153 -353t-423 -124h-522zM412 256h180q117 0 183.5 58t66.5 161q0 162 -183 162h-165zM545 883h149q121 0 181.5 48.5t60.5 139.5 q0 137 -170 137h-152z" horiz-adv-x="1270" unicode="В"/><glyph d="M53 0l309 1462h814l-54 -254h-512l-256 -1208h-301z" horiz-adv-x="1030" unicode="Г"/><glyph d="M-197 -426l144 684h129q171 247 307.5 542t257.5 662h766l-256 -1204h186l-145 -684h-303l92 426h-784l-93 -426h-301zM414 258h424l202 946h-200q-215 -616 -426 -946z" horiz-adv-x="1475" unicode="Д"/><glyph d="M53 0l309 1462h818l-54 -254h-512l-67 -321h477l-55 -254h-477l-80 -377h512l-54 -256h-817z" horiz-adv-x="1110" unicode="Е"/><glyph d="M-125 0l619 780l-279 682h303l266 -684l146 684h293l-146 -684l537 684h328l-582 -723l295 -739h-316l-274 719l-152 -719h-292l151 717l-555 -717h-342z" horiz-adv-x="1776" unicode="Ж"/><glyph d="M41 59v263q182 -99 399 -99q170 0 256 60.5t86 175.5q0 93 -77 136.5t-242 43.5h-141l51 242h127q383 0 383 200q0 72 -47.5 113t-141.5 41q-170 0 -360 -123l-109 209q143 91 268.5 126.5t276.5 35.5q123 0 222 -44t153.5 -122t54.5 -174q0 -169 -109.5 -266.5 t-306.5 -110.5v-4q143 -17 226.5 -101t83.5 -215q0 -224 -161 -345t-468 -121q-139 0 -242.5 18t-181.5 61z" horiz-adv-x="1221" unicode="З"/><glyph d="M53 0l309 1462h281l-147 -692q-65 -282 -84 -352h10l764 1044h370l-309 -1462h-276q94 446 144 682t85 379l-8 2l-764 -1063h-375z" horiz-adv-x="1546" unicode="И"/><glyph d="M53 0l309 1462h281l-147 -692q-65 -282 -84 -352h10l764 1044h370l-309 -1462h-276q94 446 144 682t85 379l-8 2l-764 -1063h-375zM542 1890q0 24 5 47h266l-2 -26v-21q0 -139 170 -139q99 0 152.5 44t76.5 142h272q-34 -133 -98 -207.5t-170 -112.5t-258 -38 q-200 0 -307 76.5t-107 234.5z" horiz-adv-x="1546" unicode="Й"/><glyph d="M53 0l309 1462h306l-146 -684l541 684h344l-582 -723l295 -739h-338l-272 719l-152 -719h-305z" horiz-adv-x="1219" unicode="К"/><glyph d="M-61 4v254q53 -20 100 -20q65 0 107 31.5t82 101.5t92.5 217.5t117 371.5t135.5 502h861l-312 -1462h-303l256 1204h-272q-79 -320 -161 -577t-155.5 -393.5t-164 -195t-240.5 -58.5q-80 0 -143 24z" horiz-adv-x="1423" unicode="Л"/><glyph d="M53 0l309 1462h404l68 -1093h4l551 1093h423l-309 -1462h-280l145 692q53 247 105 441h-5l-569 -1133h-281l-61 1133h-4q-11 -88 -38 -231t-187 -902h-275z" horiz-adv-x="1802" unicode="М"/><glyph d="M53 0l309 1462h306l-121 -573h471l121 573h305l-309 -1462h-306l134 631h-471l-134 -631h-305z" horiz-adv-x="1434" unicode="Н"/><glyph d="M123 537q0 265 99 487.5t273 341.5t402 119q255 0 395 -144t140 -403q0 -283 -99 -506.5t-271 -337.5t-396 -114q-256 0 -399.5 147.5t-143.5 409.5zM434 537q0 -147 66.5 -222t187.5 -75t220.5 87t155.5 246t56 357q0 142 -65 219.5t-183 77.5q-121 0 -222 -91.5 t-158.5 -251.5t-57.5 -347z" horiz-adv-x="1495" unicode="О"/><glyph d="M53 0l309 1462h1072l-310 -1462h-305l256 1204h-461l-256 -1204h-305z" horiz-adv-x="1423" unicode="П"/><glyph d="M53 0l309 1462h338q242 0 366 -106.5t124 -319.5q0 -241 -169.5 -378.5t-467.5 -137.5h-86l-109 -520h-305zM522 774h56q142 0 223.5 69t81.5 185q0 180 -195 180h-74z" horiz-adv-x="1188" unicode="Р"/><glyph d="M123 553q0 262 104 482.5t278 335t400 114.5q125 0 222 -22.5t208 -82.5l-118 -250q-106 59 -175 78t-137 19q-132 0 -237.5 -81t-169.5 -238.5t-64 -338.5q0 -167 68.5 -248t218.5 -81q146 0 338 77v-260q-199 -77 -400 -77q-254 0 -395 149.5t-141 423.5z" horiz-adv-x="1253" unicode="С"/><glyph d="M168 1204l55 258h1010l-55 -258h-353l-254 -1204h-305l254 1204h-352z" horiz-adv-x="1087" unicode="Т"/><glyph d="M31 12v267q81 -39 198 -39q48 0 85 17t68.5 49.5t80.5 113.5l-285 1042h307l154 -631q23 -93 29 -151q46 110 67 149l344 633h334l-602 -1030q-132 -225 -205 -302t-159 -113.5t-205 -36.5q-124 0 -211 32z" horiz-adv-x="1225" unicode="У"/><glyph d="M123 690q0 281 186 440.5t531 172.5l37 180h284l-37 -180q232 -20 358 -145.5t126 -336.5q0 -287 -189.5 -449.5t-527.5 -166.5l-49 -225h-285l49 223q-147 11 -255.5 69t-168 165.5t-59.5 252.5zM428 688q0 -112 59 -176t170 -68l131 617q-168 -10 -264 -107t-96 -266z M942 444q176 12 268.5 111.5t92.5 265.5q0 109 -59 172.5t-171 67.5z" horiz-adv-x="1671" unicode="Ф"/><glyph d="M-117 0l576 764l-238 698h320l153 -518l363 518h344l-545 -725l268 -737h-331l-172 543l-396 -543h-342z" horiz-adv-x="1241" unicode="Х"/><glyph d="M53 0l309 1462h308l-256 -1204h460l256 1204h304l-258 -1216h208l-143 -672h-303l92 426h-977z" horiz-adv-x="1501" unicode="Ц"/><glyph d="M184 797q0 57 13 116l112 549h305l-108 -516q-10 -46 -10 -82q0 -131 153 -131q131 0 295 74l139 655h306l-310 -1462h-305l119 561q-187 -86 -348 -86q-167 0 -264 85t-97 237z" horiz-adv-x="1378" unicode="Ч"/><glyph d="M53 0l309 1462h314l-256 -1204h381l256 1204h315l-256 -1204h381l256 1204h313l-309 -1462h-1704z" horiz-adv-x="2056" unicode="Ш"/><glyph d="M53 0l309 1462h314l-256 -1204h381l256 1204h315l-256 -1204h381l256 1204h313l-258 -1216h209l-143 -672h-303l92 426h-1610z" horiz-adv-x="2134" unicode="Щ"/><glyph d="M168 1204l55 258h658l-119 -561h67q240 0 365 -105t125 -304q0 -237 -158 -364.5t-456 -127.5h-439l254 1204h-352zM625 254h100q139 0 212 58.5t73 164.5q0 170 -193 170h-108z" horiz-adv-x="1425" unicode="Ъ"/><glyph d="M53 0l309 1462h306l-119 -561h37q240 0 364.5 -105t124.5 -304q0 -237 -158 -364.5t-456 -127.5h-408zM412 254h69q139 0 212 58.5t73 164.5q0 170 -193 170h-77zM1139 0l309 1462h313l-309 -1462h-313z" horiz-adv-x="1751" unicode="Ы"/><glyph d="M53 0l309 1462h306l-119 -561h67q240 0 365 -105t125 -304q0 -237 -158 -364.5t-456 -127.5h-439zM412 254h100q139 0 212 58.5t73 164.5q0 170 -193 170h-108z" horiz-adv-x="1212" unicode="Ь"/><glyph d="M27 63v271q173 -96 362 -96q169 0 278 91.5t169 280.5h-539l53 254h527l2 25v26q0 312 -258 312q-65 0 -127.5 -13.5t-194.5 -64.5l-80 246q208 90 440 90q258 0 394.5 -146.5t136.5 -418.5q0 -268 -99 -489.5t-269.5 -336t-397.5 -114.5q-121 0 -217.5 18.5t-179.5 64.5 z" horiz-adv-x="1253" unicode="Э"/><glyph d="M53 0l309 1462h306l-121 -573h262q80 288 258.5 442t423.5 154q241 0 373.5 -144t132.5 -403q0 -279 -88 -501t-249.5 -339.5t-381.5 -117.5q-241 0 -377.5 147.5t-136.5 409.5q0 50 4 94h-276l-134 -631h-305zM1075 537q0 -147 59.5 -222t165.5 -75q107 0 196 87 t139.5 244.5t50.5 358.5q0 139 -57 218t-165 79q-107 0 -197 -91.5t-141 -251.5t-51 -347z" horiz-adv-x="2060" unicode="Ю"/><glyph d="M-125 0l514 657q-107 68 -151.5 146.5t-44.5 185.5q0 223 153.5 348t433.5 125h486l-310 -1462h-305l119 561h-117l-415 -561h-363zM512 983q0 -79 54.5 -124.5t148.5 -45.5h108l84 395h-135q-127 0 -193.5 -57t-66.5 -168z" horiz-adv-x="1255" unicode="Я"/><glyph d="M90 385q0 198 72 377.5t189 278t257 98.5q97 0 167.5 -42t109.5 -122h8l57 143h232l-238 -1118h-229l14 145h-4q-134 -165 -319 -165q-147 0 -231.5 106.5t-84.5 298.5zM395 399q0 -88 33.5 -132t95.5 -44q69 0 133 67t103 181.5t39 259.5q0 71 -38.5 117.5t-101.5 46.5 q-68 0 -129.5 -72t-98 -190t-36.5 -234z" unicode="а"/><glyph d="M109 461q0 331 131 604.5t358 376.5q72 32 206 60.5t433 68.5l31 -258q-306 -45 -422.5 -68.5t-183.5 -67t-112 -116.5t-75 -189h2q66 84 151 127t181 43q142 0 219.5 -94.5t77.5 -273.5q0 -197 -74 -359.5t-206.5 -248.5t-303.5 -86q-201 0 -307 123t-106 358zM414 451 q0 -224 137 -224q66 0 123.5 60.5t93 165t35.5 211.5q0 153 -115 153q-56 0 -123 -45t-127 -127q-24 -115 -24 -194z" horiz-adv-x="1198" unicode="б"/><glyph d="M90 432q0 202 76.5 363.5t218 252.5t326.5 91q187 0 295 -81.5t108 -219.5q0 -112 -60.5 -178.5t-181.5 -94.5v-4q89 -25 134 -82t45 -141q0 -106 -58.5 -187.5t-168 -126t-257.5 -44.5q-227 0 -352 116.5t-125 335.5zM391 412q0 -105 45.5 -163.5t134.5 -58.5 q85 0 131 43t46 111q0 66 -48.5 98.5t-160.5 32.5h-146l-2 -31v-32zM434 682h201q87 0 134.5 35t47.5 104q0 48 -33 74.5t-86 26.5q-85 0 -155 -65t-109 -175z" horiz-adv-x="1174" unicode="в"/><glyph d="M20 297q0 93 35 155t90.5 103.5t125.5 68.5t139 50q131 44 160 61t43 39t14 53q0 86 -121 86q-114 0 -266 -75l-74 213q183 88 391 88q179 0 276 -78.5t97 -224.5q0 -95 -33 -156.5t-89 -103.5t-130 -71.5t-156 -58.5q-100 -35 -132.5 -53t-48 -39t-15.5 -51 q0 -100 143 -100q135 0 326 90v-227q-94 -47 -184.5 -66.5t-204.5 -19.5q-184 0 -285 83.5t-101 233.5z" horiz-adv-x="981" unicode="г"/><glyph d="M90 422q0 186 60.5 329t171 221.5t251.5 78.5q185 0 281 -183h6l2 36v30q0 207 -62 302t-202 95q-106 0 -203 -41l-63 238q127 49 313 49q520 0 520 -649q0 -284 -80 -503t-223.5 -332t-339.5 -113q-207 0 -319.5 116.5t-112.5 325.5zM393 412q0 -88 38 -137.5t108 -49.5 q106 0 179.5 112t106.5 329q-20 66 -64.5 109.5t-115.5 43.5q-115 0 -183.5 -110.5t-68.5 -296.5z" horiz-adv-x="1231" unicode="д"/><glyph d="M90 412q0 207 82.5 377.5t223.5 260t319 89.5q177 0 276 -81.5t99 -223.5q0 -187 -167 -288.5t-477 -101.5h-51l-2 -21v-20q0 -91 51.5 -143.5t147.5 -52.5q87 0 158 19t172 67v-227q-172 -86 -390 -86q-210 0 -326 113t-116 319zM428 647h45q155 0 241.5 48.5 t86.5 131.5q0 95 -105 95q-88 0 -166 -80t-102 -195z" horiz-adv-x="1141" unicode="е"/><glyph d="M-20 -8l47 239q53 -8 79 -8q84 0 149.5 64t101.5 175t36 240q0 96 -36 144.5t-101 48.5q-45 0 -121 -27v244q76 27 178 27q175 0 276 -114t101 -318v-27l-2 -27h166l100 465h289l-100 -465h157q57 227 203 356.5t348 129.5q71 0 136 -13l-52 -239q-53 8 -80 8 q-125 0 -205.5 -136t-80.5 -343q0 -96 36 -144.5t101 -48.5q45 0 121 27v-244q-73 -26 -178 -26q-177 0 -277 111.5t-100 314.5v45h-172l-96 -451h-289l96 451h-152q-57 -223 -199.5 -347t-344.5 -124q-77 0 -135 12z" horiz-adv-x="1966" unicode="ж"/><glyph d="M25 55v248q176 -88 362 -88q258 0 258 145q0 117 -176 117h-176l45 211h125q140 0 198 29.5t58 97.5q0 46 -34 72t-120 26q-69 0 -153.5 -22.5t-161.5 -56.5l-72 219q224 86 440 86q193 0 297.5 -71t104.5 -206q0 -104 -63 -173t-197 -105v-6q190 -56 190 -226 q0 -180 -143.5 -276t-409.5 -96q-101 0 -202 20t-170 55z" horiz-adv-x="1073" unicode="з"/><glyph d="M111 301q0 93 24 213l127 604h301l-137 -653q-16 -68 -16 -119q0 -123 108 -123q92 0 167 114t118 318l98 463h301l-237 -1118h-230l21 207h-6q-145 -227 -355 -227q-138 0 -211 82.5t-73 238.5z" horiz-adv-x="1237" unicode="и"/><glyph d="M111 301q0 93 24 213l127 604h301l-137 -653q-16 -68 -16 -119q0 -123 108 -123q92 0 167 114t118 318l98 463h301l-237 -1118h-230l21 207h-6q-145 -227 -355 -227q-138 0 -211 82.5t-73 238.5zM325 1552q0 24 5 47h266l-2 -26v-21q0 -139 170 -139q99 0 152.5 44 t76.5 142h272q-34 -133 -98 -207.5t-170 -112.5t-258 -38q-200 0 -307 76.5t-107 234.5z" horiz-adv-x="1237" unicode="й"/><glyph d="M37 0l239 1118h302l-111 -520l440 520h344l-479 -561l277 -557h-338l-256 545l-117 -545h-301z" horiz-adv-x="1184" unicode="к"/><glyph d="M-59 4v248q37 -16 84 -16q50 0 89.5 52.5t77.5 163.5q102 303 158 408t122.5 163.5t162.5 87t233 28.5q87 0 182 -15.5t164 -42.5l-227 -1081h-301l188 885q-40 8 -63 8q-67 0 -112 -31.5t-82 -101t-109 -283.5q-35 -103 -68.5 -193.5t-79 -158t-110 -106.5t-160.5 -39 q-89 0 -149 24z" horiz-adv-x="1260" unicode="л"/><glyph d="M23 0l239 1118h406l59 -477q11 -84 15.5 -156t9.5 -143q26 60 59 136t78 155l270 485h428l-235 -1118h-293l172 807q-28 -62 -69 -136t-83 -153l-276 -518h-232l-63 504q-24 203 -31 307l-170 -811h-284z" horiz-adv-x="1620" unicode="м"/><glyph d="M37 0l239 1118h304l-93 -430h349l90 430h301l-238 -1118h-301l96 461h-346l-98 -461h-303z" horiz-adv-x="1262" unicode="н"/><glyph d="M90 410q0 213 71.5 379.5t206.5 258t316 91.5q196 0 310 -118t114 -325q0 -211 -70.5 -374t-203.5 -252.5t-316 -89.5q-195 0 -311.5 117.5t-116.5 312.5zM393 410q0 -185 150 -185q75 0 135 61.5t93.5 171t33.5 238.5q0 197 -143 197q-75 0 -134.5 -61t-97 -179 t-37.5 -243z" horiz-adv-x="1198" unicode="о"/><glyph d="M37 0l237 1118h230l-21 -207h6q146 228 355 228q138 0 213.5 -83.5t75.5 -238.5q0 -73 -23 -180l-133 -637h-301l137 653q16 68 16 119q0 123 -108 123q-92 0 -167 -114t-118 -318l-98 -463h-301z" horiz-adv-x="1237" unicode="п"/><glyph d="M-68 -492l342 1610h230l-17 -170h9q138 191 317 191q146 0 230.5 -107.5t84.5 -300.5q0 -191 -68.5 -367.5t-187.5 -280t-262 -103.5q-83 0 -143 37t-111 126h-8q-12 -159 -43 -295l-72 -340h-301zM420 399q0 -80 37 -128t102 -48q67 0 128 69t98.5 189.5t37.5 237.5 q0 176 -131 176q-68 0 -131.5 -67.5t-102 -180t-38.5 -248.5z" horiz-adv-x="1219" unicode="р"/><glyph d="M90 391q0 212 74.5 385.5t209.5 268t308 94.5q182 0 328 -72l-92 -229q-54 23 -106 40t-118 17q-85 0 -153.5 -64t-107 -175.5t-38.5 -239.5q0 -96 45.5 -144.5t126.5 -48.5q76 0 141 23.5t134 58.5v-246q-152 -79 -336 -79q-201 0 -308.5 107.5t-107.5 303.5z" horiz-adv-x="989" unicode="с"/><glyph d="M37 0l237 1118h230l-21 -207h6q146 228 355 228q219 0 262 -228h6q68 110 160.5 169t197.5 59q136 0 207.5 -85t71.5 -237q0 -76 -23 -180l-133 -637h-301l138 653q16 68 16 119q0 123 -98 123q-92 0 -166.5 -112t-118.5 -318l-96 -465h-301l137 653q16 68 16 119 q0 123 -98 123q-92 0 -167 -114t-118 -318l-98 -463h-301z" horiz-adv-x="1853" unicode="т"/><glyph d="M-141 -233q68 -13 116 -13q84 0 147.5 48t117.5 149l26 49l-164 1118h295l56 -518q14 -122 14 -293h6q20 51 44 119.5t65 153.5l260 538h327l-680 -1278q-177 -332 -483 -332q-90 0 -147 19v240z" horiz-adv-x="1063" unicode="у"/><glyph d="M90 453q0 191 84.5 342.5t234 234.5t353.5 96l90 430h287l-90 -432q204 -30 314 -153t110 -314q0 -193 -81 -340.5t-229.5 -230.5t-357.5 -104l-96 -474h-291l104 484q-202 23 -317 147.5t-115 313.5zM397 477q0 -103 43 -171t129 -81l144 668q-93 -6 -163.5 -59 t-111.5 -150.5t-41 -206.5zM856 225q93 13 161.5 66t109 149.5t40.5 210.5q0 96 -45.5 159.5t-124.5 78.5z" horiz-adv-x="1563" unicode="ф"/><glyph d="M-100 0l479 573l-225 545h321l115 -334l244 334h354l-467 -561l244 -557h-326l-125 342l-264 -342h-350z" horiz-adv-x="1087" unicode="х"/><glyph d="M106 301q0 68 29 213l127 604h301l-137 -653q-16 -68 -16 -119q0 -123 108 -123q92 0 167 114t118 318l98 463h301l-162 -764q-6 -30 -6 -53q0 -65 62 -65q39 0 90 14l-137 -651h-279l96 401q-97 45 -129 180h-2q-142 -200 -340 -200q-137 0 -213 82.5t-76 238.5z" horiz-adv-x="1270" unicode="ц"/><glyph d="M164 664q0 79 29 213l51 241h301l-62 -291q-16 -68 -16 -118q0 -63 31 -95t88 -32q98 0 161.5 98.5t108.5 310.5l27 127h301l-238 -1118h-301l64 303l43 180h-7q-128 -141 -292 -141q-135 0 -212 86t-77 236z" horiz-adv-x="1219" unicode="ч"/><glyph d="M106 301q0 73 23 180l133 637h301l-137 -653q-16 -68 -16 -119q0 -123 98 -123q92 0 165 110.5t120 319.5l96 465h301l-137 -653q-17 -70 -17 -119q0 -123 99 -123q93 0 167 115t117 317l99 463h301l-238 -1118h-229l20 207h-6q-145 -227 -354 -227q-219 0 -262 227h-7 q-145 -227 -358 -227q-133 0 -206 83t-73 238z" horiz-adv-x="1853" unicode="ш"/><glyph d="M106 301q0 73 23 180l133 637h301l-137 -653q-16 -68 -16 -119q0 -123 98 -123q92 0 165 110.5t120 319.5l96 465h301l-137 -653q-17 -70 -17 -119q0 -123 99 -123q93 0 167 115t117 317l99 463h301l-162 -764q-6 -30 -6 -53q0 -65 61 -65q41 0 90 14l-137 -651h-279 l97 401q-103 47 -129 184h-2q-145 -204 -340 -204q-219 0 -262 227h-7q-145 -227 -358 -227q-133 0 -206 83t-73 238z" horiz-adv-x="1886" unicode="щ"/><glyph d="M92 889l49 229h652l-99 -454q88 22 217 22q166 0 260.5 -82.5t94.5 -220.5q0 -120 -62.5 -211t-182 -141.5t-290.5 -50.5q-195 0 -297 83t-102 244q0 70 24 180l88 402h-352zM631 317q0 -61 38 -94t105 -33q86 0 137.5 44.5t51.5 117.5q0 123 -150 123q-70 0 -160 -18 q-7 -32 -14.5 -71t-7.5 -69z" horiz-adv-x="1380" unicode="ъ"/><glyph d="M106 305q0 87 23 189l135 624h301l-98 -454q98 22 203 22q139 0 226 -82t87 -215q0 -121 -57.5 -213t-167.5 -144t-262 -52q-390 0 -390 325zM406 313q0 -61 31 -92t83 -31q73 0 117.5 46.5t44.5 119.5q0 119 -125 119q-57 0 -131 -18q-15 -67 -17.5 -93.5t-2.5 -50.5z M1071 0l238 1118h301l-238 -1118h-301z" horiz-adv-x="1645" unicode="ы"/><glyph d="M104 307q0 65 25 180l135 631h301l-98 -454q86 22 217 22q166 0 260 -83t94 -220q0 -121 -62 -211.5t-181.5 -141t-290.5 -50.5q-195 0 -297.5 83.5t-102.5 243.5zM403 317q0 -62 39 -94.5t105 -32.5q86 0 137 45t51 117q0 123 -149 123q-70 0 -160 -18 q-23 -103 -23 -140z" horiz-adv-x="1153" unicode="ь"/><glyph d="M31 35v252q52 -25 112 -44.5t138 -19.5q113 0 183 58.5t103 181.5h-372l43 203h356l2 19v20q0 91 -43.5 140.5t-124.5 49.5q-57 0 -103.5 -16t-103.5 -43l-80 221q164 82 348 82q195 0 302.5 -117t107.5 -332q0 -213 -72.5 -374t-210.5 -248.5t-329 -87.5q-152 0 -256 55 z" horiz-adv-x="989" unicode="э"/><glyph d="M37 0l239 1118h304l-93 -430h193q57 214 195 332.5t337 118.5q194 0 301 -117t107 -326q0 -211 -67.5 -374t-195 -252.5t-302.5 -89.5q-194 0 -302 113t-108 315v53h-207l-98 -461h-303zM940 410q0 -185 137 -185q64 0 119 62.5t88 174t33 234.5q0 197 -131 197 q-68 0 -123 -65t-89 -181t-34 -237z" horiz-adv-x="1710" unicode="ю"/><glyph d="M-20 4v248q40 -16 77 -16q42 0 68.5 22.5t46.5 56.5l31 51q64 109 159 138q-157 65 -157 235q0 178 127.5 278.5t355.5 100.5h467l-235 -1118h-302l91 416h-62q-57 0 -98 -39.5t-87 -139.5q-66 -141 -143 -199t-188 -58q-91 0 -151 24zM512 743q0 -55 35 -88.5t112 -33.5 h93l59 282h-127q-79 0 -125.5 -43.5t-46.5 -116.5z" horiz-adv-x="1192" unicode="я"/><glyph d="M90 412q0 207 82.5 377.5t223.5 260t319 89.5q177 0 276 -81.5t99 -223.5q0 -187 -167 -288.5t-477 -101.5h-51l-2 -21v-20q0 -91 51.5 -143.5t147.5 -52.5q87 0 158 19t172 67v-227q-172 -86 -390 -86q-210 0 -326 113t-116 319zM428 647h45q155 0 241.5 48.5 t86.5 131.5q0 95 -105 95q-88 0 -166 -80t-102 -195zM384 1548v21h311q36 -148 115 -303v-25h-184q-71 69 -138.5 153.5t-103.5 153.5z" horiz-adv-x="1141" unicode="ѐ"/><glyph d="M90 412q0 207 82.5 377.5t223.5 260t319 89.5q177 0 276 -81.5t99 -223.5q0 -187 -167 -288.5t-477 -101.5h-51l-2 -21v-20q0 -91 51.5 -143.5t147.5 -52.5q87 0 158 19t172 67v-227q-172 -86 -390 -86q-210 0 -326 113t-116 319zM428 647h45q155 0 241.5 48.5 t86.5 131.5q0 95 -105 95q-88 0 -166 -80t-102 -195zM355 1382q0 78 42.5 118t119.5 40q133 0 133 -108q0 -73 -39 -116.5t-121 -43.5q-135 0 -135 110zM757 1382q0 78 42 118t120 40q65 0 99 -28t34 -80q0 -73 -39.5 -116.5t-120.5 -43.5q-135 0 -135 110z" horiz-adv-x="1141" unicode="ё"/><glyph d="M37 0l252 1196h-160l43 199h160l35 161h301l-33 -161h299l-43 -199h-297q-38 -187 -82 -289h8q62 78 136.5 124t174.5 46q140 0 214.5 -84t74.5 -237q0 -79 -22 -181l-146 -692q-41 -192 -141.5 -283.5t-263.5 -91.5q-104 0 -174 25v242q61 -21 114 -21q61 0 107.5 40.5 t64.5 129.5l142 668q16 68 16 119q0 123 -106 123q-92 0 -166.5 -113.5t-118.5 -319.5l-88 -401h-301z" horiz-adv-x="1237" unicode="ђ"/><glyph d="M20 297q0 93 35 155t90.5 103.5t125.5 68.5t139 50q131 44 160 61t43 39t14 53q0 86 -121 86q-114 0 -266 -75l-74 213q183 88 391 88q179 0 276 -78.5t97 -224.5q0 -95 -33 -156.5t-89 -103.5t-130 -71.5t-156 -58.5q-100 -35 -132.5 -53t-48 -39t-15.5 -51 q0 -100 143 -100q135 0 326 90v-227q-94 -47 -184.5 -66.5t-204.5 -19.5q-184 0 -285 83.5t-101 233.5zM485 1241v25q79 88 222 303h335v-17q-46 -56 -154 -152.5t-194 -158.5h-209z" horiz-adv-x="981" unicode="ѓ"/><glyph d="M90 393q0 220 75.5 393t208.5 263t308 90q182 0 328 -72l-92 -229q-54 23 -106 40t-118 17q-91 0 -160.5 -57.5t-103.5 -171.5h367l-43 -203h-359l-2 -24v-23q0 -193 174 -193q76 0 141 23.5t134 58.5v-246q-152 -79 -336 -79q-200 0 -308 108t-108 305z" horiz-adv-x="989" unicode="є"/><glyph d="M23 45v248q157 -90 319 -90q80 0 131 32.5t51 88.5q0 43 -37 77t-131 86q-121 68 -169 135.5t-48 159.5q0 170 110.5 263.5t315.5 93.5q201 0 363 -95l-99 -215q-140 84 -258 84q-57 0 -92 -25.5t-35 -68.5q0 -39 32 -68.5t120 -74.5q123 -63 178 -137t55 -170 q0 -188 -124.5 -288.5t-346.5 -100.5q-107 0 -186.5 15t-148.5 50z" horiz-adv-x="969" unicode="ѕ"/><glyph d="M37 0l237 1118h301l-237 -1118h-301zM322 1380q0 87 47.5 131.5t134.5 44.5q73 0 111 -31t38 -89q0 -80 -44 -129.5t-136 -49.5q-151 0 -151 123z" horiz-adv-x="608" unicode="і"/><glyph d="M37 0l237 1118h301l-237 -1118h-301zM126 1382q0 78 42.5 118t119.5 40q133 0 133 -108q0 -73 -39 -116.5t-121 -43.5q-135 0 -135 110zM528 1382q0 78 42 118t120 40q65 0 99 -28t34 -80q0 -73 -39.5 -116.5t-120.5 -43.5q-135 0 -135 110z" horiz-adv-x="608" unicode="ї"/><glyph d="M-264 -225q61 -21 114 -21q137 0 173 170l253 1194h302l-265 -1239q-77 -371 -403 -371q-104 0 -174 25v242zM324 1380q0 87 47.5 131.5t134.5 44.5q73 0 111 -31t38 -89q0 -80 -44 -129.5t-136 -49.5q-151 0 -151 123z" horiz-adv-x="608" unicode="ј"/><glyph d="M-59 4v248q37 -16 84 -16q51 0 89.5 51.5t73.5 163.5l43 135q81 251 152 356t173 151t259 46q206 0 363 -58l-91 -417q108 22 218 22q165 0 259.5 -82.5t94.5 -220.5q0 -121 -62 -211.5t-181.5 -141t-291.5 -50.5q-195 0 -297 83t-102 244q0 73 25 180l90 402l-45 4 q-67 0 -111.5 -32t-80 -99.5t-103.5 -284.5q-72 -232 -123.5 -319t-121.5 -132.5t-171 -45.5q-51 0 -80.5 6t-62.5 18zM1024 317q0 -61 38 -94t105 -33q86 0 137.5 44.5t51.5 117.5q0 123 -150 123q-69 0 -159 -18q-20 -91 -21.5 -108.5t-1.5 -31.5z" horiz-adv-x="1767" unicode="љ"/><glyph d="M49 0l240 1118h303l-92 -430h295l90 430h301l-99 -454q116 22 218 22q165 0 259.5 -82.5t94.5 -220.5q0 -121 -62 -211.5t-181.5 -141t-291.5 -50.5q-195 0 -297 83t-102 244q0 61 20 154h-294l-99 -461h-303zM1024 317q0 -61 38 -94t105 -33q86 0 137.5 44.5t51.5 117.5 q0 123 -150 123q-69 0 -159 -18q-20 -91 -21.5 -108.5t-1.5 -31.5z" horiz-adv-x="1767" unicode="њ"/><glyph d="M37 0l254 1196h-162l43 199h160l35 161h301l-33 -161h299l-43 -199h-299q-38 -164 -80 -289h8q62 78 136.5 124t174.5 46q140 0 214.5 -84t74.5 -237q0 -79 -22 -181l-121 -575h-301l125 592q16 68 16 119q0 123 -106 123q-93 0 -168.5 -115.5t-118.5 -317.5l-86 -401 h-301z" horiz-adv-x="1237" unicode="ћ"/><glyph d="M37 0l239 1118h302l-111 -520l440 520h344l-479 -561l277 -557h-338l-256 545l-117 -545h-301zM624 1241v25q79 88 222 303h335v-17q-46 -56 -154 -152.5t-194 -158.5h-209z" horiz-adv-x="1184" unicode="ќ"/><glyph d="M111 301q0 93 24 213l127 604h301l-137 -653q-16 -68 -16 -119q0 -123 108 -123q92 0 167 114t118 318l98 463h301l-237 -1118h-230l21 207h-6q-145 -227 -355 -227q-138 0 -211 82.5t-73 238.5zM419 1548v21h311q36 -148 115 -303v-25h-184q-71 69 -138.5 153.5 t-103.5 153.5z" horiz-adv-x="1237" unicode="ѝ"/><glyph d="M-141 -233q68 -13 116 -13q84 0 147.5 48t117.5 149l26 49l-164 1118h295l56 -518q14 -122 14 -293h6q20 51 44 119.5t65 153.5l260 538h327l-680 -1278q-177 -332 -483 -332q-90 0 -147 19v240zM216 1552q0 24 5 47h266l-2 -26v-21q0 -139 170 -139q99 0 152.5 44 t76.5 142h272q-34 -133 -98 -207.5t-170 -112.5t-258 -38q-200 0 -307 76.5t-107 234.5z" horiz-adv-x="1063" unicode="ў"/><glyph d="M106 301q0 68 29 213l127 604h301l-137 -653q-16 -68 -16 -119q0 -123 108 -123q92 0 167 114t118 318l98 463h301l-237 -1118h-230l21 207h-6q-145 -227 -355 -227q-137 0 -213 82.5t-76 238.5zM268 -492l76 345l252 106h49l-96 -451h-281z" horiz-adv-x="1237" unicode="џ"/><glyph d="M129 539q0 397 184 669.5t508 272.5q97 0 176 -29.5t131 -73.5l-133 -217l-36 26q-68 48 -140 48q-104 0 -191.5 -94.5t-137.5 -255t-50 -346.5q0 -299 195 -299q89 0 144 54t83 173l53 248h304l-39 -193q-19 -85 -19 -141q0 -63 36.5 -102t109.5 -39q121 0 212 89 t146 267.5t55 380.5q0 258 -172 258q-51 0 -95 -20.5t-95 -55.5l-105 217q164 105 346 105q211 0 322 -127t111 -369q0 -289 -91.5 -522t-246 -358t-381.5 -125q-248 0 -348 184q-73 -103 -154 -143.5t-209 -40.5q-224 0 -348.5 148t-124.5 411z" horiz-adv-x="2097" unicode="Ѡ"/><glyph d="M102 1118h295l58 -600q8 -84 14 -246l274 492l-32 354h290l32 -659q7 -111 7 -187q136 163 221 359.5t148 486.5h309q-67 -355 -216 -628.5t-392 -489.5h-291l-37 416h-4l-217 -416h-319z" horiz-adv-x="1700" unicode="ѡ"/><glyph d="M123 1124l49 230h242l43 202h305l-43 -202h291l-49 -230h-291l-47 -223h67q238 0 364 -104.5t126 -304.5q0 -237 -158 -364.5t-457 -127.5h-438l240 1124h-244zM485 254h101q140 0 212 58.5t72 164.5q0 170 -192 170h-109z" horiz-adv-x="1286" unicode="Ѣ"/><glyph d="M61 889l48 229h239l43 201h301l-45 -201h287l-47 -229h-289l-49 -225q86 22 217 22q165 0 259.5 -82.5t94.5 -220.5q0 -121 -62 -211.5t-181.5 -141t-290.5 -50.5q-195 0 -297.5 83.5t-102.5 243.5q0 68 25 185l86 397h-236zM485 317q0 -62 39 -94.5t105 -32.5 q86 0 137 45t51 117q0 123 -149 123q-70 0 -160 -18q-23 -103 -23 -140z" horiz-adv-x="1235" unicode="ѣ"/><glyph d="M53 0l309 1462h306l-121 -573h188q82 281 274.5 438.5t458.5 157.5q122 0 224 -24.5t206 -80.5l-118 -250q-168 97 -312 97q-139 0 -248.5 -89t-164.5 -249h530l-53 -254h-528q-7 -35 -7 -86q0 -150 69.5 -229.5t193.5 -79.5q74 0 152.5 16t209.5 61v-260 q-187 -77 -405 -77q-254 0 -392.5 149.5t-138.5 415.5l4 86h-198l-134 -631h-305z" horiz-adv-x="1817" unicode="Ѥ"/><glyph d="M37 0l239 1118h304l-93 -430h191q66 213 211.5 332t339.5 119q181 0 327 -72l-92 -229q-53 22 -105 39.5t-118 17.5q-80 0 -146.5 -54.5t-105.5 -152.5h359l-48 -225h-358l-2 -24v-23q0 -96 46.5 -144.5t127.5 -48.5q61 0 122.5 17.5t152.5 64.5v-246q-154 -79 -336 -79 q-200 0 -308 108t-108 305q0 38 4 70h-203l-98 -463h-303z" horiz-adv-x="1536" unicode="ѥ"/><glyph d="M-123 0l809 1468h373l188 -1468h-282l-68 631h-49l-127 -631h-281l135 631h-47l-329 -631h-322zM659 868h211q-27 243 -34 369q-53 -123 -177 -369z" horiz-adv-x="1370" unicode="Ѧ"/><glyph d="M-125 0l657 1118h363l188 -1118h-278l-57 422h-37l-80 -422h-271l97 422h-41l-234 -422h-307zM537 629h186q-29 188 -39 289z" horiz-adv-x="1188" unicode="ѧ"/><glyph d="M53 0l309 1462h297l-120 -573h350l319 579h373l188 -1468h-282l-68 631h-49l-127 -631h-280l135 631h-47l-330 -631h-322l346 631h-262l-133 -631h-297zM1182 868h211q-27 218 -35 369q-42 -99 -176 -369z" horiz-adv-x="1892" unicode="Ѩ"/><glyph d="M37 0l237 1118h273l-92 -430h348l254 430h362l189 -1118h-279l-63 461h-25l-86 -461h-270l104 461h-28l-254 -461h-308l271 461h-264l-99 -461h-270zM1092 688h147l-31 230z" horiz-adv-x="1712" unicode="ѩ"/><glyph d="M-86 0l252 541q68 145 154 215t227 96l-223 473l28 137h1184l-27 -143l-440 -481q121 -36 177.5 -128t68.5 -266l33 -444h-299l-23 455q-5 96 -28.5 138t-69.5 42h-8l-125 -635h-310l131 635h-8q-55 0 -98.5 -39.5t-83.5 -134.5l-195 -461h-317zM668 1204l145 -323 l260 323h-405z" horiz-adv-x="1495" unicode="Ѫ"/><glyph d="M-102 0l184 371q61 125 130 188.5t191 89.5l-196 365l22 104h988l-21 -104l-354 -369q80 -31 121 -99t61 -227l37 -319h-254l-23 307q-6 73 -22.5 105t-48.5 39l-92 -451h-267l103 455q-47 -3 -75 -31t-54 -84l-160 -340h-270zM516 911l105 -231l186 231h-291z" horiz-adv-x="1186" unicode="ѫ"/><glyph d="M53 0l309 1462h306l-121 -573h508l-209 436l28 137h1184l-26 -143l-441 -481q94 -38 140.5 -83.5t71.5 -118t34 -192.5l33 -444h-299l-23 455q-5 96 -28 138t-70 42h-8l-125 -635h-309l131 635h-9q-57 0 -97 -38.5t-81 -131.5l-198 -465h-318l213 457q50 111 109 174 h-266l-134 -631h-305zM1190 1204l145 -323l258 323h-403z" horiz-adv-x="2017" unicode="Ѭ"/><glyph d="M37 0l237 1118h273l-92 -430h438l-176 326l22 104h987l-20 -104l-354 -369q83 -32 123 -102t59 -224l37 -319h-254l-23 307q-5 72 -22.5 104.5t-48.5 39.5l-93 -451h-266l103 455q-47 -3 -75 -31t-54 -84l-160 -340h-270l163 332q43 88 93 129h-258l-99 -461h-270z M1026 911l104 -231l187 231h-291z" horiz-adv-x="1696" unicode="ѭ"/><glyph d="M-80 -147q0 118 48 189.5t154 116t327 77.5q121 17 194 46t106 71t33 112q0 91 -75.5 132.5t-243.5 41.5h-141l51 242h127q383 0 383 200q0 72 -47.5 113t-141.5 41q-170 0 -360 -123l-109 209q86 55 174.5 93.5t198.5 55.5q-50 104 -152 252v25h166q107 -112 154 -174 q80 89 128 126.5t97 57t107 19.5q60 0 102 -17v-149q-34 10 -72 10q-37 0 -84.5 -33.5t-128.5 -120.5q130 -33 207.5 -120.5t77.5 -202.5q0 -169 -109.5 -266.5t-306.5 -110.5v-4q146 -17 228 -101t82 -215q0 -132 -59.5 -226t-187 -152t-360.5 -86q-131 -16 -178 -29 t-67.5 -33.5t-20.5 -50.5q0 -74 119 -74q71 0 159 5q87 5 142 5q122 0 152 -41v-229q-16 16 -53 28.5t-93 12.5l-373 -8q-165 0 -259.5 76t-94.5 209z" horiz-adv-x="1221" unicode="Ѯ"/><glyph d="M-92 -141q0 151 103.5 237t326.5 111q140 16 197.5 33.5t83.5 47t26 79.5q0 52 -44 81t-132 29h-176l45 211h131q141 0 195.5 29.5t54.5 97.5q0 46 -34 72t-120 26q-69 0 -153.5 -22.5t-161.5 -56.5l-72 219q141 52 258 71q-41 80 -125 203v25h166q107 -112 154 -174 q81 90 128.5 126.5t98 56t105.5 19.5q62 0 102 -16v-150q-37 11 -72 11q-36 0 -75 -24.5t-101 -86.5q203 -63 203 -252q0 -104 -63 -173t-197 -105v-6q190 -56 190 -226q0 -118 -59.5 -193.5t-176.5 -119.5t-349 -68q-112 -12 -154.5 -34.5t-42.5 -65.5t35.5 -59.5 t97.5 -16.5q69 0 140.5 5t136.5 5q68 0 101 -10.5t48 -30.5v-229q-17 17 -55 29t-90 12q-86 0 -168.5 -4t-175.5 -4q-164 0 -247 77.5t-83 213.5z" horiz-adv-x="1073" unicode="ѯ"/><glyph d="M178 825q0 89 23 197l94 440h295l-101 -479q-14 -68 -14 -117q0 -98 55.5 -139t167.5 -41h17l164 776h284l-164 -776h17q147 0 222.5 69t109.5 224l102 483h297l-111 -518q-109 -510 -669 -510h-21l-92 -434h-285l95 434h-15q-222 0 -346.5 103.5t-124.5 287.5z" horiz-adv-x="1671" unicode="Ѱ"/><glyph d="M119 360q0 70 16 150l129 608h299l-129 -616q-14 -61 -14 -121q0 -77 45.5 -121t132.5 -49l285 1343h288l-284 -1339q196 32 286.5 248.5t90.5 654.5h301q0 -416 -78 -649.5t-239 -354.5t-412 -143l-99 -463h-288l98 463q-209 21 -318.5 120t-109.5 269z" horiz-adv-x="1655" unicode="ѱ"/><glyph d="M123 537q0 265 99 487.5t273 341.5t402 119q255 0 395 -144t140 -403q0 -283 -99 -506.5t-271 -337.5t-396 -114q-256 0 -399.5 147.5t-143.5 409.5zM432 537q0 -147 67.5 -222t188.5 -75q129 0 235 100.5t158 280.5h-645q-4 -28 -4 -84zM487 879h633l2 51q0 139 -65 218 t-185 79t-222 -91.5t-163 -256.5z" horiz-adv-x="1495" unicode="Ѳ"/><glyph d="M90 410q0 213 71.5 379.5t206.5 258t316 91.5q196 0 310 -118t114 -325q0 -211 -70.5 -374t-203.5 -252.5t-316 -89.5q-195 0 -311.5 117.5t-116.5 312.5zM387 408q0 -91 40 -140t116 -49q77 0 139 62t96 176h-389l-2 -29v-20zM428 668h383v28q0 100 -38 152.5t-111 52.5 q-75 0 -136.5 -61.5t-97.5 -171.5z" horiz-adv-x="1198" unicode="ѳ"/><glyph d="M184 1462h295l51 -848q6 -98 6 -179q0 -68 -6 -130h7q19 58 56 150.5t54 126.5l230 481q92 191 151 265.5t128.5 110.5t164.5 36q82 0 152 -29v-248q-52 19 -97 19q-64 0 -109 -45t-96 -144l-526 -1028h-334z" horiz-adv-x="1331" unicode="Ѵ"/><glyph d="M102 1118h295l48 -633l5 -117l-1 -59h6q32 89 92 215l137 281q66 137 117 199.5t112.5 92t145.5 29.5q75 0 131 -26v-238q-42 19 -80 19q-35 0 -65.5 -24t-53 -65t-428.5 -792h-323z" horiz-adv-x="1118" unicode="ѵ"/><glyph d="M184 1462h295l51 -848q6 -98 6 -179q0 -68 -6 -130h7q19 58 56 150.5t54 126.5l230 481q92 191 151 265.5t128.5 110.5t164.5 36q82 0 152 -29v-248q-52 19 -97 19q-64 0 -109 -45t-96 -144l-526 -1028h-334zM338 1886v21h283q38 -156 115 -303v-25h-156 q-71 69 -138.5 153.5t-103.5 153.5zM719 1886v21h283q37 -152 114 -303v-25h-155q-71 69 -138.5 153.5t-103.5 153.5z" horiz-adv-x="1331" unicode="Ѷ"/><glyph d="M102 1118h295l48 -633l5 -117l-1 -59h6q32 89 92 215l137 281q66 137 117 199.5t112.5 92t145.5 29.5q75 0 131 -26v-238q-42 19 -80 19q-35 0 -65.5 -24t-53 -65t-428.5 -792h-323zM172 1548v21h283q38 -156 115 -303v-25h-156q-71 69 -138.5 153.5t-103.5 153.5z M553 1548v21h283q37 -152 114 -303v-25h-155q-71 69 -138.5 153.5t-103.5 153.5z" horiz-adv-x="1118" unicode="ѷ"/><glyph d="M123 537q0 265 99 487.5t273 341.5t402 119q255 0 395 -144t140 -403q0 -283 -99 -506.5t-271 -337.5t-396 -114q-256 0 -399.5 147.5t-143.5 409.5zM434 537q0 -147 66.5 -222t187.5 -75t220.5 87t155.5 246t56 357q0 142 -65 219.5t-183 77.5q-121 0 -222 -91.5 t-158.5 -251.5t-57.5 -347zM1338 -233q68 -13 116 -13q84 0 147.5 48t117.5 149l26 49l-164 1118h295l56 -518q14 -122 14 -293h6q20 51 44 119.5t65 153.5l260 538h327l-680 -1278q-177 -332 -483 -332q-90 0 -147 19v240z" horiz-adv-x="2542" unicode="Ѹ"/><glyph d="M90 410q0 213 71.5 379.5t206.5 258t316 91.5q196 0 310 -118t114 -325q0 -211 -70.5 -374t-203.5 -252.5t-316 -89.5q-195 0 -311.5 117.5t-116.5 312.5zM393 410q0 -185 150 -185q75 0 135 61.5t93.5 171t33.5 238.5q0 197 -143 197q-75 0 -134.5 -61t-97 -179 t-37.5 -243zM969 -233q68 -13 116 -13q84 0 147.5 48t117.5 149l26 49l-164 1118h295l56 -518q14 -122 14 -293h6q20 51 44 119.5t65 153.5l260 538h327l-680 -1278q-177 -332 -483 -332q-90 0 -147 19v240z" horiz-adv-x="2173" unicode="ѹ"/><glyph d="M123 596q0 229 84.5 423.5t231.5 310.5t341 145q14 54 47.5 82t98.5 28q59 0 91 -29t34 -83q206 -39 321 -192t115 -398q0 -240 -81.5 -436.5t-228.5 -313t-343 -143.5q-13 -56 -46 -85.5t-98 -29.5q-60 0 -92.5 30.5t-32.5 86.5q-212 40 -327 199.5t-115 404.5zM434 602 q0 -136 45 -221t125 -119q53 66 131 66q79 0 113 -66q151 53 239.5 218.5t88.5 393.5q0 121 -42 206t-122 122q-51 -69 -133 -69q-86 0 -117 71q-150 -56 -239 -223.5t-89 -378.5z" horiz-adv-x="1550" unicode="Ѻ"/><glyph d="M90 451q0 279 136.5 459.5t377.5 217.5q28 76 125 76q92 0 113 -76q169 -32 266.5 -157t97.5 -314q0 -273 -132.5 -450.5t-373.5 -216.5q-25 -101 -133 -101q-54 0 -84 27.5t-32 75.5q-168 35 -264.5 156t-96.5 303zM393 451q0 -151 94 -203q23 31 51 47t70 16 q77 0 107 -63q87 41 137.5 151t50.5 258q0 154 -86 207q-43 -82 -127 -82t-112 78q-84 -49 -134.5 -161.5t-50.5 -247.5z" horiz-adv-x="1296" unicode="ѻ"/><glyph d="M129 539q0 278 84 492.5t241 332t367 117.5q97 0 176 -29.5t131 -73.5l-133 -217l-36 26q-68 48 -140 48q-99 0 -186 -89.5t-140 -253t-53 -353.5q0 -299 205 -299q87 0 180.5 56t184.5 169q41 -88 80.5 -131.5t94 -68.5t122.5 -25q118 0 211 96t147.5 268t54.5 373 q0 258 -172 258q-51 0 -95 -20.5t-95 -55.5l-105 217q164 105 346 105q211 0 322 -127t111 -369q0 -306 -90 -534t-252.5 -349.5t-376.5 -121.5q-125 0 -209 39t-146 114q-86 -86 -168.5 -119.5t-187.5 -33.5q-224 0 -348.5 148t-124.5 411zM862 1872q14 156 92.5 236.5 t208.5 80.5q62 0 121.5 -19t118 -41.5t118.5 -41.5t124 -19h34l-41 -194h-51q-71 0 -132 17t-113 37t-96 37t-83 17q-43 0 -68.5 -25.5t-39.5 -84.5h-193zM1053 1493v92q72 14 103.5 38.5t31.5 66.5q0 17 -9 25t-28 16q-25 12 -40 26.5t-15 48.5q0 45 31.5 70t93.5 25 q71 0 114 -40.5t43 -105.5q0 -112 -79 -182.5t-246 -79.5z" horiz-adv-x="2097" unicode="Ѽ"/><glyph d="M90 420q0 209 72 379.5t195 255t288 84.5q142 0 244 -62l-86 -205q-60 41 -133 41q-74 0 -138 -61t-101.5 -171.5t-37.5 -250.5q0 -223 152 -223q57 0 118.5 31.5t141.5 109.5q89 -141 223 -141q130 0 209.5 142t79.5 360q0 108 -33 156t-96 48q-59 0 -146 -41l-59 205 q132 62 272 62q180 0 272.5 -110.5t92.5 -319.5q0 -214 -71.5 -386t-197 -257.5t-288.5 -85.5q-182 0 -287 110q-135 -110 -295 -110q-190 0 -290.5 112.5t-100.5 327.5zM635 1556q14 156 92.5 237t208.5 81q62 0 121 -19t118 -41.5t118.5 -41.5t123.5 -19h35l-41 -194h-51 q-72 0 -132.5 17t-112.5 37t-96.5 37t-82.5 17q-43 0 -69 -26t-40 -85h-192zM825 1178v92q73 14 104.5 38t31.5 66q0 17 -9.5 25t-27.5 16q-25 13 -40.5 27.5t-15.5 48.5q0 94 125 94q72 0 115 -41t43 -104q0 -119 -83.5 -186.5t-242.5 -75.5z" horiz-adv-x="1710" unicode="ѽ"/><glyph d="M129 539q0 397 184 669.5t508 272.5q97 0 176 -29.5t131 -73.5l-133 -217l-36 26q-68 48 -140 48q-104 0 -191.5 -94.5t-137.5 -255t-50 -346.5q0 -299 195 -299q89 0 144 54t83 173l53 248h304l-39 -193q-19 -85 -19 -141q0 -63 36.5 -102t109.5 -39q121 0 212 89 t146 267.5t55 380.5q0 258 -172 258q-51 0 -95 -20.5t-95 -55.5l-105 217q164 105 346 105q211 0 322 -127t111 -369q0 -289 -91.5 -522t-246 -358t-381.5 -125q-248 0 -348 184q-73 -103 -154 -143.5t-209 -40.5q-224 0 -348.5 148t-124.5 411zM854 1769l18 89h816l-19 -89 l-115 -172h-69l-27 103h-131l-67 -103h-70l-27 103h-131l-67 -103h-70z" horiz-adv-x="2097" unicode="Ѿ"/><glyph d="M102 1118h295l58 -600q8 -84 14 -246l274 492l-32 354h290l32 -659q7 -111 7 -187q136 163 221 359.5t148 486.5h309q-67 -355 -216 -628.5t-392 -489.5h-291l-37 416h-4l-217 -416h-319zM571 1423l19 88h813l-19 -88l-114 -172h-70l-24 103h-132l-69 -103h-70l-24 103 h-131l-70 -103h-70z" horiz-adv-x="1700" unicode="ѿ"/><glyph d="M123 545q0 265 103 487t277 337.5t402 115.5q122 0 224 -24.5t206 -80.5l-118 -250q-72 41 -148.5 69t-163.5 28q-135 0 -241 -84t-168 -246t-62 -348q0 -155 69.5 -232t213.5 -77q110 0 256 36l-162 -768h-305l102 474q-232 14 -358.5 161t-126.5 402z" horiz-adv-x="1253" unicode="Ҁ"/><glyph d="M90 391q0 212 74.5 385.5t209.5 268t308 94.5q182 0 328 -72l-92 -229q-54 23 -106 40t-118 17q-85 0 -153.5 -64t-107 -175.5t-38.5 -239.5q0 -193 176 -193q100 0 205 45l-162 -760h-301l107 476q-156 20 -243 127t-87 280z" horiz-adv-x="989" unicode="ҁ"/><glyph d="M104 547l70 123l287 -164l198 346l-284 164l71 125l285 -164l182 313l127 -73l-182 -316l287 -164l-74 -123l-283 164l-200 -346l284 -166l-71 -123l-285 164l-180 -313l-129 74l180 315z" horiz-adv-x="1247" unicode="҂"/><glyph d="M301 1251q0 60 36 100t99 40h441q31 94 120 94q51 0 75 -26.5t24 -69.5q0 -67 -36 -107.5t-97 -40.5h-441q-34 -94 -123 -94q-48 0 -73 29.5t-25 74.5z" horiz-adv-x="1096" unicode="҃"/><glyph d="M319 1241l41 195h23q116 0 259 60q142 60 232 60q108 0 170 -60t62 -171q0 -49 -8 -86h-183l3 31q0 80 -78 80q-42 0 -86.5 -17t-100.5 -37.5t-126.5 -37.5t-164.5 -17h-43z" horiz-adv-x="1137" unicode="҄"/><glyph d="M602 1440q0 78 52.5 131t136.5 53q60 0 87 -27t27 -65q0 -29 -17 -49t-54 -37q-25 -11 -39.5 -24.5t-14.5 -39.5q0 -56 92 -79v-84q-124 8 -197 68.5t-73 152.5z" horiz-adv-x="1135" unicode="҅"/><glyph d="M571 1217v92q73 14 110.5 38t37.5 66q0 17 -9 25t-28 16q-25 12 -40 27t-15 49q0 94 125 94q71 0 114 -41t43 -104q0 -245 -338 -262z" horiz-adv-x="1135" unicode="҆"/><glyph d="M41 459q5 90 55.5 142t153.5 52q92 0 149.5 -51t63.5 -143h-80q-5 45 -35 66.5t-98 21.5q-78 0 -103 -19.5t-30 -68.5h-76zM219 -41q5 90 55.5 142.5t153.5 52.5q92 0 149.5 -51t63.5 -144h-80q-5 45 -35 66.5t-98 21.5q-78 0 -103 -19.5t-30 -68.5h-76zM219 946 q5 90 55.5 142.5t153.5 52.5q92 0 149.5 -51t63.5 -144h-80q-5 45 -35 66.5t-98 21.5q-78 0 -103 -19.5t-30 -68.5h-76zM793 -319q5 89 55 141.5t153 52.5q92 0 149.5 -51t63.5 -143h-79q-5 44 -35 66t-99 22q-78 0 -103 -20.5t-30 -67.5h-75zM793 1231q11 194 208 194 q93 0 149.5 -50.5t63.5 -143.5h-79q-5 44 -35 66t-99 22q-78 0 -103 -20.5t-30 -67.5h-75zM1372 -41q5 90 55.5 142.5t153.5 52.5q92 0 149.5 -51t63.5 -144h-80q-5 45 -35 66.5t-98 21.5q-78 0 -103 -19.5t-30 -68.5h-76zM1372 946q5 90 55.5 142.5t153.5 52.5 q92 0 149.5 -51t63.5 -144h-80q-5 45 -35 66.5t-98 21.5q-78 0 -103 -19.5t-30 -68.5h-76zM1563 459q11 194 209 194q92 0 149.5 -52t63.5 -142h-80q-5 44 -35 66t-98 22q-78 0 -103.5 -20t-30.5 -68h-75z" horiz-adv-x="2025" unicode="҈"/><glyph d="M41 565v97q221 -53 350 -70v-139l-14 -11q-66 17 -161.5 52t-174.5 71zM238 -55q177 110 297 198l98 -98l-2 -16q-155 -89 -324 -152zM324 1202l67 70q123 -198 199 -297l-98 -98l-17 2q-82 140 -151 323zM870 -385q53 221 70 350h139l11 -14q-17 -66 -52 -161.5 t-71 -174.5h-97zM870 1155q19 71 55.5 171t67.5 165h97q-52 -220 -70 -350h-139zM1325 1018l2 16q67 39 162 83t162 69l69 -68q-177 -110 -297 -198zM1366 86l98 98l17 -2q39 -69 84 -166t67 -157l-67 -70q-31 50 -96 147.5t-103 149.5zM1567 512v139l14 11 q71 -19 171 -55.5t165 -67.5v-97q-221 53 -350 70z" horiz-adv-x="1958" unicode="҉"/><glyph d="M53 0l309 1462h281l-147 -692q-65 -282 -84 -352h10l764 1044h370l-253 -1196h305l-312 -692h-346l262 426h-241q94 446 144 682t85 379l-8 2l-764 -1063h-375zM563 1884q0 25 4 47h267l-3 -47q0 -139 170 -139q100 0 154 45.5t76 140.5h272q-34 -133 -98 -207.5 t-170 -112.5t-258 -38q-200 0 -307 76.5t-107 234.5z" horiz-adv-x="1681" unicode="Ҋ"/><glyph d="M106 301q0 68 29 213l127 604h301l-137 -653q-16 -68 -16 -119q0 -123 108 -123q92 0 167 114t118 318l98 463h301l-190 -895h252l-273 -624h-303l217 401h-188l20 180h-2q-142 -200 -340 -200q-137 0 -213 82.5t-76 238.5zM326 1552q0 25 4 47h266l-2 -26v-21 q0 -139 170 -139q99 0 152.5 44t76.5 142h273q-50 -194 -177.5 -276t-349.5 -82q-199 0 -306 77t-107 234z" horiz-adv-x="1288" unicode="ҋ"/><glyph d="M53 0l226 1057h-150l55 254h146l32 151h306l-33 -151h248l-56 -254h-245l-33 -156h67q240 0 365 -105t125 -304q0 -237 -158 -364.5t-456 -127.5h-439zM412 254h100q139 0 212 58.5t73 164.5q0 170 -193 170h-108z" horiz-adv-x="1212" unicode="Ҍ"/><glyph d="M115 307q0 70 24 180l140 648h-158l41 198h160l47 223h301l-49 -223h303l-41 -198h-305l-101 -471q88 22 217 22q166 0 260.5 -82.5t94.5 -220.5q0 -120 -62.5 -211t-182 -141.5t-290.5 -50.5q-195 0 -297 83t-102 244zM414 317q0 -61 38 -94t105 -33q86 0 137 45t51 117 q0 123 -149 123q-70 0 -160 -18q-7 -32 -14.5 -71t-7.5 -69z" horiz-adv-x="1157" unicode="ҍ"/><glyph d="M53 0l309 1462h338q242 0 366 -106.5t124 -319.5q0 -143 -61 -251.5t-177 -174.5l62 -129l-174 -82l-68 144q-103 -23 -219 -23h-86l-109 -520h-305zM522 774h56q43 0 84 6l-52 113l170 82l49 -105q54 63 54 158q0 180 -195 180h-74z" horiz-adv-x="1188" unicode="Ҏ"/><glyph d="M-68 -492l342 1610h230l-17 -170h9q138 191 317 191q146 0 230.5 -107.5t84.5 -300.5q0 -206 -78 -392.5t-208 -279.5l55 -127l-174 -82l-61 132l-52 -2q-83 0 -143 37t-111 126h-8q-12 -159 -43 -295l-72 -340h-301zM420 399q0 -90 34.5 -133t82.5 -43h12l-55 121 l170 82l49 -104q52 75 81 182t29 215q0 176 -131 176q-70 0 -132 -65t-101 -185.5t-39 -245.5z" horiz-adv-x="1219" unicode="ҏ"/><glyph d="M53 0l309 1462h539l66 310h272l-117 -564h-512l-256 -1208h-301z" horiz-adv-x="1030" unicode="Ґ"/><glyph d="M37 0l237 1118h461l64 305h278l-116 -553h-439l-184 -870h-301z" horiz-adv-x="948" unicode="ґ"/><glyph d="M29 596l55 254h149l129 612h814l-54 -254h-512l-75 -358h309l-56 -254h-309l-125 -596h-301l127 596h-151z" horiz-adv-x="1030" unicode="Ғ"/><glyph d="M-12 418l49 235h139l98 465h740l-53 -248h-439l-47 -217h262l-49 -235h-262l-88 -418h-301l90 418h-139z" horiz-adv-x="948" unicode="ғ"/><glyph d="M53 0l309 1462h814l-54 -254h-512l-86 -409q80 20 168 20q151 0 267 -71.5t173.5 -197.5t57.5 -294q0 -223 -83.5 -403t-231.5 -272.5t-338 -92.5q-169 0 -291 49v260q129 -51 270 -51q163 0 263 133t100 344q0 165 -72.5 250.5t-208.5 85.5q-73 0 -127 -12l-117 -547 h-301z" horiz-adv-x="1364" unicode="Ҕ"/><glyph d="M37 0l237 1118h740l-53 -248h-439l-53 -247q51 18 131 18q179 0 280 -122t101 -335q0 -209 -73 -369t-206 -238.5t-313 -78.5q-149 0 -231 43v271q96 -54 221 -54q141 0 219 108t78 296q0 113 -44.5 174t-131.5 61q-47 0 -82 -14l-80 -383h-301z" horiz-adv-x="1174" unicode="ҕ"/><glyph d="M-125 0l619 780l-279 682h303l266 -684l146 684h293l-146 -684l537 684h328l-582 -723l196 -493h209l-143 -672h-303l92 426h-72l-274 719l-152 -719h-292l151 717l-555 -717h-342z" horiz-adv-x="1882" unicode="Җ"/><glyph d="M-20 -8l47 239q53 -8 79 -8q84 0 149.5 64t101.5 175t36 240q0 96 -36 144.5t-101 48.5q-45 0 -121 -27v244q76 27 178 27q175 0 276 -114t101 -318v-27l-2 -27h166l100 465h289l-100 -465h157q57 227 203 356.5t348 129.5q71 0 136 -13l-52 -239q-53 8 -80 8 q-125 0 -205.5 -136t-80.5 -343q0 -96 39 -144.5t108 -48.5q82 0 162 33l-137 -657h-279l92 391q-134 27 -208 134t-74 282v45h-172l-96 -451h-289l96 451h-152q-57 -223 -199.5 -347t-344.5 -124q-77 0 -135 12z" horiz-adv-x="1966" unicode="җ"/><glyph d="M41 59v263q182 -99 399 -99q170 0 256 60.5t86 175.5q0 93 -77 136.5t-242 43.5h-141l51 242h127q383 0 383 200q0 72 -47.5 113t-141.5 41q-170 0 -360 -123l-109 209q143 91 268.5 126.5t276.5 35.5q123 0 222 -44t153.5 -122t54.5 -174q0 -169 -109.5 -266.5 t-306.5 -110.5v-4q143 -17 226.5 -101t83.5 -215q0 -224 -161 -345t-468 -121q-139 0 -242.5 18t-181.5 61zM252 -287q58 -22 112 -22q109 0 109 102q0 53 -24.5 101.5t-69.5 105.5h180q127 -118 127 -254q0 -114 -75 -176t-206 -62q-92 0 -153 25v180z" horiz-adv-x="1221" unicode="Ҙ"/><glyph d="M25 55v248q176 -88 362 -88q258 0 258 145q0 117 -176 117h-176l45 211h125q140 0 198 29.5t58 97.5q0 46 -34 72t-120 26q-69 0 -153.5 -22.5t-161.5 -56.5l-72 219q224 86 440 86q193 0 297.5 -71t104.5 -206q0 -104 -63 -173t-197 -105v-6q190 -56 190 -226 q0 -180 -143.5 -276t-409.5 -96q-101 0 -202 20t-170 55zM183 -287q58 -22 112 -22q109 0 109 102q0 53 -24.5 101.5t-69.5 105.5h180q127 -118 127 -254q0 -114 -75 -176t-206 -62q-92 0 -153 25v180z" horiz-adv-x="1073" unicode="ҙ"/><glyph d="M53 0l309 1462h306l-146 -684l541 684h344l-582 -723l199 -493h291l-144 -672h-303l93 426h-179l-272 719l-152 -719h-305z" horiz-adv-x="1407" unicode="Қ"/><glyph d="M37 0l239 1118h302l-111 -520l440 520h344l-479 -561l152 -307h245l-137 -651h-278l96 401h-139l-256 545l-117 -545h-301z" horiz-adv-x="1253" unicode="қ"/><glyph d="M53 0l309 1462h306l-146 -684l146 185l75 358h144l-31 -141l236 282h344l-613 -721l297 -741h-325l-123 334l-25 -141h-143l86 413l-121 -84l-111 -522h-305z" horiz-adv-x="1219" unicode="Ҝ"/><glyph d="M90 0l240 1118h301l-111 -520l86 100l68 316h133l-25 -113l187 217h336l-478 -555l-2 -12l277 -551h-330l-125 266l-35 -176h-135l78 356l-47 101l-117 -547h-301z" horiz-adv-x="1204" unicode="ҝ"/><glyph d="M53 0l228 1073h-129l53 254h129l28 135h306l-29 -135h133l-53 -254h-135l-68 -313l582 702h360l-608 -710l291 -752h-338l-211 592l-125 -70l-109 -522h-305z" horiz-adv-x="1255" unicode="Ҟ"/><glyph d="M37 0l254 1196h-160l43 199h160l33 161h301l-35 -161h305l-43 -199h-305l-70 -334q-26 -121 -57 -217h6l451 473h344l-498 -504l285 -614h-336l-183 420l-120 -72l-74 -348h-301z" horiz-adv-x="1163" unicode="ҟ"/><glyph d="M168 1204l53 258h631l-145 -684l540 684h344l-581 -723l295 -739h-338l-273 719l-151 -719h-305l254 1204h-324z" horiz-adv-x="1403" unicode="Ҡ"/><glyph d="M74 889l49 229h631l-111 -520l440 520h344l-479 -561l277 -557h-338l-256 545l-117 -545h-301l190 889h-329z" horiz-adv-x="1327" unicode="ҡ"/><glyph d="M53 0l309 1462h306l-121 -573h471l121 573h305l-258 -1216h284l-143 -672h-303l92 426h-287l134 631h-471l-134 -631h-305z" horiz-adv-x="1569" unicode="Ң"/><glyph d="M37 0l239 1118h304l-93 -430h349l90 430h301l-185 -868h226l-138 -651h-278l94 401h-258l96 461h-346l-98 -461h-303z" horiz-adv-x="1352" unicode="ң"/><glyph d="M53 0l309 1462h306l-121 -573h471l121 573h614l-53 -258h-311l-254 -1204h-306l134 631h-471l-134 -631h-305z" horiz-adv-x="1577" unicode="Ҥ"/><glyph d="M37 0l239 1118h304l-93 -430h349l90 430h643l-49 -229h-342l-189 -889h-301l96 461h-346l-98 -461h-303z" horiz-adv-x="1456" unicode="ҥ"/><glyph d="M53 0l309 1462h1051l-139 -663q73 20 168 20q149 0 265 -72t174 -198t58 -293q0 -220 -82.5 -399.5t-229 -274t-337.5 -94.5q-172 0 -295 49v260q129 -51 271 -51q161 0 261.5 132.5t100.5 344.5q0 163 -72.5 249.5t-207.5 86.5q-77 0 -127 -12l-117 -547h-303l256 1204 h-443l-256 -1204h-305z" horiz-adv-x="2114" unicode="Ҧ"/><glyph d="M37 0l239 1118h930l-106 -495q51 18 131 18q179 0 280 -122t101 -335q0 -209 -73 -369t-206 -238.5t-313 -78.5q-146 0 -232 43v271q98 -54 222 -54q141 0 219 108t78 296q0 114 -45.5 174.5t-131.5 60.5q-46 0 -81 -14l-80 -383h-301l186 889h-326l-188 -889h-303z" horiz-adv-x="1769" unicode="ҧ"/><glyph d="M123 530q0 271 99 495t271.5 342t399.5 118q135 0 250 -45l-84 -240q-81 31 -166 31q-130 0 -233.5 -87t-164.5 -252.5t-61 -354.5q0 -143 67.5 -223.5t184.5 -80.5h12q-63 120 -63 299q0 181 56.5 318t159.5 211t234 74q156 0 242 -91.5t86 -257.5q0 -179 -78.5 -342 t-210.5 -272q24 -12 74 -12q63 0 139 26v-243q-28 -11 -78 -19t-100 -8q-161 0 -274 96q-96 -32 -219 -32q-253 0 -398 146t-145 404zM911 506q0 -98 33 -178q84 76 138.5 212t54.5 261q0 102 -62 102q-69 0 -116.5 -111t-47.5 -286z" horiz-adv-x="1495" unicode="Ҩ"/><glyph d="M90 434q0 207 76.5 371t211 249t314.5 85q60 0 120.5 -12.5t92.5 -26.5l-71 -219q-64 20 -132 20q-91 0 -160.5 -58t-109 -170t-39.5 -237q0 -115 42 -171t110 -56h24q-22 37 -35.5 100t-13.5 113q0 194 96 307t261 113q137 0 212.5 -73t75.5 -208q0 -122 -60.5 -239 t-150.5 -175q22 -6 56 -6q62 0 118 21v-209q-70 -25 -155 -25q-139 0 -246 90q-96 -38 -221 -38q-200 0 -308 120t-108 334zM766 420q0 -36 7.5 -80t21.5 -70q54 44 89.5 129.5t35.5 161.5q0 34 -12.5 55t-37.5 21q-47 0 -75.5 -65t-28.5 -152z" horiz-adv-x="1255" unicode="ҩ"/><glyph d="M123 553q0 262 104 482.5t278 335t400 114.5q125 0 222 -22.5t208 -82.5l-118 -250q-106 59 -175 78t-137 19q-132 0 -237.5 -81t-169.5 -238.5t-64 -338.5q0 -167 68.5 -248t218.5 -81q146 0 338 77v-260q-199 -77 -400 -77q-254 0 -395 149.5t-141 423.5zM385 -287 q58 -22 112 -22q109 0 109 102q0 53 -24.5 101.5t-69.5 105.5h180q127 -118 127 -254q0 -114 -75 -176t-206 -62q-92 0 -153 25v180z" horiz-adv-x="1253" unicode="Ҫ"/><glyph d="M90 391q0 212 74.5 385.5t209.5 268t308 94.5q182 0 328 -72l-92 -229q-54 23 -106 40t-118 17q-85 0 -153.5 -64t-107 -175.5t-38.5 -239.5q0 -96 45.5 -144.5t126.5 -48.5q76 0 141 23.5t134 58.5v-246q-152 -79 -336 -79q-201 0 -308.5 107.5t-107.5 303.5zM252 -287 q58 -22 112 -22q109 0 109 102q0 53 -24.5 101.5t-69.5 105.5h180q127 -118 127 -254q0 -114 -75 -176t-206 -62q-92 0 -153 25v180z" horiz-adv-x="989" unicode="ҫ"/><glyph d="M168 1204l55 258h1010l-55 -258h-353l-202 -958h284l-143 -672h-303l92 426h-287l254 1204h-352z" horiz-adv-x="1087" unicode="Ҭ"/><glyph d="M37 0l237 1118h230l-21 -207h6q146 228 355 228q219 0 262 -228h6q68 110 160.5 169t197.5 59q136 0 207.5 -85t71.5 -237q0 -74 -23 -178l-59 -285q-6 -30 -6 -53q0 -65 61 -65q41 0 90 14l-137 -651h-278l96 401q-141 49 -141 223q0 62 14 127l64 303q16 68 16 119 q0 123 -98 123q-92 0 -166.5 -112t-118.5 -318l-96 -465h-301l137 653q16 68 16 119q0 123 -98 123q-92 0 -167 -114t-118 -318l-98 -463h-301z" horiz-adv-x="1896" unicode="ҭ"/><glyph d="M186 1462h312l129 -592l374 592h342l-618 -903l-119 -559h-303l119 559z" horiz-adv-x="1155" unicode="Ү"/><glyph d="M102 1118h295l48 -632q6 -80 6 -177h6q39 114 90 215l297 594h323l-610 -1118l-104 -492h-312l105 492z" horiz-adv-x="1049" unicode="ү"/><glyph d="M76 270l53 258h287l6 31l-236 903h312l129 -592l374 592h342l-618 -903l-6 -31h295l-53 -258h-297l-58 -270h-303l57 270h-284z" horiz-adv-x="1155" unicode="Ұ"/><glyph d="M-61 -229l49 229h258l-144 1118h295l45 -586q4 -57 4 -227h7q36 109 94 219l297 594h323l-610 -1118h274l-49 -229h-274l-55 -263h-312l56 263h-258z" horiz-adv-x="1049" unicode="ұ"/><glyph d="M-117 0l576 764l-238 698h320l153 -518l363 518h344l-545 -725l178 -491h264l-143 -672h-303l92 426h-151l-172 543l-396 -543h-342z" horiz-adv-x="1415" unicode="Ҳ"/><glyph d="M-100 0l479 573l-225 545h321l115 -334l244 334h354l-467 -561l133 -307h266l-137 -651h-278l94 401h-160l-125 342l-264 -342h-350z" horiz-adv-x="1204" unicode="ҳ"/><glyph d="M168 1204l55 258h979l-53 -258h-324l-198 -946h460l256 1204h304l-254 -1196h209l-148 -692h-303l92 426h-977l254 1204h-352z" horiz-adv-x="1714" unicode="Ҵ"/><glyph d="M92 889l49 229h797l-49 -229h-248l-88 -424q-16 -68 -16 -125q0 -117 102 -117q97 0 172.5 115t118.5 317l98 463h301l-162 -764q-6 -30 -6 -53q0 -65 62 -65q39 0 90 14l-137 -651h-279l96 401q-97 45 -129 180h-2q-142 -200 -340 -200q-137 0 -213 80.5t-76 226.5 q0 90 29 225l80 377h-250z" horiz-adv-x="1397" unicode="ҵ"/><glyph d="M184 797q0 57 13 116l112 549h305l-108 -516q-10 -46 -10 -82q0 -131 153 -131q131 0 295 74l139 655h306l-259 -1216h285l-143 -672h-303l92 426h-287l119 561q-187 -86 -348 -86q-167 0 -264 85t-97 237z" horiz-adv-x="1532" unicode="Ҷ"/><glyph d="M164 664q0 79 29 213l51 241h301l-62 -291q-16 -68 -16 -118q0 -63 31 -95t88 -32q98 0 161.5 98.5t108.5 310.5l27 127h301l-185 -868h226l-138 -651h-278l96 401h-260l64 303l43 180h-7q-128 -141 -292 -141q-135 0 -212 86t-77 236z" horiz-adv-x="1309" unicode="ҷ"/><glyph d="M184 797q0 57 13 116l112 549h305l-108 -516q-10 -46 -10 -82q0 -118 125 -131l69 328h146l-68 -316q82 18 176 62l139 655h306l-310 -1462h-305l119 561q-102 -46 -178 -65l-70 -324h-145l65 303h-20q-167 0 -264 85t-97 237z" horiz-adv-x="1378" unicode="Ҹ"/><glyph d="M164 664q0 79 29 213l51 241h301l-62 -291q-16 -68 -16 -118q0 -94 72 -119l49 229h137l-47 -217q69 35 115 132.5t81 256.5l27 127h301l-237 -1118h-301l63 303l43 180h-6q-62 -68 -135 -104l-54 -250h-137l47 213q-153 0 -237 84t-84 238z" horiz-adv-x="1237" unicode="ҹ"/><glyph d="M53 0l309 1462h306l-119 -561q187 86 348 86q167 0 263.5 -85t96.5 -236q0 -53 -12 -117l-112 -549h-306l109 516q10 46 10 82q0 131 -153 131q-131 0 -295 -74l-140 -655h-305z" horiz-adv-x="1378" unicode="Һ"/><glyph d="M37 0l237 1118h301l-63 -303l-43 -180h6q128 141 293 141q135 0 212 -86t77 -235q0 -68 -29 -213l-51 -242h-301l61 291q17 70 17 119q0 63 -31 95t-88 32q-98 0 -161.5 -98.5t-108.5 -311.5l-27 -127h-301z" horiz-adv-x="1237" unicode="һ"/><glyph d="M61 881q0 117 74 215h252q-53 -81 -53 -142q0 -39 22.5 -62.5t67.5 -23.5h10q88 295 280 456t464 161q200 0 308.5 -99t108.5 -278q0 -242 -197 -366t-583 -124h-106l-2 -22v-27q0 -167 70.5 -248t215.5 -81q162 0 359 75v-258q-177 -77 -410 -77q-262 0 -404.5 147 t-142.5 418l4 86q-166 8 -252 72.5t-86 177.5zM758 868h92q219 0 328.5 59t109.5 173q0 59 -34.5 93t-102.5 34q-128 0 -236.5 -100.5t-156.5 -258.5z" horiz-adv-x="1595" unicode="Ҽ"/><glyph d="M20 690q0 100 58 182h213q-43 -64 -43 -135q0 -42 20.5 -65t53.5 -23h12q60 231 218.5 360.5t375.5 129.5q177 0 276 -81.5t99 -223.5q0 -187 -167 -288.5t-477 -101.5h-51l-2 -21v-20q0 -91 51.5 -143.5t147.5 -52.5q87 0 158 19t172 67v-227q-172 -86 -390 -86 q-210 0 -326 113t-116 319v41q-283 30 -283 237zM641 647h45q155 0 241.5 48.5t86.5 131.5q0 95 -105 95q-88 0 -166 -80t-102 -195z" horiz-adv-x="1354" unicode="ҽ"/><glyph d="M61 881q0 117 74 215h252q-53 -81 -53 -142q0 -39 22.5 -62.5t67.5 -23.5h10q94 300 285 458.5t459 158.5q200 0 308.5 -99t108.5 -278q0 -242 -197 -366t-583 -124h-106l-2 -22v-27q0 -167 70.5 -248t215.5 -81q162 0 359 75v-258q-134 -61 -318 -73l-86 -410h-303 l94 432q-167 50 -255.5 189t-88.5 350l4 86q-166 8 -252 72.5t-86 177.5zM758 868h92q219 0 328.5 59t109.5 173q0 59 -34.5 93t-102.5 34q-128 0 -236.5 -100.5t-156.5 -258.5z" horiz-adv-x="1595" unicode="Ҿ"/><glyph d="M20 690q0 100 58 182h213q-43 -64 -43 -135q0 -42 20.5 -65t53.5 -23h12q60 231 218.5 360.5t375.5 129.5q177 0 276 -81.5t99 -223.5q0 -187 -167 -288.5t-477 -101.5h-51l-2 -21v-20q0 -91 51.5 -143.5t147.5 -52.5q87 0 158 19t172 67v-227q-133 -67 -293 -82 l-80 -385h-279l92 403q-131 39 -201.5 144t-70.5 266v41q-283 30 -283 237zM641 647h45q155 0 241.5 48.5t86.5 131.5q0 95 -105 95q-88 0 -166 -80t-102 -195z" horiz-adv-x="1354" unicode="ҿ"/><glyph d="M53 0l312 1462h305l-312 -1462h-305z" horiz-adv-x="659" unicode="Ӏ"/><glyph d="M-125 0l619 780l-279 682h303l266 -684l146 684h293l-146 -684l537 684h328l-582 -723l295 -739h-316l-274 719l-152 -719h-292l151 717l-555 -717h-342zM669 1890q0 24 5 47h266l-2 -26v-21q0 -139 170 -139q99 0 152.5 44t76.5 142h272q-34 -133 -98 -207.5 t-170 -112.5t-258 -38q-200 0 -307 76.5t-107 234.5z" horiz-adv-x="1776" unicode="Ӂ"/><glyph d="M-20 -8l47 239q53 -8 79 -8q84 0 149.5 64t101.5 175t36 240q0 96 -36 144.5t-101 48.5q-45 0 -121 -27v244q76 27 178 27q175 0 276 -114t101 -318v-27l-2 -27h166l100 465h289l-100 -465h157q57 227 203 356.5t348 129.5q71 0 136 -13l-52 -239q-53 8 -80 8 q-125 0 -205.5 -136t-80.5 -343q0 -96 36 -144.5t101 -48.5q45 0 121 27v-244q-73 -26 -178 -26q-177 0 -277 111.5t-100 314.5v45h-172l-96 -451h-289l96 451h-152q-57 -223 -199.5 -347t-344.5 -124q-77 0 -135 12zM694 1552q0 24 5 47h266l-2 -26v-21q0 -139 170 -139 q99 0 152.5 44t76.5 142h272q-34 -133 -98 -207.5t-170 -112.5t-258 -38q-200 0 -307 76.5t-107 234.5z" horiz-adv-x="1966" unicode="ӂ"/><glyph d="M53 0l309 1462h306l-146 -684l541 684h344l-555 -686q118 -21 205.5 -89.5t136.5 -181t49 -257.5q0 -217 -83 -395t-228.5 -271.5t-341.5 -93.5q-168 0 -291 49v260q122 -51 270 -51q163 0 263 133t100 344q0 322 -305 322q-83 0 -160 -25l-109 -520h-305z" horiz-adv-x="1417" unicode="Ӄ"/><glyph d="M37 0l237 1118h301l-110 -520l442 520h344l-467 -534q143 -28 222 -137.5t79 -292.5q0 -193 -70.5 -342.5t-204 -231.5t-316.5 -82q-139 0 -232 43v271q98 -54 221 -54q137 0 217 100t80 281q0 116 -62 182t-173 66q-70 0 -129 -25l-78 -362h-301z" horiz-adv-x="1268" unicode="ӄ"/><glyph d="M-61 4v254q53 -20 100 -20q65 0 107 31.5t82 101.5t92.5 217.5t117 371.5t135.5 502h861l-256 -1196h305l-312 -692h-346l262 426h-268l256 1204h-272q-79 -320 -161 -577t-155.5 -393.5t-164 -195t-240.5 -58.5q-80 0 -143 24z" horiz-adv-x="1556" unicode="Ӆ"/><glyph d="M-59 4v248q37 -16 84 -16q50 0 89.5 52.5t77.5 163.5q102 303 158 408t122.5 163.5t162.5 87t233 28.5q87 0 182 -15.5t164 -42.5l-180 -858h254l-272 -624h-303l217 401h-244l188 885q-40 8 -63 8q-67 0 -112 -31.5t-82 -101t-109 -283.5q-35 -103 -68.5 -193.5 t-79 -158t-110 -106.5t-160.5 -39q-89 0 -149 24z" horiz-adv-x="1350" unicode="ӆ"/><glyph d="M53 0l309 1462h306l-121 -573h471l121 573h305l-297 -1405q-61 -289 -207.5 -429t-396.5 -140q-170 0 -293 49v273q125 -50 272 -50q135 0 215 89t119 276l107 506h-471l-134 -631h-305z" horiz-adv-x="1434" unicode="Ӈ"/><glyph d="M37 0l239 1118h304l-93 -430h349l90 430h301l-238 -1118q-53 -249 -176.5 -375.5t-335.5 -126.5q-155 0 -258 58v262q114 -60 225 -60q98 0 158 64.5t94 216.5l88 422h-346l-98 -461h-303z" horiz-adv-x="1262" unicode="ӈ"/><glyph d="M53 0l309 1462h306l-121 -573h471l121 573h305l-254 -1196h305l-311 -692h-346l262 426h-271l134 631h-471l-134 -631h-305z" horiz-adv-x="1569" unicode="Ӊ"/><glyph d="M37 0l239 1118h304l-93 -430h349l90 430h301l-191 -895h254l-272 -624h-303l217 401h-244l96 461h-346l-98 -461h-303z" horiz-adv-x="1352" unicode="ӊ"/><glyph d="M184 797q0 57 13 116l112 549h305l-108 -516q-10 -46 -10 -82q0 -131 153 -131q131 0 295 74l139 655h306l-310 -1462h-286l-91 -426h-303l148 672h278l68 315q-187 -86 -348 -86q-167 0 -264 85t-97 237z" horiz-adv-x="1378" unicode="Ӌ"/><glyph d="M164 664q0 79 29 213l51 241h301l-62 -291q-16 -68 -16 -118q0 -63 31 -95t88 -32q98 0 161.5 98.5t108.5 310.5l27 127h301l-238 -1118h-282l-84 -401h-279l152 651h243l13 55q8 45 22.5 103.5t20.5 74.5h-7q-128 -141 -292 -141q-135 0 -212 86t-77 236z" horiz-adv-x="1219" unicode="ӌ"/><glyph d="M53 0l309 1462h404l68 -1093h4l551 1093h423l-253 -1196h305l-312 -692h-346l262 426h-245l145 692q58 268 105 441h-5l-569 -1133h-281l-61 1133h-4q-10 -72 -37 -222.5t-45 -230.5l-143 -680h-275z" horiz-adv-x="1937" unicode="Ӎ"/><glyph d="M23 0l239 1118h406l59 -477q11 -84 15.5 -156t9.5 -143q88 203 137 291l270 485h428l-188 -895h254l-273 -624h-303l217 401h-235l172 807q-28 -62 -69 -136t-83 -153l-276 -518h-232l-63 504q-24 203 -31 307l-170 -811h-284z" horiz-adv-x="1714" unicode="ӎ"/><glyph d="M53 0l312 1462h305l-312 -1462h-305z" horiz-adv-x="659" unicode="ӏ"/><glyph d="M-123 0l766 1468h373l147 -1468h-297l-24 348h-473l-172 -348h-320zM494 608h333l-26 350q-10 131 -10 253v36q-44 -120 -109 -254zM434 1890q0 24 5 47h266l-2 -26v-21q0 -139 170 -139q99 0 152.5 44t76.5 142h272q-34 -133 -98 -207.5t-170 -112.5t-258 -38 q-200 0 -307 76.5t-107 234.5z" horiz-adv-x="1286" unicode="Ӑ"/><glyph d="M90 385q0 198 72 377.5t189 278t257 98.5q97 0 167.5 -42t109.5 -122h8l57 143h232l-238 -1118h-229l14 145h-4q-134 -165 -319 -165q-147 0 -231.5 106.5t-84.5 298.5zM395 399q0 -88 33.5 -132t95.5 -44q69 0 133 67t103 181.5t39 259.5q0 71 -38.5 117.5t-101.5 46.5 q-68 0 -129.5 -72t-98 -190t-36.5 -234zM337 1552q0 24 5 47h266l-2 -26v-21q0 -139 170 -139q99 0 152.5 44t76.5 142h272q-34 -133 -98 -207.5t-170 -112.5t-258 -38q-200 0 -307 76.5t-107 234.5z" unicode="ӑ"/><glyph d="M-123 0l766 1468h373l147 -1468h-297l-24 348h-473l-172 -348h-320zM494 608h333l-26 350q-10 131 -10 253v36q-44 -120 -109 -254zM510 1720q0 78 42.5 118t119.5 40q133 0 133 -108q0 -73 -39 -116.5t-121 -43.5q-135 0 -135 110zM912 1720q0 78 42 118t120 40 q65 0 99 -28t34 -80q0 -73 -39.5 -116.5t-120.5 -43.5q-135 0 -135 110z" horiz-adv-x="1286" unicode="Ӓ"/><glyph d="M90 385q0 198 72 377.5t189 278t257 98.5q97 0 167.5 -42t109.5 -122h8l57 143h232l-238 -1118h-229l14 145h-4q-134 -165 -319 -165q-147 0 -231.5 106.5t-84.5 298.5zM395 399q0 -88 33.5 -132t95.5 -44q69 0 133 67t103 181.5t39 259.5q0 71 -38.5 117.5t-101.5 46.5 q-68 0 -129.5 -72t-98 -190t-36.5 -234zM399 1382q0 78 42.5 118t119.5 40q133 0 133 -108q0 -73 -39 -116.5t-121 -43.5q-135 0 -135 110zM801 1382q0 78 42 118t120 40q65 0 99 -28t34 -80q0 -73 -39.5 -116.5t-120.5 -43.5q-135 0 -135 110z" unicode="ӓ"/><glyph d="M-123 0l922 1462h1104l-54 -254h-512l-67 -321h477l-55 -254h-478l-79 -377h512l-54 -256h-817l74 348h-426l-219 -348h-328zM588 608h317l127 600h-80z" horiz-adv-x="1833" unicode="Ӕ"/><glyph d="M90 385q0 200 68.5 375.5t185 277t258.5 101.5q96 0 160.5 -38.5t114.5 -125.5h6l57 143h188l-18 -90q44 49 120.5 80t168.5 31q157 0 246.5 -83.5t89.5 -221.5q0 -187 -167 -288.5t-476 -101.5h-52l-2 -19v-19q0 -96 55.5 -147.5t159.5 -51.5q66 0 152 23t162 63v-227 q-179 -86 -361 -86q-109 0 -179.5 27t-117.5 87l-16 -94h-188l14 145h-6q-71 -88 -146.5 -126.5t-167.5 -38.5q-146 0 -227.5 109t-81.5 296zM395 399q0 -84 32.5 -130t90.5 -46q72 0 134 68t99 184.5t37 243.5q0 80 -33 128t-102 48q-68 0 -128 -69t-95 -185.5t-35 -241.5z M1073 647h45q155 0 241.5 48.5t86.5 131.5q0 95 -105 95q-88 0 -166 -80t-102 -195z" horiz-adv-x="1786" unicode="ӕ"/><glyph d="M53 0l309 1462h818l-54 -254h-512l-67 -321h477l-55 -254h-477l-80 -377h512l-54 -256h-817zM356 1890q0 24 5 47h266l-2 -26v-21q0 -139 170 -139q99 0 152.5 44t76.5 142h272q-34 -133 -98 -207.5t-170 -112.5t-258 -38q-200 0 -307 76.5t-107 234.5z" horiz-adv-x="1110" unicode="Ӗ"/><glyph d="M90 412q0 207 82.5 377.5t223.5 260t319 89.5q177 0 276 -81.5t99 -223.5q0 -187 -167 -288.5t-477 -101.5h-51l-2 -21v-20q0 -91 51.5 -143.5t147.5 -52.5q87 0 158 19t172 67v-227q-172 -86 -390 -86q-210 0 -326 113t-116 319zM428 647h45q155 0 241.5 48.5 t86.5 131.5q0 95 -105 95q-88 0 -166 -80t-102 -195zM310 1552q0 24 5 47h266l-2 -26v-21q0 -139 170 -139q99 0 152.5 44t76.5 142h272q-34 -133 -98 -207.5t-170 -112.5t-258 -38q-200 0 -307 76.5t-107 234.5z" horiz-adv-x="1141" unicode="ӗ"/><glyph d="M68 356q0 247 203 368.5t597 121.5h107q4 24 4 65q0 148 -71 231t-214 83q-109 0 -199 -22t-173 -54v258q179 78 409 78q267 0 412 -148t145 -426q0 -257 -101.5 -478t-276.5 -337t-398 -116q-212 0 -328 98t-116 278zM375 367q0 -60 39 -94.5t100 -34.5q139 0 244.5 90 t169.5 268h-154q-193 0 -296 -59.5t-103 -169.5z" horiz-adv-x="1352" unicode="Ә"/><glyph d="M51 285q0 186 166.5 287.5t476.5 101.5h51l3 41q0 91 -51.5 143.5t-147.5 52.5q-87 0 -158 -19t-172 -67v228q103 49 193.5 67.5t195.5 18.5q210 0 326.5 -113.5t116.5 -318.5q0 -204 -80.5 -374t-222 -261.5t-322.5 -91.5q-177 0 -276 81.5t-99 223.5zM340 291 q0 -94 104 -94q88 0 166 78.5t103 195.5h-45q-155 0 -241.5 -48.5t-86.5 -131.5z" horiz-adv-x="1141" unicode="ә"/><glyph d="M68 356q0 247 203 368.5t597 121.5h107q4 24 4 65q0 148 -71 231t-214 83q-109 0 -199 -22t-173 -54v258q179 78 409 78q267 0 412 -148t145 -426q0 -257 -101.5 -478t-276.5 -337t-398 -116q-212 0 -328 98t-116 278zM375 367q0 -60 39 -94.5t100 -34.5q139 0 244.5 90 t169.5 268h-154q-193 0 -296 -59.5t-103 -169.5zM522 1720q0 78 42.5 118t119.5 40q133 0 133 -108q0 -73 -39 -116.5t-121 -43.5q-135 0 -135 110zM924 1720q0 78 42 118t120 40q65 0 99 -28t34 -80q0 -73 -39.5 -116.5t-120.5 -43.5q-135 0 -135 110z" horiz-adv-x="1352" unicode="Ӛ"/><glyph d="M51 285q0 186 166.5 287.5t476.5 101.5h51l3 41q0 91 -51.5 143.5t-147.5 52.5q-87 0 -158 -19t-172 -67v228q103 49 193.5 67.5t195.5 18.5q210 0 326.5 -113.5t116.5 -318.5q0 -204 -80.5 -374t-222 -261.5t-322.5 -91.5q-177 0 -276 81.5t-99 223.5zM340 291 q0 -94 104 -94q88 0 166 78.5t103 195.5h-45q-155 0 -241.5 -48.5t-86.5 -131.5zM357 1382q0 78 42.5 118t119.5 40q133 0 133 -108q0 -73 -39 -116.5t-121 -43.5q-135 0 -135 110zM759 1382q0 78 42 118t120 40q65 0 99 -28t34 -80q0 -73 -39.5 -116.5t-120.5 -43.5 q-135 0 -135 110z" horiz-adv-x="1141" unicode="ӛ"/><glyph d="M-125 0l619 780l-279 682h303l266 -684l146 684h293l-146 -684l537 684h328l-582 -723l295 -739h-316l-274 719l-152 -719h-292l151 717l-555 -717h-342zM766 1720q0 78 42.5 118t119.5 40q133 0 133 -108q0 -73 -39 -116.5t-121 -43.5q-135 0 -135 110zM1168 1720 q0 78 42 118t120 40q65 0 99 -28t34 -80q0 -73 -39.5 -116.5t-120.5 -43.5q-135 0 -135 110z" horiz-adv-x="1776" unicode="Ӝ"/><glyph d="M-20 -8l47 239q53 -8 79 -8q84 0 149.5 64t101.5 175t36 240q0 96 -36 144.5t-101 48.5q-45 0 -121 -27v244q76 27 178 27q175 0 276 -114t101 -318v-27l-2 -27h166l100 465h289l-100 -465h157q57 227 203 356.5t348 129.5q71 0 136 -13l-52 -239q-53 8 -80 8 q-125 0 -205.5 -136t-80.5 -343q0 -96 36 -144.5t101 -48.5q45 0 121 27v-244q-73 -26 -178 -26q-177 0 -277 111.5t-100 314.5v45h-172l-96 -451h-289l96 451h-152q-57 -223 -199.5 -347t-344.5 -124q-77 0 -135 12zM796 1382q0 78 42.5 118t119.5 40q133 0 133 -108 q0 -73 -39 -116.5t-121 -43.5q-135 0 -135 110zM1198 1382q0 78 42 118t120 40q65 0 99 -28t34 -80q0 -73 -39.5 -116.5t-120.5 -43.5q-135 0 -135 110z" horiz-adv-x="1966" unicode="ӝ"/><glyph d="M41 59v263q182 -99 399 -99q170 0 256 60.5t86 175.5q0 93 -77 136.5t-242 43.5h-141l51 242h127q383 0 383 200q0 72 -47.5 113t-141.5 41q-170 0 -360 -123l-109 209q143 91 268.5 126.5t276.5 35.5q123 0 222 -44t153.5 -122t54.5 -174q0 -169 -109.5 -266.5 t-306.5 -110.5v-4q143 -17 226.5 -101t83.5 -215q0 -224 -161 -345t-468 -121q-139 0 -242.5 18t-181.5 61zM442 1720q0 78 42.5 118t119.5 40q133 0 133 -108q0 -73 -39 -116.5t-121 -43.5q-135 0 -135 110zM844 1720q0 78 42 118t120 40q65 0 99 -28t34 -80 q0 -73 -39.5 -116.5t-120.5 -43.5q-135 0 -135 110z" horiz-adv-x="1221" unicode="Ӟ"/><glyph d="M25 55v248q176 -88 362 -88q258 0 258 145q0 117 -176 117h-176l45 211h125q140 0 198 29.5t58 97.5q0 46 -34 72t-120 26q-69 0 -153.5 -22.5t-161.5 -56.5l-72 219q224 86 440 86q193 0 297.5 -71t104.5 -206q0 -104 -63 -173t-197 -105v-6q190 -56 190 -226 q0 -180 -143.5 -276t-409.5 -96q-101 0 -202 20t-170 55zM324 1382q0 78 42.5 118t119.5 40q133 0 133 -108q0 -73 -39 -116.5t-121 -43.5q-135 0 -135 110zM726 1382q0 78 42 118t120 40q65 0 99 -28t34 -80q0 -73 -39.5 -116.5t-120.5 -43.5q-135 0 -135 110z" horiz-adv-x="1073" unicode="ӟ"/><glyph d="M-4 59v263q75 -42 182.5 -70.5t181.5 -28.5q160 0 249 64t89 180q0 97 -64 141.5t-194 44.5h-153l45 205l379 348h-463l55 256h858l-43 -196l-469 -422q171 -19 266 -113t95 -258q0 -234 -165.5 -363.5t-459.5 -129.5q-242 0 -389 79z" horiz-adv-x="1137" unicode="Ӡ"/><glyph d="M-90 -150q70 -40 165.5 -67t174.5 -27q162 0 257 83.5t95 223.5q0 105 -68 163.5t-192 58.5h-135l45 215l399 385h-485l49 233h854l-41 -196l-481 -449q171 -16 269.5 -118.5t98.5 -262.5q0 -175 -77.5 -309t-220.5 -206.5t-330 -72.5q-215 0 -377 80v266z" horiz-adv-x="1120" unicode="ӡ"/><glyph d="M53 0l309 1462h281l-147 -692q-65 -282 -84 -352h10l764 1044h370l-309 -1462h-276q94 446 144 682t85 379l-8 2l-764 -1063h-375zM653 1579l45 211h619l-45 -211h-619z" horiz-adv-x="1546" unicode="Ӣ"/><glyph d="M111 301q0 93 24 213l127 604h301l-137 -653q-16 -68 -16 -119q0 -123 108 -123q92 0 167 114t118 318l98 463h301l-237 -1118h-230l21 207h-6q-145 -227 -355 -227q-138 0 -211 82.5t-73 238.5zM436 1241l45 211h619l-45 -211h-619z" horiz-adv-x="1237" unicode="ӣ"/><glyph d="M53 0l309 1462h281l-147 -692q-65 -282 -84 -352h10l764 1044h370l-309 -1462h-276q94 446 144 682t85 379l-8 2l-764 -1063h-375zM639 1720q0 78 42.5 118t119.5 40q133 0 133 -108q0 -73 -39 -116.5t-121 -43.5q-135 0 -135 110zM1041 1720q0 78 42 118t120 40 q65 0 99 -28t34 -80q0 -73 -39.5 -116.5t-120.5 -43.5q-135 0 -135 110z" horiz-adv-x="1546" unicode="Ӥ"/><glyph d="M111 301q0 93 24 213l127 604h301l-137 -653q-16 -68 -16 -119q0 -123 108 -123q92 0 167 114t118 318l98 463h301l-237 -1118h-230l21 207h-6q-145 -227 -355 -227q-138 0 -211 82.5t-73 238.5zM411 1382q0 78 42.5 118t119.5 40q133 0 133 -108q0 -73 -39 -116.5 t-121 -43.5q-135 0 -135 110zM813 1382q0 78 42 118t120 40q65 0 99 -28t34 -80q0 -73 -39.5 -116.5t-120.5 -43.5q-135 0 -135 110z" horiz-adv-x="1237" unicode="ӥ"/><glyph d="M123 537q0 265 99 487.5t273 341.5t402 119q255 0 395 -144t140 -403q0 -283 -99 -506.5t-271 -337.5t-396 -114q-256 0 -399.5 147.5t-143.5 409.5zM434 537q0 -147 66.5 -222t187.5 -75t220.5 87t155.5 246t56 357q0 142 -65 219.5t-183 77.5q-121 0 -222 -91.5 t-158.5 -251.5t-57.5 -347zM585 1720q0 78 42.5 118t119.5 40q133 0 133 -108q0 -73 -39 -116.5t-121 -43.5q-135 0 -135 110zM987 1720q0 78 42 118t120 40q65 0 99 -28t34 -80q0 -73 -39.5 -116.5t-120.5 -43.5q-135 0 -135 110z" horiz-adv-x="1495" unicode="Ӧ"/><glyph d="M90 410q0 213 71.5 379.5t206.5 258t316 91.5q196 0 310 -118t114 -325q0 -211 -70.5 -374t-203.5 -252.5t-316 -89.5q-195 0 -311.5 117.5t-116.5 312.5zM393 410q0 -185 150 -185q75 0 135 61.5t93.5 171t33.5 238.5q0 197 -143 197q-75 0 -134.5 -61t-97 -179 t-37.5 -243zM375 1382q0 78 42.5 118t119.5 40q133 0 133 -108q0 -73 -39 -116.5t-121 -43.5q-135 0 -135 110zM777 1382q0 78 42 118t120 40q65 0 99 -28t34 -80q0 -73 -39.5 -116.5t-120.5 -43.5q-135 0 -135 110z" horiz-adv-x="1198" unicode="ӧ"/><glyph d="M123 537q0 265 99 487.5t273 341.5t402 119q255 0 395 -144t140 -403q0 -283 -99 -506.5t-271 -337.5t-396 -114q-256 0 -399.5 147.5t-143.5 409.5zM432 537q0 -147 67.5 -222t188.5 -75q129 0 235 100.5t158 280.5h-645q-4 -28 -4 -84zM487 879h633l2 51q0 139 -65 218 t-185 79t-222 -91.5t-163 -256.5z" horiz-adv-x="1495" unicode="Ө"/><glyph d="M90 410q0 213 71.5 379.5t206.5 258t316 91.5q196 0 310 -118t114 -325q0 -211 -70.5 -374t-203.5 -252.5t-316 -89.5q-195 0 -311.5 117.5t-116.5 312.5zM387 408q0 -91 40 -140t116 -49q77 0 139 62t96 176h-389l-2 -29v-20zM428 668h383v28q0 100 -38 152.5t-111 52.5 q-75 0 -136.5 -61.5t-97.5 -171.5z" horiz-adv-x="1198" unicode="ө"/><glyph d="M123 537q0 265 99 487.5t273 341.5t402 119q255 0 395 -144t140 -403q0 -283 -99 -506.5t-271 -337.5t-396 -114q-256 0 -399.5 147.5t-143.5 409.5zM432 537q0 -147 67.5 -222t188.5 -75q129 0 235 100.5t158 280.5h-645q-4 -28 -4 -84zM487 879h633l2 51q0 139 -65 218 t-185 79t-222 -91.5t-163 -256.5zM585 1720q0 78 42.5 118t119.5 40q133 0 133 -108q0 -73 -39 -116.5t-121 -43.5q-135 0 -135 110zM987 1720q0 78 42 118t120 40q65 0 99 -28t34 -80q0 -73 -39.5 -116.5t-120.5 -43.5q-135 0 -135 110z" horiz-adv-x="1495" unicode="Ӫ"/><glyph d="M90 410q0 213 71.5 379.5t206.5 258t316 91.5q196 0 310 -118t114 -325q0 -211 -70.5 -374t-203.5 -252.5t-316 -89.5q-195 0 -311.5 117.5t-116.5 312.5zM387 408q0 -91 40 -140t116 -49q77 0 139 62t96 176h-389l-2 -29v-20zM428 668h383v28q0 100 -38 152.5t-111 52.5 q-75 0 -136.5 -61.5t-97.5 -171.5zM375 1382q0 78 42.5 118t119.5 40q133 0 133 -108q0 -73 -39 -116.5t-121 -43.5q-135 0 -135 110zM777 1382q0 78 42 118t120 40q65 0 99 -28t34 -80q0 -73 -39.5 -116.5t-120.5 -43.5q-135 0 -135 110z" horiz-adv-x="1198" unicode="ӫ"/><glyph d="M27 63v271q173 -96 362 -96q169 0 278 91.5t169 280.5h-539l53 254h527l2 25v26q0 312 -258 312q-65 0 -127.5 -13.5t-194.5 -64.5l-80 246q208 90 440 90q258 0 394.5 -146.5t136.5 -418.5q0 -268 -99 -489.5t-269.5 -336t-397.5 -114.5q-121 0 -217.5 18.5t-179.5 64.5 zM397 1720q0 78 42.5 118t119.5 40q133 0 133 -108q0 -73 -39 -116.5t-121 -43.5q-135 0 -135 110zM799 1720q0 78 42 118t120 40q65 0 99 -28t34 -80q0 -73 -39.5 -116.5t-120.5 -43.5q-135 0 -135 110z" horiz-adv-x="1253" unicode="Ӭ"/><glyph d="M31 35v252q52 -25 112 -44.5t138 -19.5q113 0 183 58.5t103 181.5h-372l43 203h356l2 19v20q0 91 -43.5 140.5t-124.5 49.5q-57 0 -103.5 -16t-103.5 -43l-80 221q164 82 348 82q195 0 302.5 -117t107.5 -332q0 -213 -72.5 -374t-210.5 -248.5t-329 -87.5q-152 0 -256 55 zM220 1382q0 78 42.5 118t119.5 40q133 0 133 -108q0 -73 -39 -116.5t-121 -43.5q-135 0 -135 110zM622 1382q0 78 42 118t120 40q65 0 99 -28t34 -80q0 -73 -39.5 -116.5t-120.5 -43.5q-135 0 -135 110z" horiz-adv-x="989" unicode="ӭ"/><glyph d="M31 12v267q81 -39 198 -39q48 0 85 17t68.5 49.5t80.5 113.5l-285 1042h307l154 -631q23 -93 29 -151q46 110 67 149l344 633h334l-602 -1030q-132 -225 -205 -302t-159 -113.5t-205 -36.5q-124 0 -211 32zM494 1579l45 211h619l-45 -211h-619z" horiz-adv-x="1225" unicode="Ӯ"/><glyph d="M-141 -233q68 -13 116 -13q84 0 147.5 48t117.5 149l26 49l-164 1118h295l56 -518q14 -122 14 -293h6q20 51 44 119.5t65 153.5l260 538h327l-680 -1278q-177 -332 -483 -332q-90 0 -147 19v240zM333 1241l45 211h619l-45 -211h-619z" horiz-adv-x="1063" unicode="ӯ"/><glyph d="M31 12v267q81 -39 198 -39q48 0 85 17t68.5 49.5t80.5 113.5l-285 1042h307l154 -631q23 -93 29 -151q46 110 67 149l344 633h334l-602 -1030q-132 -225 -205 -302t-159 -113.5t-205 -36.5q-124 0 -211 32zM446 1720q0 78 42.5 118t119.5 40q133 0 133 -108 q0 -73 -39 -116.5t-121 -43.5q-135 0 -135 110zM848 1720q0 78 42 118t120 40q65 0 99 -28t34 -80q0 -73 -39.5 -116.5t-120.5 -43.5q-135 0 -135 110z" horiz-adv-x="1225" unicode="Ӱ"/><glyph d="M-141 -233q68 -13 116 -13q84 0 147.5 48t117.5 149l26 49l-164 1118h295l56 -518q14 -122 14 -293h6q20 51 44 119.5t65 153.5l260 538h327l-680 -1278q-177 -332 -483 -332q-90 0 -147 19v240zM302 1382q0 78 42.5 118t119.5 40q133 0 133 -108q0 -73 -39 -116.5 t-121 -43.5q-135 0 -135 110zM704 1382q0 78 42 118t120 40q65 0 99 -28t34 -80q0 -73 -39.5 -116.5t-120.5 -43.5q-135 0 -135 110z" horiz-adv-x="1063" unicode="ӱ"/><glyph d="M31 12v267q81 -39 198 -39q48 0 85 17t68.5 49.5t80.5 113.5l-285 1042h307l154 -631q23 -93 29 -151q46 110 67 149l344 633h334l-602 -1030q-132 -225 -205 -302t-159 -113.5t-205 -36.5q-124 0 -211 32zM476 1579v25q114 128 231 303h305v-17q-43 -53 -152.5 -147.5 t-205.5 -163.5h-178zM873 1579v25q114 128 231 303h305v-17q-43 -53 -152.5 -147.5t-205.5 -163.5h-178z" horiz-adv-x="1225" unicode="Ӳ"/></font>
</defs>
</svg>
