<svg xmlns="http://www.w3.org/2000/svg"><metadata>This is a custom SVG webfont generated by Font Squirrel. Copyright : Digitized data copyright 2011 Google Corporation Foundry : Ascender Corporation Foundry URL : httpwwwascendercorpcom</metadata><defs><font id="OpenSansSemibold" horiz-adv-x="1169"><font-face ascent="1638" descent="-410" units-per-em="2048"/><glyph d="M35 928v110l182 72v72q0 196 92 290.5t281 94.5q124 0 244 -41l-62 -178q-87 28 -166 28q-80 0 -116.5 -49.5t-36.5 -148.5v-72h270v-178h-270v-928h-236v928h-182zM778 928v110l182 72v72q0 196 92 290.5t281 94.5q124 0 244 -41l-62 -178q-87 28 -166 28 q-80 0 -116.5 -49.5t-36.5 -148.5v-72h270v-178h-270v-928h-236v928h-182z" horiz-adv-x="1487" unicode="ﬀ"/><glyph d="M35 928v110l182 72v72q0 196 92 290.5t281 94.5q124 0 244 -41l-62 -178q-87 28 -166 28q-80 0 -116.5 -49.5t-36.5 -148.5v-72h270v-178h-270v-928h-236v928h-182zM897 1399q0 63 34.5 97t98.5 34q62 0 96.5 -34t34.5 -97q0 -60 -34.5 -94.5t-96.5 -34.5 q-64 0 -98.5 34.5t-34.5 94.5zM911 0v1106h235v-1106h-235z" horiz-adv-x="1315" unicode="ﬁ"/><glyph d="M35 928v110l182 72v72q0 196 92 290.5t281 94.5q124 0 244 -41l-62 -178q-87 28 -166 28q-80 0 -116.5 -49.5t-36.5 -148.5v-72h270v-178h-270v-928h-236v928h-182zM911 0v1556h235v-1556h-235z" horiz-adv-x="1315" unicode="ﬂ"/><glyph d="M35 928v110l182 72v72q0 196 92 290.5t281 94.5q124 0 244 -41l-62 -178q-87 28 -166 28q-80 0 -116.5 -49.5t-36.5 -148.5v-72h270v-178h-270v-928h-236v928h-182zM778 928v110l182 72v72q0 196 92 290.5t281 94.5q124 0 244 -41l-62 -178q-87 28 -166 28 q-80 0 -116.5 -49.5t-36.5 -148.5v-72h270v-178h-270v-928h-236v928h-182zM1641 1399q0 63 34.5 97t98.5 34q62 0 96.5 -34t34.5 -97q0 -60 -34.5 -94.5t-96.5 -34.5q-64 0 -98.5 34.5t-34.5 94.5zM1655 0v1106h235v-1106h-235z" horiz-adv-x="2058" unicode="ﬃ"/><glyph d="M35 928v110l182 72v72q0 196 92 290.5t281 94.5q124 0 244 -41l-62 -178q-87 28 -166 28q-80 0 -116.5 -49.5t-36.5 -148.5v-72h270v-178h-270v-928h-236v928h-182zM778 928v110l182 72v72q0 196 92 290.5t281 94.5q124 0 244 -41l-62 -178q-87 28 -166 28 q-80 0 -116.5 -49.5t-36.5 -148.5v-72h270v-178h-270v-928h-236v928h-182zM1655 0v1556h235v-1556h-235z" horiz-adv-x="2058" unicode="ﬄ"/><glyph horiz-adv-x="532"/><glyph horiz-adv-x="532"/><glyph horiz-adv-x="532"/><glyph d="M133 125q0 74 39 112.5t111 38.5q71 0 109 -40t38 -111t-38.5 -112.5t-108.5 -41.5q-71 0 -110.5 40t-39.5 114zM145 1462h277l-51 -1018h-174z" horiz-adv-x="565" unicode="!"/><glyph d="M133 1462h232l-41 -528h-150zM528 1462h232l-41 -528h-150z" horiz-adv-x="893" unicode="&quot;"/><glyph d="M47 418v168h283l57 284h-264v168h293l80 422h180l-80 -422h252l80 422h174l-80 -422h252v-168h-285l-55 -284h270v-168h-303l-80 -418h-178l80 418h-248l-80 -418h-174l76 418h-250zM506 586h250l57 284h-250z" horiz-adv-x="1323" unicode="#"/><glyph d="M111 168v211q86 -42 201 -70.5t206 -29.5v374l-84 31q-164 63 -239.5 150.5t-75.5 216.5q0 138 107.5 227t291.5 108v168h133v-165q203 -7 385 -82l-73 -183q-157 62 -312 74v-364l76 -29q190 -73 263 -154t73 -198q0 -145 -106 -239t-306 -116v-217h-133v211 q-248 4 -407 76zM354 1053q0 -57 35.5 -95t128.5 -75v311q-80 -12 -122 -49t-42 -92zM651 287q176 27 176 151q0 58 -40.5 95.5t-135.5 72.5v-319z" unicode="$"/><glyph d="M84 1026q0 457 319 457q157 0 241.5 -118.5t84.5 -338.5q0 -230 -82.5 -345.5t-243.5 -115.5q-152 0 -235.5 119.5t-83.5 341.5zM279 1024q0 -149 29 -222t95 -73q132 0 132 295t-132 295q-66 0 -95 -73t-29 -222zM379 0l811 1462h194l-811 -1462h-194zM1036 440 q0 457 320 457q154 0 239.5 -118t85.5 -339q0 -230 -83 -345t-242 -115q-152 0 -236 118.5t-84 341.5zM1231 440q0 -149 29.5 -223t95.5 -74q131 0 131 297q0 293 -131 293q-66 0 -95.5 -72t-29.5 -221z" horiz-adv-x="1765" unicode="%"/><glyph d="M96 387q0 131 64 228.5t231 193.5q-95 111 -129.5 187.5t-34.5 158.5q0 152 108.5 240t291.5 88q177 0 278 -85.5t101 -230.5q0 -114 -67.5 -207t-225.5 -186l346 -334q81 107 135 314h242q-70 -284 -224 -463l301 -291h-303l-149 145q-102 -82 -217.5 -123.5 t-255.5 -41.5q-230 0 -361 109t-131 298zM344 403q0 -98 69.5 -159.5t186.5 -61.5q183 0 313 107l-383 377q-106 -68 -146 -127.5t-40 -135.5zM451 1147q0 -63 33.5 -119t93.5 -119q113 64 158.5 119.5t45.5 124.5q0 65 -43.5 104t-115.5 39q-79 0 -125.5 -40.5 t-46.5 -108.5z" horiz-adv-x="1516" unicode="&amp;"/><glyph d="M133 1462h232l-41 -528h-150z" horiz-adv-x="498" unicode="'"/><glyph d="M82 561q0 265 77.5 496t223.5 405h205q-139 -188 -213 -421.5t-74 -477.5t74 -473t211 -414h-203q-147 170 -224 397t-77 488z" horiz-adv-x="649" unicode="("/><glyph d="M61 1462h205q147 -175 224 -406.5t77 -494.5t-77.5 -490t-223.5 -395h-203q138 187 211.5 415t73.5 472q0 245 -74 477.5t-213 421.5z" horiz-adv-x="649" unicode=")"/><glyph d="M74 1065l35 217l376 -108l-41 382h228l-41 -382l385 108l28 -217l-360 -29l236 -311l-199 -107l-166 338l-149 -338l-205 107l231 311z" horiz-adv-x="1122" unicode="*"/><glyph d="M96 633v178h398v408h180v-408h399v-178h-399v-406h-180v406h-398z" unicode="+"/><glyph d="M63 -264q69 270 103 502h231l15 -23q-48 -186 -176 -479h-173z" horiz-adv-x="547" unicode=","/><glyph d="M72 449v200h514v-200h-514z" horiz-adv-x="659" unicode="-"/><glyph d="M133 125q0 73 38 112t110 39q73 0 111 -40.5t38 -110.5q0 -71 -38.5 -112.5t-110.5 -41.5t-110 41t-38 113z" horiz-adv-x="563" unicode="."/><glyph d="M16 0l545 1462h221l-544 -1462h-222z" horiz-adv-x="799" unicode="/"/><glyph d="M88 731q0 387 122.5 570.5t373.5 183.5q245 0 371 -192t126 -562q0 -381 -122.5 -566t-374.5 -185q-244 0 -370 191t-126 560zM326 731q0 -299 61.5 -427t196.5 -128t197.5 130t62.5 425q0 294 -62.5 425.5t-197.5 131.5t-196.5 -129t-61.5 -428z" unicode="0"/><glyph d="M154 1124l430 338h196v-1462h-235v944q0 169 8 268q-23 -24 -56.5 -53t-224.5 -184z" unicode="1"/><glyph d="M90 0v178l377 379q167 171 221.5 242.5t79.5 134.5t25 135q0 99 -59.5 156t-164.5 57q-84 0 -162.5 -31t-181.5 -112l-127 155q122 103 237 146t245 43q204 0 327 -106.5t123 -286.5q0 -99 -35.5 -188t-109 -183.5t-244.5 -255.5l-254 -246v-10h694v-207h-991z" unicode="2"/><glyph d="M86 59v209q93 -46 197 -71t200 -25q170 0 254 63t84 195q0 117 -93 172t-292 55h-127v191h129q350 0 350 242q0 94 -61 145t-180 51q-83 0 -160 -23.5t-182 -91.5l-115 164q201 148 467 148q221 0 345 -95t124 -262q0 -139 -81 -231.5t-228 -124.5v-8q176 -22 264 -109.5 t88 -232.5q0 -211 -149 -325.5t-424 -114.5q-243 0 -410 79z" unicode="3"/><glyph d="M39 319v181l668 966h229v-952h197v-195h-197v-319h-229v319h-668zM258 514h449v367q0 196 10 321h-8q-28 -66 -88 -160z" unicode="4"/><glyph d="M117 59v213q81 -46 186 -71t195 -25q159 0 242 71t83 208q0 262 -334 262q-47 0 -116 -9.5t-121 -21.5l-105 62l56 714h760v-209h-553l-33 -362q35 6 85.5 14t123.5 8q221 0 350 -117t129 -319q0 -234 -146.5 -365.5t-416.5 -131.5q-245 0 -385 79z" unicode="5"/><glyph d="M94 623q0 858 699 858q110 0 186 -17v-196q-76 22 -176 22q-235 0 -353 -126t-128 -404h12q47 81 132 125.5t200 44.5q199 0 310 -122t111 -331q0 -230 -128.5 -363.5t-350.5 -133.5q-157 0 -273 75.5t-178.5 220t-62.5 347.5zM332 508q0 -141 76.5 -237.5t195.5 -96.5 q121 0 186.5 78t65.5 223q0 126 -61.5 198t-184.5 72q-76 0 -140 -32.5t-101 -89t-37 -115.5z" unicode="6"/><glyph d="M74 1253v207h1011v-164l-575 -1296h-254l578 1253h-760z" unicode="7"/><glyph d="M88 371q0 122 68.5 219.5t224.5 173.5q-134 80 -191 169t-57 200q0 159 125 253.5t326 94.5q208 0 329 -95.5t121 -255.5q0 -225 -270 -358q172 -86 244.5 -181t72.5 -212q0 -181 -133 -290t-360 -109q-238 0 -369 102t-131 289zM313 379q0 -104 73 -161.5t198 -57.5 q129 0 200.5 59.5t71.5 161.5q0 81 -66 148t-200 124l-29 13q-132 -58 -190 -127.5t-58 -159.5zM360 1116q0 -52 22 -93t64 -74.5t142 -80.5q120 53 169.5 111.5t49.5 136.5q0 85 -61.5 134.5t-163.5 49.5q-100 0 -161 -49.5t-61 -134.5z" unicode="8"/><glyph d="M86 981q0 229 128.5 364.5t350.5 135.5q156 0 272 -76t179 -220.5t63 -346.5q0 -432 -174 -645t-524 -213q-133 0 -191 16v197q89 -25 179 -25q238 0 355 128t128 402h-12q-59 -90 -142.5 -130t-195.5 -40q-194 0 -305 121t-111 332zM317 983q0 -125 60.5 -196.5 t183.5 -71.5q119 0 200 71t81 166q0 89 -34.5 166.5t-96.5 122.5t-142 45q-122 0 -187 -79.5t-65 -223.5z" unicode="9"/><glyph d="M133 125q0 73 38 112t110 39q73 0 111 -40.5t38 -110.5q0 -71 -38.5 -112.5t-110.5 -41.5t-110 41t-38 113zM133 979q0 151 148 151q75 0 112 -40t37 -111t-38.5 -112.5t-110.5 -41.5t-110 41t-38 113z" horiz-adv-x="563" unicode=":"/><glyph d="M63 -264q69 270 103 502h231l15 -23q-48 -186 -176 -479h-173zM131 979q0 151 148 151q75 0 112 -40t37 -111t-38.5 -112.5t-110.5 -41.5t-110 41t-38 113z" horiz-adv-x="569" unicode=";"/><glyph d="M96 651v121l977 488v-195l-733 -344l733 -303v-197z" unicode="&lt;"/><glyph d="M102 432v178h963v-178h-963zM102 831v179h963v-179h-963z" unicode="="/><glyph d="M96 221v197l733 303l-733 344v195l977 -488v-121z" unicode="&gt;"/><glyph d="M16 1370q203 113 435 113q196 0 311 -96t115 -265q0 -75 -22 -133.5t-66.5 -111.5t-153.5 -138q-93 -73 -124.5 -121t-31.5 -129v-45h-196v64q0 110 40 183t140 151q119 94 153.5 146t34.5 124q0 84 -56 129t-161 45q-95 0 -176 -27t-158 -65zM242 125q0 151 147 151 q72 0 110 -39.5t38 -111.5q0 -71 -38.5 -112.5t-109.5 -41.5t-109 40.5t-38 113.5z" horiz-adv-x="928" unicode="?"/><glyph d="M111 586q0 261 112 464.5t310.5 311.5t449.5 108q217 0 386.5 -90t263 -256.5t93.5 -384.5q0 -143 -45 -261.5t-126.5 -184.5t-188.5 -66q-79 0 -137 42t-78 114h-12q-49 -78 -121 -117t-162 -39q-163 0 -256.5 105t-93.5 284q0 206 124 334.5t333 128.5 q76 0 168.5 -13.5t164.5 -37.5l-22 -465v-24q0 -160 104 -160q79 0 125.5 102t46.5 260q0 171 -70 300.5t-199 199.5t-296 70q-213 0 -370.5 -88t-240.5 -251.5t-83 -379.5q0 -290 155 -446t445 -156q221 0 461 90v-164q-210 -86 -457 -86q-370 0 -577 199.5t-207 556.5z M698 612q0 -233 183 -233q193 0 211 293l12 239q-63 17 -135 17q-128 0 -199.5 -85t-71.5 -231z" horiz-adv-x="1839" unicode="@"/><glyph d="M0 0l547 1468h260l547 -1468h-254l-146 406h-559l-143 -406h-252zM465 612h426l-137 398q-15 40 -41.5 126t-36.5 126q-27 -123 -79 -269z" horiz-adv-x="1354" unicode="A"/><glyph d="M193 0v1462h434q302 0 436.5 -88t134.5 -278q0 -128 -66 -213t-190 -107v-10q154 -29 226.5 -114.5t72.5 -231.5q0 -197 -137.5 -308.5t-382.5 -111.5h-528zM432 201h254q150 0 226.5 57.5t76.5 181.5q0 114 -78 169t-237 55h-242v-463zM432 858h230q150 0 219 47.5 t69 161.5q0 103 -74.5 149t-236.5 46h-207v-404z" horiz-adv-x="1352" unicode="B"/><glyph d="M121 731q0 228 83.5 399t241.5 262t371 91q224 0 414 -94l-86 -199q-74 35 -156.5 61.5t-173.5 26.5q-206 0 -324 -146t-118 -403q0 -269 113.5 -407t328.5 -138q93 0 180 18.5t181 47.5v-205q-172 -65 -390 -65q-321 0 -493 194.5t-172 556.5z" horiz-adv-x="1298" unicode="C"/><glyph d="M193 0v1462h452q349 0 543 -188t194 -529q0 -362 -201 -553.5t-579 -191.5h-409zM432 201h170q528 0 528 536q0 525 -491 525h-207v-1061z" horiz-adv-x="1503" unicode="D"/><glyph d="M193 0v1462h827v-202h-588v-398h551v-200h-551v-459h588v-203h-827z" horiz-adv-x="1143" unicode="E"/><glyph d="M193 0v1462h825v-202h-588v-457h551v-203h-551v-600h-237z" horiz-adv-x="1090" unicode="F"/><glyph d="M121 731q0 353 203 552.5t559 199.5q229 0 434 -88l-84 -199q-178 82 -356 82q-234 0 -370 -147t-136 -402q0 -268 122.5 -407.5t352.5 -139.5q116 0 248 29v377h-303v205h538v-734q-132 -43 -253.5 -61t-262.5 -18q-332 0 -512 196.5t-180 554.5z" horiz-adv-x="1487" unicode="G"/><glyph d="M193 0v1462h239v-598h674v598h240v-1462h-240v659h-674v-659h-239z" horiz-adv-x="1538" unicode="H"/><glyph d="M193 0v1462h239v-1462h-239z" horiz-adv-x="625" unicode="I"/><glyph d="M-156 -182q84 -21 146 -21q196 0 196 248v1417h240v-1409q0 -224 -106.5 -342.5t-311.5 -118.5q-98 0 -164 25v201z" horiz-adv-x="612" unicode="J"/><glyph d="M193 0v1462h239v-698q98 120 195 231l395 467h272q-383 -450 -549 -641l564 -821h-277l-459 662l-141 -115v-547h-239z" horiz-adv-x="1309" unicode="K"/><glyph d="M193 0v1462h239v-1257h619v-205h-858z" horiz-adv-x="1110" unicode="L"/><glyph d="M193 0v1462h337l406 -1163h6l418 1163h338v-1462h-230v723q0 109 5.5 284t9.5 212h-8l-439 -1219h-211l-424 1221h-8q17 -272 17 -510v-711h-217z" horiz-adv-x="1890" unicode="M"/><glyph d="M193 0v1462h290l717 -1159h6q-2 23 -8 167.5t-6 225.5v766h219v-1462h-293l-719 1165h-8l5 -65q14 -186 14 -340v-760h-217z" horiz-adv-x="1604" unicode="N"/><glyph d="M121 735q0 362 178.5 556t509.5 194q326 0 504 -197t178 -555q0 -357 -178.5 -555t-505.5 -198q-331 0 -508.5 196.5t-177.5 558.5zM375 733q0 -270 109 -409.5t323 -139.5q213 0 321.5 138t108.5 411q0 269 -107.5 408t-320.5 139q-215 0 -324.5 -139t-109.5 -408z" horiz-adv-x="1612" unicode="O"/><glyph d="M193 0v1462h421q274 0 410.5 -112t136.5 -330q0 -229 -150 -351t-427 -122h-152v-547h-239zM432 748h127q184 0 270 64t86 200q0 126 -77 188t-240 62h-166v-514z" horiz-adv-x="1260" unicode="P"/><glyph d="M121 735q0 362 178.5 556t509.5 194q326 0 504 -197t178 -555q0 -266 -101.5 -448t-295.5 -256l350 -377h-322l-276 328h-39q-331 0 -508.5 196.5t-177.5 558.5zM375 733q0 -270 109 -409.5t323 -139.5q213 0 321.5 138t108.5 411q0 269 -107.5 408t-320.5 139 q-215 0 -324.5 -139t-109.5 -408z" horiz-adv-x="1612" unicode="Q"/><glyph d="M193 0v1462h413q283 0 419 -106t136 -320q0 -273 -284 -389l413 -647h-272l-350 584h-236v-584h-239zM432 782h166q167 0 242 62t75 184q0 124 -81 178t-244 54h-158v-478z" horiz-adv-x="1309" unicode="R"/><glyph d="M100 57v226q100 -47 212.5 -74t209.5 -27q142 0 209.5 54t67.5 145q0 82 -62 139t-256 135q-200 81 -282 185t-82 250q0 183 130 288t349 105q210 0 418 -92l-76 -195q-195 82 -348 82q-116 0 -176 -50.5t-60 -133.5q0 -57 24 -97.5t79 -76.5t198 -95q161 -67 236 -125 t110 -131t35 -172q0 -195 -141 -306t-389 -111t-406 77z" horiz-adv-x="1126" unicode="S"/><glyph d="M29 1257v205h1099v-205h-430v-1257h-239v1257h-430z" horiz-adv-x="1159" unicode="T"/><glyph d="M180 520v942h240v-925q0 -181 84 -267t258 -86q338 0 338 355v923h239v-946q0 -162 -69.5 -283.5t-201 -187t-314.5 -65.5q-272 0 -423 144t-151 396z" horiz-adv-x="1520" unicode="U"/><glyph d="M0 1462h246l305 -909q24 -65 51 -167.5t35 -152.5q13 76 40 176t44 148l305 905h248l-512 -1462h-252z" horiz-adv-x="1274" unicode="V"/><glyph d="M12 1462h244l209 -852q49 -205 70 -362q11 85 33 190t40 170l238 854h237l244 -858q35 -119 74 -356q15 143 72 364l208 850h242l-381 -1462h-260l-248 872q-16 57 -40 164.5t-29 149.5q-10 -64 -32.5 -166t-37.5 -152l-242 -868h-260l-189 732z" horiz-adv-x="1937" unicode="W"/><glyph d="M4 0l485 758l-454 704h266l338 -553l338 553h258l-457 -708l492 -754h-275l-366 598l-369 -598h-256z" horiz-adv-x="1274" unicode="X"/><glyph d="M0 1462h260l346 -667l346 667h260l-487 -895v-567h-240v559z" horiz-adv-x="1212" unicode="Y"/><glyph d="M66 0v166l737 1091h-717v205h1006v-168l-740 -1089h760v-205h-1046z" horiz-adv-x="1178" unicode="Z"/><glyph d="M154 -324v1786h471v-176h-256v-1433h256v-177h-471z" horiz-adv-x="676" unicode="["/><glyph d="M16 1462h222l544 -1462h-221z" horiz-adv-x="799" unicode="\"/><glyph d="M51 -147h256v1433h-256v176h469v-1786h-469v177z" horiz-adv-x="676" unicode="]"/><glyph d="M29 535l436 935h121l485 -935h-194l-349 694l-307 -694h-192z" horiz-adv-x="1100" unicode="^"/><glyph d="M-4 -184h887v-135h-887v135z" horiz-adv-x="879" unicode="_"/><glyph d="M362 1548v21h273q38 -70 103.5 -161t109.5 -142v-25h-158q-69 52 -174.5 150.5t-153.5 156.5z" horiz-adv-x="1212" unicode="`"/><glyph d="M90 317q0 171 127 258t387 95l191 6v59q0 106 -49.5 158.5t-153.5 52.5q-85 0 -163 -25t-150 -59l-76 168q90 47 197 71.5t202 24.5q211 0 318.5 -92t107.5 -289v-745h-168l-47 154h-8q-80 -101 -161 -137.5t-208 -36.5q-163 0 -254.5 88t-91.5 249zM334 315 q0 -74 44 -114.5t132 -40.5q128 0 205.5 71.5t77.5 200.5v96l-142 -6q-166 -6 -241.5 -55.5t-75.5 -151.5z" horiz-adv-x="1188" unicode="a"/><glyph d="M168 0v1556h235v-370q0 -41 -4 -122t-6 -103h10q112 165 330 165q207 0 322.5 -150t115.5 -421q0 -272 -117 -423.5t-325 -151.5q-210 0 -326 151h-16l-43 -131h-176zM403 555q0 -202 64 -292.5t209 -90.5q125 0 189.5 99t64.5 286q0 377 -258 377q-142 0 -204.5 -83.5 t-64.5 -279.5v-16z" horiz-adv-x="1276" unicode="b"/><glyph d="M102 547q0 279 136.5 429t394.5 150q175 0 315 -65l-71 -189q-149 58 -246 58q-287 0 -287 -381q0 -186 71.5 -279.5t209.5 -93.5q157 0 297 78v-205q-63 -37 -134.5 -53t-173.5 -16q-251 0 -381.5 146.5t-130.5 420.5z" horiz-adv-x="1014" unicode="c"/><glyph d="M102 551q0 272 117.5 423.5t325.5 151.5q218 0 332 -161h12q-17 119 -17 188v403h236v-1556h-184l-41 145h-11q-113 -165 -331 -165q-207 0 -323 150t-116 421zM344 547q0 -184 65 -280.5t195 -96.5q145 0 211 81.5t68 264.5v33q0 209 -68 297t-213 88 q-124 0 -191 -100.5t-67 -286.5z" horiz-adv-x="1276" unicode="d"/><glyph d="M102 545q0 271 135 426t371 155q219 0 346 -133t127 -366v-127h-737q5 -161 87 -247.5t231 -86.5q98 0 182.5 18.5t181.5 61.5v-191q-86 -41 -174 -58t-201 -17q-258 0 -403.5 150.5t-145.5 414.5zM348 670h502q-2 137 -66 207.5t-176 70.5t-179.5 -71t-80.5 -207z" horiz-adv-x="1180" unicode="e"/><glyph d="M35 928v110l182 72v72q0 196 92 290.5t281 94.5q124 0 244 -41l-62 -178q-87 28 -166 28q-80 0 -116.5 -49.5t-36.5 -148.5v-72h270v-178h-270v-928h-236v928h-182z" horiz-adv-x="743" unicode="f"/><glyph d="M23 -184q0 102 64.5 171.5t180.5 96.5q-47 20 -77.5 64.5t-30.5 93.5q0 62 35 105t104 85q-86 37 -139.5 120.5t-53.5 195.5q0 180 113.5 279t323.5 99q47 0 98.5 -6.5t77.5 -13.5h383v-129l-189 -35q26 -35 43 -86t17 -108q0 -171 -118 -269t-325 -98q-53 0 -96 8 q-76 -47 -76 -110q0 -38 35.5 -57t130.5 -19h193q183 0 278 -78t95 -225q0 -188 -155 -290t-448 -102q-226 0 -345 80t-119 228zM233 -172q0 -76 68.5 -117t192.5 -41q192 0 286 55t94 146q0 72 -51.5 102.5t-191.5 30.5h-178q-101 0 -160.5 -47.5t-59.5 -128.5zM334 748 q0 -104 53.5 -160t153.5 -56q204 0 204 218q0 108 -50.5 166.5t-153.5 58.5q-102 0 -154.5 -58t-52.5 -169z" horiz-adv-x="1139" unicode="g"/><glyph d="M168 0v1556h235v-395q0 -95 -12 -203h15q48 80 133.5 124t199.5 44q402 0 402 -405v-721h-236v680q0 128 -51.5 191t-163.5 63q-148 0 -217.5 -88.5t-69.5 -296.5v-549h-235z" horiz-adv-x="1300" unicode="h"/><glyph d="M154 1399q0 63 34.5 97t98.5 34q62 0 96.5 -34t34.5 -97q0 -60 -34.5 -94.5t-96.5 -34.5q-64 0 -98.5 34.5t-34.5 94.5zM168 0v1106h235v-1106h-235z" horiz-adv-x="571" unicode="i"/><glyph d="M-121 -281q68 -18 139 -18q150 0 150 170v1235h235v-1251q0 -171 -89.5 -259t-258.5 -88q-106 0 -176 25v186zM154 1399q0 63 34.5 97t98.5 34q62 0 96.5 -34t34.5 -97q0 -60 -34.5 -94.5t-96.5 -34.5q-64 0 -98.5 34.5t-34.5 94.5z" horiz-adv-x="571" unicode="j"/><glyph d="M168 0v1556h233v-759l-12 -213h6l133 166l334 356h271l-445 -475l473 -631h-276l-355 485l-129 -106v-379h-233z" horiz-adv-x="1171" unicode="k"/><glyph d="M168 0v1556h235v-1556h-235z" horiz-adv-x="571" unicode="l"/><glyph d="M168 0v1106h184l33 -145h12q46 79 133.5 122t192.5 43q255 0 338 -174h16q49 82 138 128t204 46q198 0 288.5 -100t90.5 -305v-721h-235v682q0 127 -48.5 189.5t-150.5 62.5q-137 0 -200.5 -85.5t-63.5 -262.5v-586h-236v682q0 127 -48 189.5t-150 62.5 q-136 0 -199.5 -88.5t-63.5 -294.5v-551h-235z" horiz-adv-x="1958" unicode="m"/><glyph d="M168 0v1106h184l33 -145h12q50 79 142 122t204 43q398 0 398 -405v-721h-236v680q0 128 -51.5 191t-163.5 63q-149 0 -218 -88t-69 -295v-551h-235z" horiz-adv-x="1300" unicode="n"/><glyph d="M102 555q0 269 138 420t389 151q240 0 380 -154.5t140 -416.5q0 -271 -139 -423t-387 -152q-155 0 -274 70t-183 201t-64 304zM344 555q0 -383 283 -383q280 0 280 383q0 379 -282 379q-148 0 -214.5 -98t-66.5 -281z" horiz-adv-x="1251" unicode="o"/><glyph d="M168 -492v1598h190q8 -31 33 -148h12q110 168 330 168q207 0 322.5 -150t115.5 -421t-117.5 -423t-324.5 -152q-210 0 -326 151h-14q14 -140 14 -170v-453h-235zM403 555q0 -202 64 -292.5t209 -90.5q122 0 188 100t66 285q0 186 -65.5 281.5t-192.5 95.5 q-140 0 -204.5 -82t-64.5 -262v-35z" horiz-adv-x="1276" unicode="p"/><glyph d="M102 551q0 270 118 422.5t325 152.5q104 0 186.5 -38.5t147.5 -126.5h8l26 145h195v-1598h-236v469q0 44 4 93t7 75h-13q-104 -165 -331 -165q-205 0 -321 150.5t-116 420.5zM344 547q0 -379 262 -379q148 0 212.5 85.5t64.5 258.5v37q0 205 -66.5 295t-214.5 90 q-126 0 -192 -100t-66 -287z" horiz-adv-x="1276" unicode="q"/><glyph d="M168 0v1106h184l31 -195h12q55 99 143.5 157t190.5 58q71 0 117 -10l-23 -219q-50 12 -104 12q-141 0 -228.5 -92t-87.5 -239v-578h-235z" horiz-adv-x="883" unicode="r"/><glyph d="M98 827q0 142 114.5 220.5t311.5 78.5q195 0 369 -79l-76 -177q-179 74 -301 74q-186 0 -186 -106q0 -52 48.5 -88t211.5 -99q137 -53 199 -97t92 -101.5t30 -137.5q0 -162 -118 -248.5t-338 -86.5q-221 0 -355 67v203q195 -90 363 -90q217 0 217 131q0 42 -24 70t-79 58 t-153 68q-191 74 -258.5 148t-67.5 192z" horiz-adv-x="997" unicode="s"/><glyph d="M39 928v104l162 86l80 234h145v-246h315v-178h-315v-592q0 -85 42.5 -125.5t111.5 -40.5q86 0 172 27v-177q-39 -17 -100.5 -28.5t-127.5 -11.5q-334 0 -334 352v596h-151z" horiz-adv-x="805" unicode="t"/><glyph d="M158 383v723h237v-682q0 -127 52 -190.5t163 -63.5q148 0 217.5 88.5t69.5 296.5v551h236v-1106h-185l-33 145h-12q-49 -77 -139.5 -121t-206.5 -44q-201 0 -300 100t-99 303z" horiz-adv-x="1300" unicode="u"/><glyph d="M0 1106h248l225 -643q58 -162 70 -262h8q9 72 70 262l225 643h250l-422 -1106h-254z" horiz-adv-x="1096" unicode="v"/><glyph d="M20 1106h240l141 -545q48 -202 68 -346h6q10 73 30.5 167.5t35.5 141.5l168 582h258l163 -582q15 -49 37.5 -150t26.5 -157h8q15 123 70 344l143 545h236l-312 -1106h-264l-143 516q-26 82 -94 381h-9q-58 -270 -92 -383l-147 -514h-260z" horiz-adv-x="1673" unicode="w"/><glyph d="M25 0l389 565l-371 541h268l252 -387l254 387h266l-372 -541l391 -565h-266l-273 414l-272 -414h-266z" horiz-adv-x="1128" unicode="x"/><glyph d="M0 1106h256l225 -627q51 -134 68 -252h8q9 55 33 133.5t254 745.5h254l-473 -1253q-129 -345 -430 -345q-78 0 -152 17v186q53 -12 121 -12q170 0 239 197l41 104z" horiz-adv-x="1098" unicode="y"/><glyph d="M68 0v145l559 781h-525v180h789v-164l-547 -762h563v-180h-839z" horiz-adv-x="979" unicode="z"/><glyph d="M45 473v191q135 0 200.5 45.5t65.5 138.5v311q0 156 108.5 229.5t325.5 73.5v-182q-114 -5 -165.5 -46.5t-51.5 -123.5v-297q0 -199 -229 -238v-12q229 -36 229 -237v-299q0 -82 51 -124t166 -44v-183q-231 2 -332.5 78.5t-101.5 247.5v285q0 186 -266 186z" horiz-adv-x="791" unicode="{"/><glyph d="M473 -481v2033h180v-2033h-180z" horiz-adv-x="1128" unicode="|"/><glyph d="M45 -141q95 1 148 38.5t53 129.5v262q0 121 53 187t176 87v12q-229 39 -229 238v297q0 82 -45.5 123.5t-155.5 46.5v182q223 0 320.5 -76.5t97.5 -250.5v-287q0 -100 63.5 -142t188.5 -42v-191q-123 0 -187.5 -42.5t-64.5 -143.5v-307q0 -156 -99.5 -229t-318.5 -75v183z" horiz-adv-x="760" unicode="}"/><glyph d="M96 571v191q99 108 250 108q66 0 125 -13t147 -50q131 -55 220 -55q52 0 114.5 31t120.5 89v-190q-105 -111 -250 -111q-65 0 -127.5 15.5t-146.5 50.5q-127 55 -219 55q-50 0 -111.5 -30t-122.5 -91z" unicode="~"/><glyph d="M133 965q0 69 38 111t110 42t110.5 -40.5t38.5 -112.5q0 -74 -37.5 -113t-111.5 -39q-72 0 -110 39.5t-38 112.5zM141 -371l52 1016h174l51 -1016h-277z" horiz-adv-x="565" unicode="¡"/><glyph d="M166 741q0 254 100.5 397t306.5 175v170h158v-162q152 -5 283 -66l-70 -188q-146 59 -250 59q-146 0 -216 -95t-70 -288q0 -194 72 -283t210 -89q75 0 142.5 15t154.5 52v-200q-119 -59 -258 -64v-194h-156v200q-207 31 -307 171t-100 390z" unicode="¢"/><glyph d="M72 0v195q98 30 145 96t47 178v184h-188v172h188v256q0 188 113.5 294t312.5 106q194 0 375 -82l-76 -182q-162 71 -284 71q-205 0 -205 -219v-244h397v-172h-397v-182q0 -91 -33 -155t-113 -109h756v-207h-1038z" unicode="£"/><glyph d="M117 1069l121 119l131 -129q100 63 215 63t213 -65l133 131l121 -117l-131 -133q63 -100 63 -215q0 -119 -63 -217l129 -129l-119 -119l-133 129q-99 -61 -213 -61q-126 0 -215 61l-131 -127l-119 119l131 129q-64 99 -64 215q0 109 64 213zM354 723q0 -98 68 -164.5 t162 -66.5q97 0 165 66.5t68 164.5q0 97 -68 165t-165 68q-93 0 -161.5 -68t-68.5 -165z" unicode="¤"/><glyph d="M18 1462h246l320 -665l321 665h244l-399 -760h227v-151h-281v-154h281v-153h-281v-244h-225v244h-283v153h283v154h-283v151h224z" unicode="¥"/><glyph d="M473 315h180v-796h-180v796zM473 758v794h180v-794h-180z" horiz-adv-x="1128" unicode="¦"/><glyph d="M115 57v179q77 -40 173 -65.5t177 -25.5q235 0 235 131q0 43 -21 70t-71 54t-147 65q-141 55 -206 101.5t-95.5 105t-30.5 135.5q0 80 38.5 145.5t111.5 108.5q-146 83 -146 235q0 129 109.5 202t294.5 73q91 0 174 -17t182 -59l-68 -162q-116 50 -176 63t-121 13 q-194 0 -194 -109q0 -54 55 -93.5t191 -90.5q175 -68 250 -146.5t75 -187.5q0 -177 -139 -266q139 -80 139 -223q0 -142 -118 -224.5t-326 -82.5q-212 0 -346 71zM313 827q0 -45 24 -80t78.5 -69t194.5 -90q109 65 109 168q0 75 -62 126.5t-221 104.5q-54 -16 -88.5 -61.5 t-34.5 -98.5z" horiz-adv-x="1026" unicode="§"/><glyph d="M293 1399q0 62 33.5 89.5t81.5 27.5q53 0 84.5 -31t31.5 -86q0 -53 -32 -85t-84 -32q-48 0 -81.5 29t-33.5 88zM686 1399q0 62 33.5 89.5t81.5 27.5q53 0 85 -31t32 -86q0 -54 -33 -85.5t-84 -31.5q-48 0 -81.5 29t-33.5 88z" horiz-adv-x="1212" unicode="¨"/><glyph d="M100 731q0 200 100 375t275 276t377 101q200 0 375 -100t276 -275t101 -377q0 -197 -97 -370t-272 -277t-383 -104q-207 0 -382 103.5t-272.5 276.5t-97.5 371zM223 731q0 -170 84.5 -315.5t230.5 -229.5t314 -84q170 0 316 85.5t229.5 230t83.5 313.5q0 168 -84.5 314.5 t-231 230.5t-313.5 84q-168 0 -312.5 -83t-230.5 -229t-86 -317zM471 731q0 214 110 337.5t306 123.5q138 0 274 -70l-65 -143q-106 55 -203 55q-111 0 -171 -80.5t-60 -222.5q0 -147 54 -226t177 -79q55 0 118 15t109 36v-158q-115 -51 -235 -51q-197 0 -305.5 120.5 t-108.5 342.5z" horiz-adv-x="1704" unicode="©"/><glyph d="M57 981q0 104 84 159.5t252 61.5l107 4q0 72 -34.5 108t-103.5 36q-90 0 -210 -56l-54 115q144 70 285 70q138 0 207 -62.5t69 -187.5v-447h-112l-29 97q-46 -55 -105 -82t-130 -27q-113 0 -169.5 52.5t-56.5 158.5zM221 983q0 -88 96 -88q91 0 137 41t46 123v43l-99 -4 q-71 -2 -125.5 -34t-54.5 -81z" horiz-adv-x="754" unicode="ª"/><glyph d="M82 535v26l356 432l168 -94l-282 -350l282 -348l-168 -97zM532 535v26l357 432l168 -94l-283 -350l283 -348l-168 -97z" horiz-adv-x="1139" unicode="«"/><glyph d="M96 633v178h977v-555h-178v377h-799z" unicode="¬"/><glyph d="M72 449v200h514v-200h-514z" horiz-adv-x="659" unicode="­"/><glyph d="M100 731q0 200 100 375t275 276t377 101q200 0 375 -100t276 -275t101 -377q0 -197 -97 -370t-272 -277t-383 -104q-207 0 -382 103.5t-272.5 276.5t-97.5 371zM223 731q0 -170 84.5 -315.5t230.5 -229.5t314 -84q170 0 316 85.5t229.5 230t83.5 313.5q0 168 -84.5 314.5 t-231 230.5t-313.5 84q-168 0 -312.5 -83t-230.5 -229t-86 -317zM559 279v903h262q174 0 255 -68t81 -205q0 -171 -153 -233l237 -397h-211l-192 346h-90v-346h-189zM748 770h69q74 0 112 35t38 100q0 72 -36.5 100.5t-115.5 28.5h-67v-264z" horiz-adv-x="1704" unicode="®"/><glyph d="M-6 1556v164h1036v-164h-1036z" horiz-adv-x="1024" unicode="¯"/><glyph d="M109 1153q0 135 95 232.5t234 97.5q138 0 233 -96t95 -234q0 -139 -96 -233.5t-232 -94.5q-88 0 -164.5 43.5t-120.5 119.5t-44 165zM262 1153q0 -70 51 -122t125 -52t125 51.5t51 122.5q0 76 -52 127t-124 51t-124 -52t-52 -126z" horiz-adv-x="877" unicode="°"/><glyph d="M96 0v178h977v-178h-977zM96 664v178h398v407h180v-407h399v-178h-399v-406h-180v406h-398z" unicode="±"/><glyph d="M51 586v135l230 225q117 112 149.5 165t32.5 112q0 52 -32 79t-83 27q-93 0 -201 -88l-94 121q139 119 309 119q136 0 211.5 -66t75.5 -180q0 -83 -46 -158.5t-183 -202.5l-139 -129h397v-159h-627z" horiz-adv-x="743" unicode="²"/><glyph d="M45 631v157q145 -79 270 -79q179 0 179 135q0 125 -199 125h-115v133h105q184 0 184 129q0 52 -34.5 80t-90.5 28q-57 0 -105.5 -20t-105.5 -57l-84 114q61 46 134 75.5t171 29.5q134 0 212.5 -61.5t78.5 -168.5q0 -75 -40.5 -122.5t-119.5 -86.5q94 -21 141.5 -76 t47.5 -132q0 -127 -93 -196t-266 -69q-148 0 -270 62z" horiz-adv-x="743" unicode="³"/><glyph d="M362 1241v25q57 70 117.5 156t95.5 147h273v-21q-52 -61 -155.5 -157.5t-174.5 -149.5h-156z" horiz-adv-x="1212" unicode="´"/><glyph d="M168 -492v1598h235v-684q0 -252 218 -252q146 0 215 88.5t69 296.5v551h236v-1106h-183l-34 147h-13q-48 -83 -119.5 -125t-175.5 -42q-140 0 -219 90h-4q3 -28 6.5 -117t3.5 -125v-320h-235z" horiz-adv-x="1309" unicode="µ"/><glyph d="M113 1042q0 260 109 387t341 127h580v-1816h-137v1663h-191v-1663h-137v819q-62 -18 -146 -18q-216 0 -317.5 125t-101.5 376z" horiz-adv-x="1341" unicode="¶"/><glyph d="M133 723q0 73 38 112t110 39q73 0 111 -40.5t38 -110.5q0 -71 -38.5 -112.5t-110.5 -41.5t-110 41t-38 113z" horiz-adv-x="563" unicode="·"/><glyph d="M0 -340q54 -14 123 -14q54 0 85.5 16.5t31.5 61.5q0 85 -179 110l84 166h152l-41 -88q80 -21 125 -68.5t45 -113.5q0 -222 -305 -222q-66 0 -121 15v137z" horiz-adv-x="442" unicode="¸"/><glyph d="M84 1253l281 209h167v-876h-186v512l3 103l5 91q-17 -18 -40.5 -40t-141.5 -111z" horiz-adv-x="743" unicode="¹"/><glyph d="M61 1124q0 169 88.5 262t241.5 93q152 0 240 -94.5t88 -260.5q0 -164 -87.5 -259t-244.5 -95q-150 0 -238 95.5t-88 258.5zM223 1124q0 -111 39 -166t127 -55t127 55t39 166q0 113 -39 167.5t-127 54.5t-127 -54.5t-39 -167.5z" horiz-adv-x="780" unicode="º"/><glyph d="M80 201l282 348l-282 350l168 94l358 -432v-26l-358 -431zM530 201l283 348l-283 350l168 94l359 -432v-26l-359 -431z" horiz-adv-x="1139" unicode="»"/><glyph d="M285 0l858 1462h190l-856 -1462h-192zM60 1253l281 209h167v-876h-186v512l3 103l5 91q-17 -18 -40.5 -40t-141.5 -111zM876 177v127l396 579h188v-563h125v-143h-125v-176h-192v176h-392zM1038 320h230v178q0 97 6 197q-52 -104 -88 -158z" horiz-adv-x="1700" unicode="¼"/><glyph d="M250 0l858 1462h190l-856 -1462h-192zM46 1253l281 209h167v-876h-186v512l3 103l5 91q-17 -18 -40.5 -40t-141.5 -111zM981 1v135l230 225q117 112 149.5 165t32.5 112q0 52 -32 79t-83 27q-93 0 -201 -88l-94 121q139 119 309 119q136 0 211.5 -66t75.5 -180 q0 -83 -46 -158.5t-183 -202.5l-139 -129h397v-159h-627z" horiz-adv-x="1700" unicode="½"/><glyph d="M367 0l858 1462h190l-856 -1462h-192zM931 177v127l396 579h188v-563h125v-143h-125v-176h-192v176h-392zM1093 320h230v178q0 97 6 197q-52 -104 -88 -158zM55 631v157q145 -79 270 -79q179 0 179 135q0 125 -199 125h-115v133h105q184 0 184 129q0 52 -34.5 80 t-90.5 28q-57 0 -105.5 -20t-105.5 -57l-84 114q61 46 134 75.5t171 29.5q134 0 212.5 -61.5t78.5 -168.5q0 -75 -40.5 -122.5t-119.5 -86.5q94 -21 141.5 -76t47.5 -132q0 -127 -93 -196t-266 -69q-148 0 -270 62z" horiz-adv-x="1700" unicode="¾"/><glyph d="M55 -33q0 73 21 130t64 109t157 142q94 76 125 124.5t31 127.5v45h198v-63q0 -106 -41 -181t-143 -155q-124 -98 -155 -147t-31 -124q0 -78 54 -125t161 -47q90 0 174 27.5t166 65.5l82 -179q-220 -110 -424 -110q-207 0 -323 95.5t-116 264.5zM395 965q0 69 38 111 t110 42t110.5 -40.5t38.5 -112.5q0 -74 -37.5 -113t-111.5 -39q-72 0 -110 39.5t-38 112.5z" horiz-adv-x="928" unicode="¿"/><glyph d="M0 0l547 1468h260l547 -1468h-254l-146 406h-559l-143 -406h-252zM465 612h426l-137 398q-15 40 -41.5 126t-36.5 126q-27 -123 -79 -269zM334 1886v21h273q38 -70 103.5 -161t109.5 -142v-25h-158q-69 52 -174.5 150.5t-153.5 156.5z" horiz-adv-x="1354" unicode="À"/><glyph d="M0 0l547 1468h260l547 -1468h-254l-146 406h-559l-143 -406h-252zM465 612h426l-137 398q-15 40 -41.5 126t-36.5 126q-27 -123 -79 -269zM532 1579v25q57 70 117.5 156t95.5 147h273v-21q-52 -61 -155.5 -157.5t-174.5 -149.5h-156z" horiz-adv-x="1354" unicode="Á"/><glyph d="M0 0l547 1468h260l547 -1468h-254l-146 406h-559l-143 -406h-252zM465 612h426l-137 398q-15 40 -41.5 126t-36.5 126q-27 -123 -79 -269zM286 1579v25q191 198 254 303h260q63 -110 256 -303v-25h-159q-123 73 -228 180q-103 -103 -225 -180h-158z" horiz-adv-x="1354" unicode="Â"/><glyph d="M0 0l547 1468h260l547 -1468h-254l-146 406h-559l-143 -406h-252zM465 612h426l-137 398q-15 40 -41.5 126t-36.5 126q-27 -123 -79 -269zM281 1577q12 139 77.5 212t167.5 73q43 0 84 -17.5t80 -39t75.5 -39t70.5 -17.5q79 0 106 115h125q-12 -134 -77 -209.5 t-169 -75.5q-42 0 -82.5 17.5t-79.5 39t-76 39t-71 17.5q-81 0 -109 -115h-122z" horiz-adv-x="1354" unicode="Ã"/><glyph d="M0 0l547 1468h260l547 -1468h-254l-146 406h-559l-143 -406h-252zM465 612h426l-137 398q-15 40 -41.5 126t-36.5 126q-27 -123 -79 -269zM363 1737q0 62 33.5 89.5t81.5 27.5q53 0 84.5 -31t31.5 -86q0 -53 -32 -85t-84 -32q-48 0 -81.5 29t-33.5 88zM756 1737 q0 62 33.5 89.5t81.5 27.5q53 0 85 -31t32 -86q0 -54 -33 -85.5t-84 -31.5q-48 0 -81.5 29t-33.5 88z" horiz-adv-x="1354" unicode="Ä"/><glyph d="M0 0l547 1468h260l547 -1468h-254l-146 406h-559l-143 -406h-252zM465 612h426l-137 398q-15 40 -41.5 126t-36.5 126q-27 -123 -79 -269zM438 1575q0 101 63.5 163.5t172.5 62.5q104 0 171.5 -62t67.5 -162q0 -102 -65.5 -165.5t-173.5 -63.5t-172 62.5t-64 164.5z M567 1575q0 -106 107 -106q46 0 76 27.5t30 78.5q0 50 -30 78.5t-76 28.5q-47 0 -77 -28.5t-30 -78.5z" horiz-adv-x="1354" unicode="Å"/><glyph d="M-2 0l678 1462h1071v-202h-571v-398h532v-200h-532v-459h571v-203h-811v406h-504l-188 -406h-246zM522 612h414v641h-123z" horiz-adv-x="1868" unicode="Æ"/><glyph d="M121 731q0 228 83.5 399t241.5 262t371 91q224 0 414 -94l-86 -199q-74 35 -156.5 61.5t-173.5 26.5q-206 0 -324 -146t-118 -403q0 -269 113.5 -407t328.5 -138q93 0 180 18.5t181 47.5v-205q-172 -65 -390 -65q-321 0 -493 194.5t-172 556.5zM526 -340q54 -14 123 -14 q54 0 85.5 16.5t31.5 61.5q0 85 -179 110l84 166h152l-41 -88q80 -21 125 -68.5t45 -113.5q0 -222 -305 -222q-66 0 -121 15v137z" horiz-adv-x="1298" unicode="Ç"/><glyph d="M193 0v1462h827v-202h-588v-398h551v-200h-551v-459h588v-203h-827zM289 1886v21h273q38 -70 103.5 -161t109.5 -142v-25h-158q-69 52 -174.5 150.5t-153.5 156.5z" horiz-adv-x="1143" unicode="È"/><glyph d="M193 0v1462h827v-202h-588v-398h551v-200h-551v-459h588v-203h-827zM440 1579v25q57 70 117.5 156t95.5 147h273v-21q-52 -61 -155.5 -157.5t-174.5 -149.5h-156z" horiz-adv-x="1143" unicode="É"/><glyph d="M193 0v1462h827v-202h-588v-398h551v-200h-551v-459h588v-203h-827zM220 1579v25q191 198 254 303h260q63 -110 256 -303v-25h-159q-123 73 -228 180q-103 -103 -225 -180h-158z" horiz-adv-x="1143" unicode="Ê"/><glyph d="M193 0v1462h827v-202h-588v-398h551v-200h-551v-459h588v-203h-827zM297 1737q0 62 33.5 89.5t81.5 27.5q53 0 84.5 -31t31.5 -86q0 -53 -32 -85t-84 -32q-48 0 -81.5 29t-33.5 88zM690 1737q0 62 33.5 89.5t81.5 27.5q53 0 85 -31t32 -86q0 -54 -33 -85.5t-84 -31.5 q-48 0 -81.5 29t-33.5 88z" horiz-adv-x="1143" unicode="Ë"/><glyph d="M193 0v1462h239v-1462h-239zM-6 1886v21h273q38 -70 103.5 -161t109.5 -142v-25h-158q-69 52 -174.5 150.5t-153.5 156.5z" horiz-adv-x="625" unicode="Ì"/><glyph d="M193 0v1462h239v-1462h-239zM179 1579v25q57 70 117.5 156t95.5 147h273v-21q-52 -61 -155.5 -157.5t-174.5 -149.5h-156z" horiz-adv-x="625" unicode="Í"/><glyph d="M193 0v1462h239v-1462h-239zM-75 1579v25q191 198 254 303h260q63 -110 256 -303v-25h-159q-123 73 -228 180q-103 -103 -225 -180h-158z" horiz-adv-x="625" unicode="Î"/><glyph d="M193 0v1462h239v-1462h-239zM1 1737q0 62 33.5 89.5t81.5 27.5q53 0 84.5 -31t31.5 -86q0 -53 -32 -85t-84 -32q-48 0 -81.5 29t-33.5 88zM394 1737q0 62 33.5 89.5t81.5 27.5q53 0 85 -31t32 -86q0 -54 -33 -85.5t-84 -31.5q-48 0 -81.5 29t-33.5 88z" horiz-adv-x="625" unicode="Ï"/><glyph d="M47 623v200h146v639h446q347 0 541 -188.5t194 -528.5q0 -360 -201 -552.5t-579 -192.5h-401v623h-146zM432 201h160q530 0 530 536q0 260 -124.5 392.5t-368.5 132.5h-197v-439h307v-200h-307v-422z" horiz-adv-x="1497" unicode="Ð"/><glyph d="M193 0v1462h290l717 -1159h6q-2 23 -8 167.5t-6 225.5v766h219v-1462h-293l-719 1165h-8l5 -65q14 -186 14 -340v-760h-217zM414 1577q12 139 77.5 212t167.5 73q43 0 84 -17.5t80 -39t75.5 -39t70.5 -17.5q79 0 106 115h125q-12 -134 -77 -209.5t-169 -75.5 q-42 0 -82.5 17.5t-79.5 39t-76 39t-71 17.5q-81 0 -109 -115h-122z" horiz-adv-x="1604" unicode="Ñ"/><glyph d="M121 735q0 362 178.5 556t509.5 194q326 0 504 -197t178 -555q0 -357 -178.5 -555t-505.5 -198q-331 0 -508.5 196.5t-177.5 558.5zM375 733q0 -270 109 -409.5t323 -139.5q213 0 321.5 138t108.5 411q0 269 -107.5 408t-320.5 139q-215 0 -324.5 -139t-109.5 -408z M481 1886v21h273q38 -70 103.5 -161t109.5 -142v-25h-158q-69 52 -174.5 150.5t-153.5 156.5z" horiz-adv-x="1612" unicode="Ò"/><glyph d="M121 735q0 362 178.5 556t509.5 194q326 0 504 -197t178 -555q0 -357 -178.5 -555t-505.5 -198q-331 0 -508.5 196.5t-177.5 558.5zM375 733q0 -270 109 -409.5t323 -139.5q213 0 321.5 138t108.5 411q0 269 -107.5 408t-320.5 139q-215 0 -324.5 -139t-109.5 -408z M657 1579v25q57 70 117.5 156t95.5 147h273v-21q-52 -61 -155.5 -157.5t-174.5 -149.5h-156z" horiz-adv-x="1612" unicode="Ó"/><glyph d="M121 735q0 362 178.5 556t509.5 194q326 0 504 -197t178 -555q0 -357 -178.5 -555t-505.5 -198q-331 0 -508.5 196.5t-177.5 558.5zM375 733q0 -270 109 -409.5t323 -139.5q213 0 321.5 138t108.5 411q0 269 -107.5 408t-320.5 139q-215 0 -324.5 -139t-109.5 -408z M413 1579v25q191 198 254 303h260q63 -110 256 -303v-25h-159q-123 73 -228 180q-103 -103 -225 -180h-158z" horiz-adv-x="1612" unicode="Ô"/><glyph d="M121 735q0 362 178.5 556t509.5 194q326 0 504 -197t178 -555q0 -357 -178.5 -555t-505.5 -198q-331 0 -508.5 196.5t-177.5 558.5zM375 733q0 -270 109 -409.5t323 -139.5q213 0 321.5 138t108.5 411q0 269 -107.5 408t-320.5 139q-215 0 -324.5 -139t-109.5 -408z M410 1577q12 139 77.5 212t167.5 73q43 0 84 -17.5t80 -39t75.5 -39t70.5 -17.5q79 0 106 115h125q-12 -134 -77 -209.5t-169 -75.5q-42 0 -82.5 17.5t-79.5 39t-76 39t-71 17.5q-81 0 -109 -115h-122z" horiz-adv-x="1612" unicode="Õ"/><glyph d="M121 735q0 362 178.5 556t509.5 194q326 0 504 -197t178 -555q0 -357 -178.5 -555t-505.5 -198q-331 0 -508.5 196.5t-177.5 558.5zM375 733q0 -270 109 -409.5t323 -139.5q213 0 321.5 138t108.5 411q0 269 -107.5 408t-320.5 139q-215 0 -324.5 -139t-109.5 -408z M496 1737q0 62 33.5 89.5t81.5 27.5q53 0 84.5 -31t31.5 -86q0 -53 -32 -85t-84 -32q-48 0 -81.5 29t-33.5 88zM889 1737q0 62 33.5 89.5t81.5 27.5q53 0 85 -31t32 -86q0 -54 -33 -85.5t-84 -31.5q-48 0 -81.5 29t-33.5 88z" horiz-adv-x="1612" unicode="Ö"/><glyph d="M131 1049l125 127l328 -326l329 326l125 -123l-329 -330l325 -328l-123 -125l-329 326l-324 -326l-125 125l324 328z" unicode="×"/><glyph d="M121 735q0 362 178.5 556t509.5 194q199 0 354 -82l90 129l142 -92l-99 -140q195 -199 195 -567q0 -357 -178.5 -555t-505.5 -198q-213 0 -361 81l-94 -137l-141 94l98 144q-188 196 -188 573zM375 733q0 -231 78 -362l587 850q-92 59 -231 59q-215 0 -324.5 -139 t-109.5 -408zM571 244q97 -60 236 -60q213 0 321.5 138t108.5 411q0 225 -80 361z" horiz-adv-x="1612" unicode="Ø"/><glyph d="M180 520v942h240v-925q0 -181 84 -267t258 -86q338 0 338 355v923h239v-946q0 -162 -69.5 -283.5t-201 -187t-314.5 -65.5q-272 0 -423 144t-151 396zM417 1886v21h273q38 -70 103.5 -161t109.5 -142v-25h-158q-69 52 -174.5 150.5t-153.5 156.5z" horiz-adv-x="1520" unicode="Ù"/><glyph d="M180 520v942h240v-925q0 -181 84 -267t258 -86q338 0 338 355v923h239v-946q0 -162 -69.5 -283.5t-201 -187t-314.5 -65.5q-272 0 -423 144t-151 396zM600 1579v25q57 70 117.5 156t95.5 147h273v-21q-52 -61 -155.5 -157.5t-174.5 -149.5h-156z" horiz-adv-x="1520" unicode="Ú"/><glyph d="M180 520v942h240v-925q0 -181 84 -267t258 -86q338 0 338 355v923h239v-946q0 -162 -69.5 -283.5t-201 -187t-314.5 -65.5q-272 0 -423 144t-151 396zM366 1579v25q191 198 254 303h260q63 -110 256 -303v-25h-159q-123 73 -228 180q-103 -103 -225 -180h-158z" horiz-adv-x="1520" unicode="Û"/><glyph d="M180 520v942h240v-925q0 -181 84 -267t258 -86q338 0 338 355v923h239v-946q0 -162 -69.5 -283.5t-201 -187t-314.5 -65.5q-272 0 -423 144t-151 396zM445 1737q0 62 33.5 89.5t81.5 27.5q53 0 84.5 -31t31.5 -86q0 -53 -32 -85t-84 -32q-48 0 -81.5 29t-33.5 88z M838 1737q0 62 33.5 89.5t81.5 27.5q53 0 85 -31t32 -86q0 -54 -33 -85.5t-84 -31.5q-48 0 -81.5 29t-33.5 88z" horiz-adv-x="1520" unicode="Ü"/><glyph d="M0 1462h260l346 -667l346 667h260l-487 -895v-567h-240v559zM450 1579v25q57 70 117.5 156t95.5 147h273v-21q-52 -61 -155.5 -157.5t-174.5 -149.5h-156z" horiz-adv-x="1212" unicode="Ý"/><glyph d="M193 0v1462h239v-243h197q268 0 404 -112t136 -331q0 -227 -146 -349t-423 -122h-168v-305h-239zM432 504h133q187 0 273 63t86 203q0 127 -78 188.5t-250 61.5h-164v-516z" horiz-adv-x="1268" unicode="Þ"/><glyph d="M168 0v1169q0 193 128.5 295.5t367.5 102.5q225 0 355 -84t130 -230q0 -74 -38.5 -140.5t-104.5 -117.5q-90 -69 -117 -98t-27 -57q0 -30 22.5 -55.5t79.5 -63.5l95 -64q92 -62 135.5 -109.5t65.5 -103.5t22 -127q0 -165 -107 -251t-311 -86q-190 0 -299 65v199 q58 -37 139 -61.5t148 -24.5q192 0 192 151q0 61 -34.5 105t-155.5 118q-119 73 -171 135t-52 146q0 63 34 115.5t105 105.5q75 55 107 97.5t32 93.5q0 72 -67 112.5t-178 40.5q-127 0 -194 -54t-67 -159v-1165h-235z" horiz-adv-x="1364" unicode="ß"/><glyph d="M90 317q0 171 127 258t387 95l191 6v59q0 106 -49.5 158.5t-153.5 52.5q-85 0 -163 -25t-150 -59l-76 168q90 47 197 71.5t202 24.5q211 0 318.5 -92t107.5 -289v-745h-168l-47 154h-8q-80 -101 -161 -137.5t-208 -36.5q-163 0 -254.5 88t-91.5 249zM334 315 q0 -74 44 -114.5t132 -40.5q128 0 205.5 71.5t77.5 200.5v96l-142 -6q-166 -6 -241.5 -55.5t-75.5 -151.5zM259 1548v21h273q38 -70 103.5 -161t109.5 -142v-25h-158q-69 52 -174.5 150.5t-153.5 156.5z" horiz-adv-x="1188" unicode="à"/><glyph d="M90 317q0 171 127 258t387 95l191 6v59q0 106 -49.5 158.5t-153.5 52.5q-85 0 -163 -25t-150 -59l-76 168q90 47 197 71.5t202 24.5q211 0 318.5 -92t107.5 -289v-745h-168l-47 154h-8q-80 -101 -161 -137.5t-208 -36.5q-163 0 -254.5 88t-91.5 249zM334 315 q0 -74 44 -114.5t132 -40.5q128 0 205.5 71.5t77.5 200.5v96l-142 -6q-166 -6 -241.5 -55.5t-75.5 -151.5zM438 1241v25q57 70 117.5 156t95.5 147h273v-21q-52 -61 -155.5 -157.5t-174.5 -149.5h-156z" horiz-adv-x="1188" unicode="á"/><glyph d="M90 317q0 171 127 258t387 95l191 6v59q0 106 -49.5 158.5t-153.5 52.5q-85 0 -163 -25t-150 -59l-76 168q90 47 197 71.5t202 24.5q211 0 318.5 -92t107.5 -289v-745h-168l-47 154h-8q-80 -101 -161 -137.5t-208 -36.5q-163 0 -254.5 88t-91.5 249zM334 315 q0 -74 44 -114.5t132 -40.5q128 0 205.5 71.5t77.5 200.5v96l-142 -6q-166 -6 -241.5 -55.5t-75.5 -151.5zM203 1241v25q191 198 254 303h260q63 -110 256 -303v-25h-159q-123 73 -228 180q-103 -103 -225 -180h-158z" horiz-adv-x="1188" unicode="â"/><glyph d="M90 317q0 171 127 258t387 95l191 6v59q0 106 -49.5 158.5t-153.5 52.5q-85 0 -163 -25t-150 -59l-76 168q90 47 197 71.5t202 24.5q211 0 318.5 -92t107.5 -289v-745h-168l-47 154h-8q-80 -101 -161 -137.5t-208 -36.5q-163 0 -254.5 88t-91.5 249zM334 315 q0 -74 44 -114.5t132 -40.5q128 0 205.5 71.5t77.5 200.5v96l-142 -6q-166 -6 -241.5 -55.5t-75.5 -151.5zM208 1239q12 139 77.5 212t167.5 73q43 0 84 -17.5t80 -39t75.5 -39t70.5 -17.5q79 0 106 115h125q-12 -134 -77 -209.5t-169 -75.5q-42 0 -82.5 17.5t-79.5 39 t-76 39t-71 17.5q-81 0 -109 -115h-122z" horiz-adv-x="1188" unicode="ã"/><glyph d="M90 317q0 171 127 258t387 95l191 6v59q0 106 -49.5 158.5t-153.5 52.5q-85 0 -163 -25t-150 -59l-76 168q90 47 197 71.5t202 24.5q211 0 318.5 -92t107.5 -289v-745h-168l-47 154h-8q-80 -101 -161 -137.5t-208 -36.5q-163 0 -254.5 88t-91.5 249zM334 315 q0 -74 44 -114.5t132 -40.5q128 0 205.5 71.5t77.5 200.5v96l-142 -6q-166 -6 -241.5 -55.5t-75.5 -151.5zM282 1399q0 62 33.5 89.5t81.5 27.5q53 0 84.5 -31t31.5 -86q0 -53 -32 -85t-84 -32q-48 0 -81.5 29t-33.5 88zM675 1399q0 62 33.5 89.5t81.5 27.5q53 0 85 -31 t32 -86q0 -54 -33 -85.5t-84 -31.5q-48 0 -81.5 29t-33.5 88z" horiz-adv-x="1188" unicode="ä"/><glyph d="M90 317q0 171 127 258t387 95l191 6v59q0 106 -49.5 158.5t-153.5 52.5q-85 0 -163 -25t-150 -59l-76 168q90 47 197 71.5t202 24.5q211 0 318.5 -92t107.5 -289v-745h-168l-47 154h-8q-80 -101 -161 -137.5t-208 -36.5q-163 0 -254.5 88t-91.5 249zM334 315 q0 -74 44 -114.5t132 -40.5q128 0 205.5 71.5t77.5 200.5v96l-142 -6q-166 -6 -241.5 -55.5t-75.5 -151.5zM366 1466q0 101 63.5 163.5t172.5 62.5q104 0 171.5 -62t67.5 -162q0 -102 -65.5 -165.5t-173.5 -63.5t-172 62.5t-64 164.5zM495 1466q0 -106 107 -106 q46 0 76 27.5t30 78.5q0 50 -30 78.5t-76 28.5q-47 0 -77 -28.5t-30 -78.5z" horiz-adv-x="1188" unicode="å"/><glyph d="M90 317q0 172 121.5 258.5t370.5 94.5l188 6v76q0 194 -201 194q-141 0 -307 -82l-74 166q88 47 192.5 71.5t203.5 24.5q241 0 340 -155q120 155 346 155q206 0 328 -134.5t122 -362.5v-127h-712q10 -336 301 -336q184 0 356 80v-191q-86 -41 -171.5 -58t-195.5 -17 q-140 0 -248.5 54.5t-175.5 164.5q-94 -125 -190.5 -172t-241.5 -47q-165 0 -258.5 90t-93.5 247zM334 315q0 -155 166 -155q124 0 196 72.5t72 199.5v96l-135 -6q-155 -6 -227 -54.5t-72 -152.5zM1014 670h473q0 130 -58.5 204t-162.5 74q-112 0 -177.5 -69.5t-74.5 -208.5 z" horiz-adv-x="1817" unicode="æ"/><glyph d="M102 547q0 279 136.5 429t394.5 150q175 0 315 -65l-71 -189q-149 58 -246 58q-287 0 -287 -381q0 -186 71.5 -279.5t209.5 -93.5q157 0 297 78v-205q-63 -37 -134.5 -53t-173.5 -16q-251 0 -381.5 146.5t-130.5 420.5zM356 -340q54 -14 123 -14q54 0 85.5 16.5 t31.5 61.5q0 85 -179 110l84 166h152l-41 -88q80 -21 125 -68.5t45 -113.5q0 -222 -305 -222q-66 0 -121 15v137z" horiz-adv-x="1014" unicode="ç"/><glyph d="M102 545q0 271 135 426t371 155q219 0 346 -133t127 -366v-127h-737q5 -161 87 -247.5t231 -86.5q98 0 182.5 18.5t181.5 61.5v-191q-86 -41 -174 -58t-201 -17q-258 0 -403.5 150.5t-145.5 414.5zM348 670h502q-2 137 -66 207.5t-176 70.5t-179.5 -71t-80.5 -207z M281 1548v21h273q38 -70 103.5 -161t109.5 -142v-25h-158q-69 52 -174.5 150.5t-153.5 156.5z" horiz-adv-x="1180" unicode="è"/><glyph d="M102 545q0 271 135 426t371 155q219 0 346 -133t127 -366v-127h-737q5 -161 87 -247.5t231 -86.5q98 0 182.5 18.5t181.5 61.5v-191q-86 -41 -174 -58t-201 -17q-258 0 -403.5 150.5t-145.5 414.5zM348 670h502q-2 137 -66 207.5t-176 70.5t-179.5 -71t-80.5 -207z M458 1241v25q57 70 117.5 156t95.5 147h273v-21q-52 -61 -155.5 -157.5t-174.5 -149.5h-156z" horiz-adv-x="1180" unicode="é"/><glyph d="M102 545q0 271 135 426t371 155q219 0 346 -133t127 -366v-127h-737q5 -161 87 -247.5t231 -86.5q98 0 182.5 18.5t181.5 61.5v-191q-86 -41 -174 -58t-201 -17q-258 0 -403.5 150.5t-145.5 414.5zM348 670h502q-2 137 -66 207.5t-176 70.5t-179.5 -71t-80.5 -207z M227 1241v25q191 198 254 303h260q63 -110 256 -303v-25h-159q-123 73 -228 180q-103 -103 -225 -180h-158z" horiz-adv-x="1180" unicode="ê"/><glyph d="M102 545q0 271 135 426t371 155q219 0 346 -133t127 -366v-127h-737q5 -161 87 -247.5t231 -86.5q98 0 182.5 18.5t181.5 61.5v-191q-86 -41 -174 -58t-201 -17q-258 0 -403.5 150.5t-145.5 414.5zM348 670h502q-2 137 -66 207.5t-176 70.5t-179.5 -71t-80.5 -207z M307 1399q0 62 33.5 89.5t81.5 27.5q53 0 84.5 -31t31.5 -86q0 -53 -32 -85t-84 -32q-48 0 -81.5 29t-33.5 88zM700 1399q0 62 33.5 89.5t81.5 27.5q53 0 85 -31t32 -86q0 -54 -33 -85.5t-84 -31.5q-48 0 -81.5 29t-33.5 88z" horiz-adv-x="1180" unicode="ë"/><glyph d="M168 0v1106h235v-1106h-235zM-69 1548v21h273q38 -70 103.5 -161t109.5 -142v-25h-158q-69 52 -174.5 150.5t-153.5 156.5z" horiz-adv-x="571" unicode="ì"/><glyph d="M168 0v1106h235v-1106h-235zM156 1241v25q57 70 117.5 156t95.5 147h273v-21q-52 -61 -155.5 -157.5t-174.5 -149.5h-156z" horiz-adv-x="571" unicode="í"/><glyph d="M168 0v1106h235v-1106h-235zM-100 1241v25q191 198 254 303h260q63 -110 256 -303v-25h-159q-123 73 -228 180q-103 -103 -225 -180h-158z" horiz-adv-x="571" unicode="î"/><glyph d="M168 0v1106h235v-1106h-235zM-25 1399q0 62 33.5 89.5t81.5 27.5q53 0 84.5 -31t31.5 -86q0 -53 -32 -85t-84 -32q-48 0 -81.5 29t-33.5 88zM368 1399q0 62 33.5 89.5t81.5 27.5q53 0 85 -31t32 -86q0 -54 -33 -85.5t-84 -31.5q-48 0 -81.5 29t-33.5 88z" horiz-adv-x="571" unicode="ï"/><glyph d="M102 481q0 231 131 365.5t351 134.5q214 0 301 -111l8 4q-62 189 -227 345l-250 -150l-88 133l204 119q-86 59 -167 102l84 146q140 -63 258 -144l231 138l88 -129l-188 -113q152 -140 231.5 -330t79.5 -424q0 -279 -137.5 -433t-388.5 -154q-235 0 -378 136t-143 365z M342 477q0 -153 74 -234t211 -81q148 0 215 91t67 269q0 127 -75.5 202t-206.5 75q-151 0 -218 -82t-67 -240z" horiz-adv-x="1243" unicode="ð"/><glyph d="M168 0v1106h184l33 -145h12q50 79 142 122t204 43q398 0 398 -405v-721h-236v680q0 128 -51.5 191t-163.5 63q-149 0 -218 -88t-69 -295v-551h-235zM269 1239q12 139 77.5 212t167.5 73q43 0 84 -17.5t80 -39t75.5 -39t70.5 -17.5q79 0 106 115h125q-12 -134 -77 -209.5 t-169 -75.5q-42 0 -82.5 17.5t-79.5 39t-76 39t-71 17.5q-81 0 -109 -115h-122z" horiz-adv-x="1300" unicode="ñ"/><glyph d="M102 555q0 269 138 420t389 151q240 0 380 -154.5t140 -416.5q0 -271 -139 -423t-387 -152q-155 0 -274 70t-183 201t-64 304zM344 555q0 -383 283 -383q280 0 280 383q0 379 -282 379q-148 0 -214.5 -98t-66.5 -281zM293 1548v21h273q38 -70 103.5 -161t109.5 -142v-25 h-158q-69 52 -174.5 150.5t-153.5 156.5z" horiz-adv-x="1251" unicode="ò"/><glyph d="M102 555q0 269 138 420t389 151q240 0 380 -154.5t140 -416.5q0 -271 -139 -423t-387 -152q-155 0 -274 70t-183 201t-64 304zM344 555q0 -383 283 -383q280 0 280 383q0 379 -282 379q-148 0 -214.5 -98t-66.5 -281zM473 1241v25q57 70 117.5 156t95.5 147h273v-21 q-52 -61 -155.5 -157.5t-174.5 -149.5h-156z" horiz-adv-x="1251" unicode="ó"/><glyph d="M102 555q0 269 138 420t389 151q240 0 380 -154.5t140 -416.5q0 -271 -139 -423t-387 -152q-155 0 -274 70t-183 201t-64 304zM344 555q0 -383 283 -383q280 0 280 383q0 379 -282 379q-148 0 -214.5 -98t-66.5 -281zM239 1241v25q191 198 254 303h260q63 -110 256 -303 v-25h-159q-123 73 -228 180q-103 -103 -225 -180h-158z" horiz-adv-x="1251" unicode="ô"/><glyph d="M102 555q0 269 138 420t389 151q240 0 380 -154.5t140 -416.5q0 -271 -139 -423t-387 -152q-155 0 -274 70t-183 201t-64 304zM344 555q0 -383 283 -383q280 0 280 383q0 379 -282 379q-148 0 -214.5 -98t-66.5 -281zM235 1239q12 139 77.5 212t167.5 73q43 0 84 -17.5 t80 -39t75.5 -39t70.5 -17.5q79 0 106 115h125q-12 -134 -77 -209.5t-169 -75.5q-42 0 -82.5 17.5t-79.5 39t-76 39t-71 17.5q-81 0 -109 -115h-122z" horiz-adv-x="1251" unicode="õ"/><glyph d="M102 555q0 269 138 420t389 151q240 0 380 -154.5t140 -416.5q0 -271 -139 -423t-387 -152q-155 0 -274 70t-183 201t-64 304zM344 555q0 -383 283 -383q280 0 280 383q0 379 -282 379q-148 0 -214.5 -98t-66.5 -281zM311 1399q0 62 33.5 89.5t81.5 27.5q53 0 84.5 -31 t31.5 -86q0 -53 -32 -85t-84 -32q-48 0 -81.5 29t-33.5 88zM704 1399q0 62 33.5 89.5t81.5 27.5q53 0 85 -31t32 -86q0 -54 -33 -85.5t-84 -31.5q-48 0 -81.5 29t-33.5 88z" horiz-adv-x="1251" unicode="ö"/><glyph d="M96 633v178h977v-178h-977zM457 373q0 64 31.5 99.5t95.5 35.5q61 0 93 -36t32 -99t-34 -100t-91 -37q-60 0 -93.5 35.5t-33.5 101.5zM457 1071q0 64 31.5 99.5t95.5 35.5q61 0 93 -36t32 -99t-34 -100t-91 -37q-60 0 -93.5 35.5t-33.5 101.5z" unicode="÷"/><glyph d="M102 555q0 269 138 420t389 151q144 0 258 -63l69 100l136 -92l-78 -108q135 -152 135 -408q0 -271 -139 -423t-387 -152q-144 0 -250 57l-76 -109l-135 90l82 117q-142 155 -142 420zM344 555q0 -135 37 -219l391 559q-60 39 -147 39q-148 0 -214.5 -98t-66.5 -281z M487 205q54 -33 140 -33q280 0 280 383q0 121 -33 203z" horiz-adv-x="1251" unicode="ø"/><glyph d="M158 383v723h237v-682q0 -127 52 -190.5t163 -63.5q148 0 217.5 88.5t69.5 296.5v551h236v-1106h-185l-33 145h-12q-49 -77 -139.5 -121t-206.5 -44q-201 0 -300 100t-99 303zM289 1548v21h273q38 -70 103.5 -161t109.5 -142v-25h-158q-69 52 -174.5 150.5t-153.5 156.5z" horiz-adv-x="1300" unicode="ù"/><glyph d="M158 383v723h237v-682q0 -127 52 -190.5t163 -63.5q148 0 217.5 88.5t69.5 296.5v551h236v-1106h-185l-33 145h-12q-49 -77 -139.5 -121t-206.5 -44q-201 0 -300 100t-99 303zM501 1241v25q57 70 117.5 156t95.5 147h273v-21q-52 -61 -155.5 -157.5t-174.5 -149.5h-156z" horiz-adv-x="1300" unicode="ú"/><glyph d="M158 383v723h237v-682q0 -127 52 -190.5t163 -63.5q148 0 217.5 88.5t69.5 296.5v551h236v-1106h-185l-33 145h-12q-49 -77 -139.5 -121t-206.5 -44q-201 0 -300 100t-99 303zM260 1241v25q191 198 254 303h260q63 -110 256 -303v-25h-159q-123 73 -228 180 q-103 -103 -225 -180h-158z" horiz-adv-x="1300" unicode="û"/><glyph d="M158 383v723h237v-682q0 -127 52 -190.5t163 -63.5q148 0 217.5 88.5t69.5 296.5v551h236v-1106h-185l-33 145h-12q-49 -77 -139.5 -121t-206.5 -44q-201 0 -300 100t-99 303zM332 1399q0 62 33.5 89.5t81.5 27.5q53 0 84.5 -31t31.5 -86q0 -53 -32 -85t-84 -32 q-48 0 -81.5 29t-33.5 88zM725 1399q0 62 33.5 89.5t81.5 27.5q53 0 85 -31t32 -86q0 -54 -33 -85.5t-84 -31.5q-48 0 -81.5 29t-33.5 88z" horiz-adv-x="1300" unicode="ü"/><glyph d="M0 1106h256l225 -627q51 -134 68 -252h8q9 55 33 133.5t254 745.5h254l-473 -1253q-129 -345 -430 -345q-78 0 -152 17v186q53 -12 121 -12q170 0 239 197l41 104zM401 1241v25q57 70 117.5 156t95.5 147h273v-21q-52 -61 -155.5 -157.5t-174.5 -149.5h-156z" horiz-adv-x="1098" unicode="ý"/><glyph d="M168 -492v2048h235v-430l-7 -138l-3 -27h10q61 86 142.5 125.5t187.5 39.5q206 0 322 -151t116 -420q0 -272 -116.5 -423.5t-321.5 -151.5q-219 0 -330 149h-14l8 -72l6 -92v-457h-235zM403 555q0 -202 64 -292.5t209 -90.5q254 0 254 385q0 190 -61.5 283.5t-194.5 93.5 q-142 0 -206.5 -82t-64.5 -260v-37z" horiz-adv-x="1276" unicode="þ"/><glyph d="M0 1106h256l225 -627q51 -134 68 -252h8q9 55 33 133.5t254 745.5h254l-473 -1253q-129 -345 -430 -345q-78 0 -152 17v186q53 -12 121 -12q170 0 239 197l41 104zM239 1399q0 62 33.5 89.5t81.5 27.5q53 0 84.5 -31t31.5 -86q0 -53 -32 -85t-84 -32q-48 0 -81.5 29 t-33.5 88zM632 1399q0 62 33.5 89.5t81.5 27.5q53 0 85 -31t32 -86q0 -54 -33 -85.5t-84 -31.5q-48 0 -81.5 29t-33.5 88z" horiz-adv-x="1098" unicode="ÿ"/><glyph d="M0 0l547 1468h260l547 -1468h-254l-146 406h-559l-143 -406h-252zM465 612h426l-137 398q-15 40 -41.5 126t-36.5 126q-27 -123 -79 -269zM367 1579v174h639v-174h-639z" horiz-adv-x="1354" unicode="Ā"/><glyph d="M90 317q0 171 127 258t387 95l191 6v59q0 106 -49.5 158.5t-153.5 52.5q-85 0 -163 -25t-150 -59l-76 168q90 47 197 71.5t202 24.5q211 0 318.5 -92t107.5 -289v-745h-168l-47 154h-8q-80 -101 -161 -137.5t-208 -36.5q-163 0 -254.5 88t-91.5 249zM334 315 q0 -74 44 -114.5t132 -40.5q128 0 205.5 71.5t77.5 200.5v96l-142 -6q-166 -6 -241.5 -55.5t-75.5 -151.5zM291 1241v174h639v-174h-639z" horiz-adv-x="1188" unicode="ā"/><glyph d="M0 0l547 1468h260l547 -1468h-254l-146 406h-559l-143 -406h-252zM465 612h426l-137 398q-15 40 -41.5 126t-36.5 126q-27 -123 -79 -269zM323 1882h137q5 -48 27 -76.5t62.5 -40.5t123.5 -12q105 0 155.5 33t57.5 96h140q-12 -141 -108 -222t-249 -81 q-157 0 -247.5 79.5t-98.5 223.5z" horiz-adv-x="1354" unicode="Ă"/><glyph d="M90 317q0 171 127 258t387 95l191 6v59q0 106 -49.5 158.5t-153.5 52.5q-85 0 -163 -25t-150 -59l-76 168q90 47 197 71.5t202 24.5q211 0 318.5 -92t107.5 -289v-745h-168l-47 154h-8q-80 -101 -161 -137.5t-208 -36.5q-163 0 -254.5 88t-91.5 249zM334 315 q0 -74 44 -114.5t132 -40.5q128 0 205.5 71.5t77.5 200.5v96l-142 -6q-166 -6 -241.5 -55.5t-75.5 -151.5zM253 1544h137q5 -48 27 -76.5t62.5 -40.5t123.5 -12q105 0 155.5 33t57.5 96h140q-12 -141 -108 -222t-249 -81q-157 0 -247.5 79.5t-98.5 223.5z" horiz-adv-x="1188" unicode="ă"/><glyph d="M0 0l547 1468h260l547 -1468h-254l-146 406h-559l-143 -406h-252zM465 612h426l-137 398q-15 40 -41.5 126t-36.5 126q-27 -123 -79 -269zM932 -260q0 65 38 127t132 133h149q-69 -66 -106 -120.5t-37 -112.5q0 -89 88 -89q43 0 104 17v-144q-69 -20 -139 -20 q-113 0 -171 56.5t-58 152.5z" horiz-adv-x="1354" unicode="Ą"/><glyph d="M90 317q0 171 127 258t387 95l191 6v59q0 106 -49.5 158.5t-153.5 52.5q-85 0 -163 -25t-150 -59l-76 168q90 47 197 71.5t202 24.5q211 0 318.5 -92t107.5 -289v-745h-168l-47 154h-8q-80 -101 -161 -137.5t-208 -36.5q-163 0 -254.5 88t-91.5 249zM334 315 q0 -74 44 -114.5t132 -40.5q128 0 205.5 71.5t77.5 200.5v96l-142 -6q-166 -6 -241.5 -55.5t-75.5 -151.5zM693 -260q0 65 38 127t132 133h149q-69 -66 -106 -120.5t-37 -112.5q0 -89 88 -89q43 0 104 17v-144q-69 -20 -139 -20q-113 0 -171 56.5t-58 152.5z" horiz-adv-x="1188" unicode="ą"/><glyph d="M121 731q0 228 83.5 399t241.5 262t371 91q224 0 414 -94l-86 -199q-74 35 -156.5 61.5t-173.5 26.5q-206 0 -324 -146t-118 -403q0 -269 113.5 -407t328.5 -138q93 0 180 18.5t181 47.5v-205q-172 -65 -390 -65q-321 0 -493 194.5t-172 556.5zM626 1579v25 q57 70 117.5 156t95.5 147h273v-21q-52 -61 -155.5 -157.5t-174.5 -149.5h-156z" horiz-adv-x="1298" unicode="Ć"/><glyph d="M102 547q0 279 136.5 429t394.5 150q175 0 315 -65l-71 -189q-149 58 -246 58q-287 0 -287 -381q0 -186 71.5 -279.5t209.5 -93.5q157 0 297 78v-205q-63 -37 -134.5 -53t-173.5 -16q-251 0 -381.5 146.5t-130.5 420.5zM450 1241v25q57 70 117.5 156t95.5 147h273v-21 q-52 -61 -155.5 -157.5t-174.5 -149.5h-156z" horiz-adv-x="1014" unicode="ć"/><glyph d="M121 731q0 228 83.5 399t241.5 262t371 91q224 0 414 -94l-86 -199q-74 35 -156.5 61.5t-173.5 26.5q-206 0 -324 -146t-118 -403q0 -269 113.5 -407t328.5 -138q93 0 180 18.5t181 47.5v-205q-172 -65 -390 -65q-321 0 -493 194.5t-172 556.5zM397 1579v25 q191 198 254 303h260q63 -110 256 -303v-25h-159q-123 73 -228 180q-103 -103 -225 -180h-158z" horiz-adv-x="1298" unicode="Ĉ"/><glyph d="M102 547q0 279 136.5 429t394.5 150q175 0 315 -65l-71 -189q-149 58 -246 58q-287 0 -287 -381q0 -186 71.5 -279.5t209.5 -93.5q157 0 297 78v-205q-63 -37 -134.5 -53t-173.5 -16q-251 0 -381.5 146.5t-130.5 420.5zM197 1241v25q191 198 254 303h260 q63 -110 256 -303v-25h-159q-123 73 -228 180q-103 -103 -225 -180h-158z" horiz-adv-x="1014" unicode="ĉ"/><glyph d="M121 731q0 228 83.5 399t241.5 262t371 91q224 0 414 -94l-86 -199q-74 35 -156.5 61.5t-173.5 26.5q-206 0 -324 -146t-118 -403q0 -269 113.5 -407t328.5 -138q93 0 180 18.5t181 47.5v-205q-172 -65 -390 -65q-321 0 -493 194.5t-172 556.5zM660 1737q0 63 34.5 97 t98.5 34q62 0 96.5 -34t34.5 -97q0 -60 -34.5 -94.5t-96.5 -34.5q-64 0 -98.5 34.5t-34.5 94.5z" horiz-adv-x="1298" unicode="Ċ"/><glyph d="M102 547q0 279 136.5 429t394.5 150q175 0 315 -65l-71 -189q-149 58 -246 58q-287 0 -287 -381q0 -186 71.5 -279.5t209.5 -93.5q157 0 297 78v-205q-63 -37 -134.5 -53t-173.5 -16q-251 0 -381.5 146.5t-130.5 420.5zM480 1399q0 63 34.5 97t98.5 34q62 0 96.5 -34 t34.5 -97q0 -60 -34.5 -94.5t-96.5 -34.5q-64 0 -98.5 34.5t-34.5 94.5z" horiz-adv-x="1014" unicode="ċ"/><glyph d="M121 731q0 228 83.5 399t241.5 262t371 91q224 0 414 -94l-86 -199q-74 35 -156.5 61.5t-173.5 26.5q-206 0 -324 -146t-118 -403q0 -269 113.5 -407t328.5 -138q93 0 180 18.5t181 47.5v-205q-172 -65 -390 -65q-321 0 -493 194.5t-172 556.5zM409 1880v27h158 q138 -90 225 -183q97 100 228 183h159v-27q-126 -131 -177.5 -193t-78.5 -108h-260q-65 105 -254 301z" horiz-adv-x="1298" unicode="Č"/><glyph d="M102 547q0 279 136.5 429t394.5 150q175 0 315 -65l-71 -189q-149 58 -246 58q-287 0 -287 -381q0 -186 71.5 -279.5t209.5 -93.5q157 0 297 78v-205q-63 -37 -134.5 -53t-173.5 -16q-251 0 -381.5 146.5t-130.5 420.5zM222 1542v27h158q138 -90 225 -183q97 100 228 183 h159v-27q-126 -131 -177.5 -193t-78.5 -108h-260q-65 105 -254 301z" horiz-adv-x="1014" unicode="č"/><glyph d="M193 0v1462h452q349 0 543 -188t194 -529q0 -362 -201 -553.5t-579 -191.5h-409zM432 201h170q528 0 528 536q0 525 -491 525h-207v-1061zM323 1880v27h158q138 -90 225 -183q97 100 228 183h159v-27q-126 -131 -177.5 -193t-78.5 -108h-260q-65 105 -254 301z" horiz-adv-x="1503" unicode="Ď"/><glyph d="M102 551q0 272 117.5 423.5t325.5 151.5q218 0 332 -161h12q-17 119 -17 188v403h236v-1556h-184l-41 145h-11q-113 -165 -331 -165q-207 0 -323 150t-116 421zM344 547q0 -184 65 -280.5t195 -96.5q145 0 211 81.5t68 264.5v33q0 209 -68 297t-213 88 q-124 0 -191 -100.5t-67 -286.5zM1200 1229v24q47 158 65 303h226v-20q-23 -62 -68 -151.5t-88 -155.5h-135z" horiz-adv-x="1276" unicode="ď"/><glyph d="M47 623v200h146v639h446q347 0 541 -188.5t194 -528.5q0 -360 -201 -552.5t-579 -192.5h-401v623h-146zM432 201h160q530 0 530 536q0 260 -124.5 392.5t-368.5 132.5h-197v-439h307v-200h-307v-422z" horiz-adv-x="1497" unicode="Đ"/><glyph d="M102 535q0 277 110.5 419t328.5 142q222 0 336 -162h12q-3 10 -10 79t-7 113v93h-383v163h383v174h236v-174h156v-163h-156v-1219h-193l-43 145h-10q-108 -165 -325 -165q-206 0 -320.5 147.5t-114.5 407.5zM354 532q0 -362 256 -362q142 0 207.5 79.5t65.5 252.5v33 q0 204 -64.5 286t-216.5 82q-125 0 -186.5 -88.5t-61.5 -282.5z" horiz-adv-x="1292" unicode="đ"/><glyph d="M193 0v1462h827v-202h-588v-398h551v-200h-551v-459h588v-203h-827zM295 1579v174h639v-174h-639z" horiz-adv-x="1143" unicode="Ē"/><glyph d="M102 545q0 271 135 426t371 155q219 0 346 -133t127 -366v-127h-737q5 -161 87 -247.5t231 -86.5q98 0 182.5 18.5t181.5 61.5v-191q-86 -41 -174 -58t-201 -17q-258 0 -403.5 150.5t-145.5 414.5zM348 670h502q-2 137 -66 207.5t-176 70.5t-179.5 -71t-80.5 -207z M293 1241v174h639v-174h-639z" horiz-adv-x="1180" unicode="ē"/><glyph d="M193 0v1462h827v-202h-588v-398h551v-200h-551v-459h588v-203h-827zM259 1882h137q5 -48 27 -76.5t62.5 -40.5t123.5 -12q105 0 155.5 33t57.5 96h140q-12 -141 -108 -222t-249 -81q-157 0 -247.5 79.5t-98.5 223.5z" horiz-adv-x="1143" unicode="Ĕ"/><glyph d="M102 545q0 271 135 426t371 155q219 0 346 -133t127 -366v-127h-737q5 -161 87 -247.5t231 -86.5q98 0 182.5 18.5t181.5 61.5v-191q-86 -41 -174 -58t-201 -17q-258 0 -403.5 150.5t-145.5 414.5zM348 670h502q-2 137 -66 207.5t-176 70.5t-179.5 -71t-80.5 -207z M259 1544h137q5 -48 27 -76.5t62.5 -40.5t123.5 -12q105 0 155.5 33t57.5 96h140q-12 -141 -108 -222t-249 -81q-157 0 -247.5 79.5t-98.5 223.5z" horiz-adv-x="1180" unicode="ĕ"/><glyph d="M193 0v1462h827v-202h-588v-398h551v-200h-551v-459h588v-203h-827zM488 1708q0 63 34.5 97t98.5 34q62 0 96.5 -34t34.5 -97q0 -60 -34.5 -94.5t-96.5 -34.5q-64 0 -98.5 34.5t-34.5 94.5z" horiz-adv-x="1143" unicode="Ė"/><glyph d="M102 545q0 271 135 426t371 155q219 0 346 -133t127 -366v-127h-737q5 -161 87 -247.5t231 -86.5q98 0 182.5 18.5t181.5 61.5v-191q-86 -41 -174 -58t-201 -17q-258 0 -403.5 150.5t-145.5 414.5zM348 670h502q-2 137 -66 207.5t-176 70.5t-179.5 -71t-80.5 -207z M484 1399q0 63 34.5 97t98.5 34q62 0 96.5 -34t34.5 -97q0 -60 -34.5 -94.5t-96.5 -34.5q-64 0 -98.5 34.5t-34.5 94.5z" horiz-adv-x="1180" unicode="ė"/><glyph d="M193 0v1462h827v-202h-588v-398h551v-200h-551v-459h588v-203h-827zM619 -260q0 65 38 127t132 133h149q-69 -66 -106 -120.5t-37 -112.5q0 -89 88 -89q43 0 104 17v-144q-69 -20 -139 -20q-113 0 -171 56.5t-58 152.5z" horiz-adv-x="1143" unicode="Ę"/><glyph d="M102 545q0 271 135 426t371 155q219 0 346 -133t127 -366v-127h-737q5 -161 87 -247.5t231 -86.5q98 0 182.5 18.5t181.5 61.5v-191q-86 -41 -174 -58t-201 -17q-258 0 -403.5 150.5t-145.5 414.5zM348 670h502q-2 137 -66 207.5t-176 70.5t-179.5 -71t-80.5 -207z M617 -235q0 65 38 127t132 133h149q-69 -66 -106 -120.5t-37 -112.5q0 -89 88 -89q43 0 104 17v-144q-69 -20 -139 -20q-113 0 -171 56.5t-58 152.5z" horiz-adv-x="1180" unicode="ę"/><glyph d="M193 0v1462h827v-202h-588v-398h551v-200h-551v-459h588v-203h-827zM229 1880v27h158q138 -90 225 -183q97 100 228 183h159v-27q-126 -131 -177.5 -193t-78.5 -108h-260q-65 105 -254 301z" horiz-adv-x="1143" unicode="Ě"/><glyph d="M102 545q0 271 135 426t371 155q219 0 346 -133t127 -366v-127h-737q5 -161 87 -247.5t231 -86.5q98 0 182.5 18.5t181.5 61.5v-191q-86 -41 -174 -58t-201 -17q-258 0 -403.5 150.5t-145.5 414.5zM348 670h502q-2 137 -66 207.5t-176 70.5t-179.5 -71t-80.5 -207z M226 1542v27h158q138 -90 225 -183q97 100 228 183h159v-27q-126 -131 -177.5 -193t-78.5 -108h-260q-65 105 -254 301z" horiz-adv-x="1180" unicode="ě"/><glyph d="M121 731q0 353 203 552.5t559 199.5q229 0 434 -88l-84 -199q-178 82 -356 82q-234 0 -370 -147t-136 -402q0 -268 122.5 -407.5t352.5 -139.5q116 0 248 29v377h-303v205h538v-734q-132 -43 -253.5 -61t-262.5 -18q-332 0 -512 196.5t-180 554.5zM436 1579v25 q191 198 254 303h260q63 -110 256 -303v-25h-159q-123 73 -228 180q-103 -103 -225 -180h-158z" horiz-adv-x="1487" unicode="Ĝ"/><glyph d="M23 -184q0 102 64.5 171.5t180.5 96.5q-47 20 -77.5 64.5t-30.5 93.5q0 62 35 105t104 85q-86 37 -139.5 120.5t-53.5 195.5q0 180 113.5 279t323.5 99q47 0 98.5 -6.5t77.5 -13.5h383v-129l-189 -35q26 -35 43 -86t17 -108q0 -171 -118 -269t-325 -98q-53 0 -96 8 q-76 -47 -76 -110q0 -38 35.5 -57t130.5 -19h193q183 0 278 -78t95 -225q0 -188 -155 -290t-448 -102q-226 0 -345 80t-119 228zM233 -172q0 -76 68.5 -117t192.5 -41q192 0 286 55t94 146q0 72 -51.5 102.5t-191.5 30.5h-178q-101 0 -160.5 -47.5t-59.5 -128.5zM334 748 q0 -104 53.5 -160t153.5 -56q204 0 204 218q0 108 -50.5 166.5t-153.5 58.5q-102 0 -154.5 -58t-52.5 -169zM183 1241v25q191 198 254 303h260q63 -110 256 -303v-25h-159q-123 73 -228 180q-103 -103 -225 -180h-158z" horiz-adv-x="1139" unicode="ĝ"/><glyph d="M121 731q0 353 203 552.5t559 199.5q229 0 434 -88l-84 -199q-178 82 -356 82q-234 0 -370 -147t-136 -402q0 -268 122.5 -407.5t352.5 -139.5q116 0 248 29v377h-303v205h538v-734q-132 -43 -253.5 -61t-262.5 -18q-332 0 -512 196.5t-180 554.5zM483 1882h137 q5 -48 27 -76.5t62.5 -40.5t123.5 -12q105 0 155.5 33t57.5 96h140q-12 -141 -108 -222t-249 -81q-157 0 -247.5 79.5t-98.5 223.5z" horiz-adv-x="1487" unicode="Ğ"/><glyph d="M23 -184q0 102 64.5 171.5t180.5 96.5q-47 20 -77.5 64.5t-30.5 93.5q0 62 35 105t104 85q-86 37 -139.5 120.5t-53.5 195.5q0 180 113.5 279t323.5 99q47 0 98.5 -6.5t77.5 -13.5h383v-129l-189 -35q26 -35 43 -86t17 -108q0 -171 -118 -269t-325 -98q-53 0 -96 8 q-76 -47 -76 -110q0 -38 35.5 -57t130.5 -19h193q183 0 278 -78t95 -225q0 -188 -155 -290t-448 -102q-226 0 -345 80t-119 228zM233 -172q0 -76 68.5 -117t192.5 -41q192 0 286 55t94 146q0 72 -51.5 102.5t-191.5 30.5h-178q-101 0 -160.5 -47.5t-59.5 -128.5zM334 748 q0 -104 53.5 -160t153.5 -56q204 0 204 218q0 108 -50.5 166.5t-153.5 58.5q-102 0 -154.5 -58t-52.5 -169zM220 1544h137q5 -48 27 -76.5t62.5 -40.5t123.5 -12q105 0 155.5 33t57.5 96h140q-12 -141 -108 -222t-249 -81q-157 0 -247.5 79.5t-98.5 223.5z" horiz-adv-x="1139" unicode="ğ"/><glyph d="M121 731q0 353 203 552.5t559 199.5q229 0 434 -88l-84 -199q-178 82 -356 82q-234 0 -370 -147t-136 -402q0 -268 122.5 -407.5t352.5 -139.5q116 0 248 29v377h-303v205h538v-734q-132 -43 -253.5 -61t-262.5 -18q-332 0 -512 196.5t-180 554.5zM713 1737q0 63 34.5 97 t98.5 34q62 0 96.5 -34t34.5 -97q0 -60 -34.5 -94.5t-96.5 -34.5q-64 0 -98.5 34.5t-34.5 94.5z" horiz-adv-x="1487" unicode="Ġ"/><glyph d="M23 -184q0 102 64.5 171.5t180.5 96.5q-47 20 -77.5 64.5t-30.5 93.5q0 62 35 105t104 85q-86 37 -139.5 120.5t-53.5 195.5q0 180 113.5 279t323.5 99q47 0 98.5 -6.5t77.5 -13.5h383v-129l-189 -35q26 -35 43 -86t17 -108q0 -171 -118 -269t-325 -98q-53 0 -96 8 q-76 -47 -76 -110q0 -38 35.5 -57t130.5 -19h193q183 0 278 -78t95 -225q0 -188 -155 -290t-448 -102q-226 0 -345 80t-119 228zM233 -172q0 -76 68.5 -117t192.5 -41q192 0 286 55t94 146q0 72 -51.5 102.5t-191.5 30.5h-178q-101 0 -160.5 -47.5t-59.5 -128.5zM334 748 q0 -104 53.5 -160t153.5 -56q204 0 204 218q0 108 -50.5 166.5t-153.5 58.5q-102 0 -154.5 -58t-52.5 -169zM428 1399q0 63 34.5 97t98.5 34q62 0 96.5 -34t34.5 -97q0 -60 -34.5 -94.5t-96.5 -34.5q-64 0 -98.5 34.5t-34.5 94.5z" horiz-adv-x="1139" unicode="ġ"/><glyph d="M121 731q0 353 203 552.5t559 199.5q229 0 434 -88l-84 -199q-178 82 -356 82q-234 0 -370 -147t-136 -402q0 -268 122.5 -407.5t352.5 -139.5q116 0 248 29v377h-303v205h538v-734q-132 -43 -253.5 -61t-262.5 -18q-332 0 -512 196.5t-180 554.5zM645 -428 q23 64 44.5 150.5t29.5 152.5h225v-20q-29 -80 -75 -166t-88 -142h-136v25z" horiz-adv-x="1487" unicode="Ģ"/><glyph d="M23 -184q0 102 64.5 171.5t180.5 96.5q-47 20 -77.5 64.5t-30.5 93.5q0 62 35 105t104 85q-86 37 -139.5 120.5t-53.5 195.5q0 180 113.5 279t323.5 99q47 0 98.5 -6.5t77.5 -13.5h383v-129l-189 -35q26 -35 43 -86t17 -108q0 -171 -118 -269t-325 -98q-53 0 -96 8 q-76 -47 -76 -110q0 -38 35.5 -57t130.5 -19h193q183 0 278 -78t95 -225q0 -188 -155 -290t-448 -102q-226 0 -345 80t-119 228zM233 -172q0 -76 68.5 -117t192.5 -41q192 0 286 55t94 146q0 72 -51.5 102.5t-191.5 30.5h-178q-101 0 -160.5 -47.5t-59.5 -128.5zM334 748 q0 -104 53.5 -160t153.5 -56q204 0 204 218q0 108 -50.5 166.5t-153.5 58.5q-102 0 -154.5 -58t-52.5 -169zM436 1241v19q28 77 74.5 163.5t89.5 145.5h135v-27q-19 -53 -41.5 -141.5t-31.5 -159.5h-226z" horiz-adv-x="1139" unicode="ģ"/><glyph d="M193 0v1462h239v-598h674v598h240v-1462h-240v659h-674v-659h-239zM381 1579v25q191 198 254 303h260q63 -110 256 -303v-25h-159q-123 73 -228 180q-103 -103 -225 -180h-158z" horiz-adv-x="1538" unicode="Ĥ"/><glyph d="M168 0v1556h235v-395q0 -95 -12 -203h15q48 80 133.5 124t199.5 44q402 0 402 -405v-721h-236v680q0 128 -51.5 191t-163.5 63q-148 0 -217.5 -88.5t-69.5 -296.5v-549h-235zM268 1634v25q191 198 254 303h260q63 -110 256 -303v-25h-159q-123 73 -228 180 q-103 -103 -225 -180h-158z" horiz-adv-x="1300" unicode="ĥ"/><glyph d="M0 1071v170h193v221h239v-221h674v221h240v-221h192v-170h-192v-1071h-240v659h-674v-659h-239v1071h-193zM432 864h674v207h-674v-207z" horiz-adv-x="1538" unicode="Ħ"/><glyph d="M12 1219v163h156v174h235v-174h381v-163h-381v-107q0 -29 -2 -69.5t-10 -133.5h15q54 87 141.5 127.5t193.5 40.5q400 0 400 -405v-672h-236v631q0 127 -51.5 190.5t-163.5 63.5q-148 0 -217.5 -88.5t-69.5 -296.5v-500h-235v1219h-156z" horiz-adv-x="1300" unicode="ħ"/><glyph d="M193 0v1462h239v-1462h-239zM-78 1577q12 139 77.5 212t167.5 73q43 0 84 -17.5t80 -39t75.5 -39t70.5 -17.5q79 0 106 115h125q-12 -134 -77 -209.5t-169 -75.5q-42 0 -82.5 17.5t-79.5 39t-76 39t-71 17.5q-81 0 -109 -115h-122z" horiz-adv-x="625" unicode="Ĩ"/><glyph d="M168 0v1106h235v-1106h-235zM-105 1239q12 139 77.5 212t167.5 73q43 0 84 -17.5t80 -39t75.5 -39t70.5 -17.5q79 0 106 115h125q-12 -134 -77 -209.5t-169 -75.5q-42 0 -82.5 17.5t-79.5 39t-76 39t-71 17.5q-81 0 -109 -115h-122z" horiz-adv-x="571" unicode="ĩ"/><glyph d="M193 0v1462h239v-1462h-239zM-5 1579v174h639v-174h-639z" horiz-adv-x="625" unicode="Ī"/><glyph d="M168 0v1106h235v-1106h-235zM-32 1241v174h639v-174h-639z" horiz-adv-x="571" unicode="ī"/><glyph d="M193 0v1462h239v-1462h-239zM-38 1882h137q5 -48 27 -76.5t62.5 -40.5t123.5 -12q105 0 155.5 33t57.5 96h140q-12 -141 -108 -222t-249 -81q-157 0 -247.5 79.5t-98.5 223.5z" horiz-adv-x="625" unicode="Ĭ"/><glyph d="M168 0v1106h235v-1106h-235zM-67 1544h137q5 -48 27 -76.5t62.5 -40.5t123.5 -12q105 0 155.5 33t57.5 96h140q-12 -141 -108 -222t-249 -81q-157 0 -247.5 79.5t-98.5 223.5z" horiz-adv-x="571" unicode="ĭ"/><glyph d="M193 0v1462h239v-1462h-239zM76 -260q0 65 38 127t132 133h149q-69 -66 -106 -120.5t-37 -112.5q0 -89 88 -89q43 0 104 17v-144q-69 -20 -139 -20q-113 0 -171 56.5t-58 152.5z" horiz-adv-x="625" unicode="Į"/><glyph d="M154 1399q0 63 34.5 97t98.5 34q62 0 96.5 -34t34.5 -97q0 -60 -34.5 -94.5t-96.5 -34.5q-64 0 -98.5 34.5t-34.5 94.5zM168 0v1106h235v-1106h-235zM48 -260q0 65 38 127t132 133h149q-69 -66 -106 -120.5t-37 -112.5q0 -89 88 -89q43 0 104 17v-144q-69 -20 -139 -20 q-113 0 -171 56.5t-58 152.5z" horiz-adv-x="571" unicode="į"/><glyph d="M193 0v1462h239v-1462h-239zM179 1737q0 63 34.5 97t98.5 34q62 0 96.5 -34t34.5 -97q0 -60 -34.5 -94.5t-96.5 -34.5q-64 0 -98.5 34.5t-34.5 94.5z" horiz-adv-x="625" unicode="İ"/><glyph d="M168 0v1106h235v-1106h-235z" horiz-adv-x="571" unicode="ı"/><glyph d="M193 0v1462h239v-1462h-239zM469 -182q84 -21 146 -21q196 0 196 248v1417h240v-1409q0 -224 -106.5 -342.5t-311.5 -118.5q-98 0 -164 25v201z" horiz-adv-x="1237" unicode="Ĳ"/><glyph d="M154 1399q0 63 34.5 97t98.5 34q62 0 96.5 -34t34.5 -97q0 -60 -34.5 -94.5t-96.5 -34.5q-64 0 -98.5 34.5t-34.5 94.5zM168 0v1106h235v-1106h-235zM430 -281q68 -18 139 -18q150 0 150 170v1235h235v-1251q0 -171 -89.5 -259t-258.5 -88q-106 0 -176 25v186zM705 1399 q0 63 34.5 97t98.5 34q62 0 96.5 -34t34.5 -97q0 -60 -34.5 -94.5t-96.5 -34.5q-64 0 -98.5 34.5t-34.5 94.5z" horiz-adv-x="1122" unicode="ĳ"/><glyph d="M-156 -182q84 -21 146 -21q196 0 196 248v1417h240v-1409q0 -224 -106.5 -342.5t-311.5 -118.5q-98 0 -164 25v201zM-75 1579v25q191 198 254 303h260q63 -110 256 -303v-25h-159q-123 73 -228 180q-103 -103 -225 -180h-158z" horiz-adv-x="612" unicode="Ĵ"/><glyph d="M-121 -281q68 -18 139 -18q150 0 150 170v1235h235v-1251q0 -171 -89.5 -259t-258.5 -88q-106 0 -176 25v186zM-104 1241v25q191 198 254 303h260q63 -110 256 -303v-25h-159q-123 73 -228 180q-103 -103 -225 -180h-158z" horiz-adv-x="571" unicode="ĵ"/><glyph d="M193 0v1462h239v-698q98 120 195 231l395 467h272q-383 -450 -549 -641l564 -821h-277l-459 662l-141 -115v-547h-239zM503 -428q23 64 44.5 150.5t29.5 152.5h225v-20q-29 -80 -75 -166t-88 -142h-136v25z" horiz-adv-x="1309" unicode="Ķ"/><glyph d="M168 0v1556h233v-759l-12 -213h6l133 166l334 356h271l-445 -475l473 -631h-276l-355 485l-129 -106v-379h-233zM438 -428q23 64 44.5 150.5t29.5 152.5h225v-20q-29 -80 -75 -166t-88 -142h-136v25z" horiz-adv-x="1171" unicode="ķ"/><glyph d="M168 0v1106h242v-289q0 -128 -11 -260l467 549h267l-428 -498l454 -608h-274l-336 465l-139 -103v-362h-242z" horiz-adv-x="1165" unicode="ĸ"/><glyph d="M193 0v1462h239v-1257h619v-205h-858zM252 1579v25q57 70 117.5 156t95.5 147h273v-21q-52 -61 -155.5 -157.5t-174.5 -149.5h-156z" horiz-adv-x="1110" unicode="Ĺ"/><glyph d="M168 0v1556h235v-1556h-235zM170 1636v25q57 70 117.5 156t95.5 147h273v-21q-52 -61 -155.5 -157.5t-174.5 -149.5h-156z" horiz-adv-x="571" unicode="ĺ"/><glyph d="M193 0v1462h239v-1257h619v-205h-858zM419 -428q23 64 44.5 150.5t29.5 152.5h225v-20q-29 -80 -75 -166t-88 -142h-136v25z" horiz-adv-x="1110" unicode="Ļ"/><glyph d="M168 0v1556h235v-1556h-235zM93 -428q23 64 44.5 150.5t29.5 152.5h225v-20q-29 -80 -75 -166t-88 -142h-136v25z" horiz-adv-x="571" unicode="ļ"/><glyph d="M193 0v1462h239v-1257h619v-205h-858zM699 1136v24q47 158 65 303h226v-20q-23 -62 -68 -151.5t-88 -155.5h-135z" horiz-adv-x="1110" unicode="Ľ"/><glyph d="M168 0v1556h235v-1556h-235zM496 1229v24q47 158 65 303h226v-20q-23 -62 -68 -151.5t-88 -155.5h-135z" horiz-adv-x="571" unicode="ľ"/><glyph d="M193 0v1462h239v-1257h619v-205h-858zM691 738q0 63 34.5 97t98.5 34q62 0 96.5 -34t34.5 -97q0 -60 -34.5 -94.5t-96.5 -34.5q-64 0 -98.5 34.5t-34.5 94.5z" horiz-adv-x="1110" unicode="Ŀ"/><glyph d="M168 0v1556h235v-1556h-235zM535 687q0 63 34.5 97t98.5 34q62 0 96.5 -34t34.5 -97q0 -60 -34.5 -94.5t-96.5 -34.5q-64 0 -98.5 34.5t-34.5 94.5z" horiz-adv-x="760" unicode="ŀ"/><glyph d="M14 604l179 107v751h239v-608l219 131l92 -158l-311 -184v-438h619v-205h-858v500l-89 -51z" horiz-adv-x="1114" unicode="Ł"/><glyph d="M-2 633l182 117v806h236v-659l102 68l94 -154l-196 -127v-684h-236v537l-92 -58z" horiz-adv-x="604" unicode="ł"/><glyph d="M193 0v1462h290l717 -1159h6q-2 23 -8 167.5t-6 225.5v766h219v-1462h-293l-719 1165h-8l5 -65q14 -186 14 -340v-760h-217zM653 1579v25q57 70 117.5 156t95.5 147h273v-21q-52 -61 -155.5 -157.5t-174.5 -149.5h-156z" horiz-adv-x="1604" unicode="Ń"/><glyph d="M168 0v1106h184l33 -145h12q50 79 142 122t204 43q398 0 398 -405v-721h-236v680q0 128 -51.5 191t-163.5 63q-149 0 -218 -88t-69 -295v-551h-235zM507 1241v25q57 70 117.5 156t95.5 147h273v-21q-52 -61 -155.5 -157.5t-174.5 -149.5h-156z" horiz-adv-x="1300" unicode="ń"/><glyph d="M193 0v1462h290l717 -1159h6q-2 23 -8 167.5t-6 225.5v766h219v-1462h-293l-719 1165h-8l5 -65q14 -186 14 -340v-760h-217zM583 -428q23 64 44.5 150.5t29.5 152.5h225v-20q-29 -80 -75 -166t-88 -142h-136v25z" horiz-adv-x="1604" unicode="Ņ"/><glyph d="M168 0v1106h184l33 -145h12q50 79 142 122t204 43q398 0 398 -405v-721h-236v680q0 128 -51.5 191t-163.5 63q-149 0 -218 -88t-69 -295v-551h-235zM458 -428q23 64 44.5 150.5t29.5 152.5h225v-20q-29 -80 -75 -166t-88 -142h-136v25z" horiz-adv-x="1300" unicode="ņ"/><glyph d="M193 0v1462h290l717 -1159h6q-2 23 -8 167.5t-6 225.5v766h219v-1462h-293l-719 1165h-8l5 -65q14 -186 14 -340v-760h-217zM428 1880v27h158q138 -90 225 -183q97 100 228 183h159v-27q-126 -131 -177.5 -193t-78.5 -108h-260q-65 105 -254 301z" horiz-adv-x="1604" unicode="Ň"/><glyph d="M168 0v1106h184l33 -145h12q50 79 142 122t204 43q398 0 398 -405v-721h-236v680q0 128 -51.5 191t-163.5 63q-149 0 -218 -88t-69 -295v-551h-235zM280 1542v27h158q138 -90 225 -183q97 100 228 183h159v-27q-126 -131 -177.5 -193t-78.5 -108h-260q-65 105 -254 301z" horiz-adv-x="1300" unicode="ň"/><glyph d="M361 0v1106h184l33 -145h12q50 79 142 122t204 43q398 0 398 -405v-721h-236v680q0 128 -51.5 191t-163.5 63q-149 0 -218 -88t-69 -295v-551h-235zM3 961q69 289 100 501h231l15 -22q-53 -209 -176 -479h-170z" horiz-adv-x="1495" unicode="ŉ"/><glyph d="M193 0v1462h290l717 -1046h6q-14 123 -14 553v493h219v-1456q0 -201 -109 -307.5t-311 -106.5q-104 0 -174 25v203q74 -21 160 -21q106 0 162 53t61 150l-801 1163h-8l5 -62q14 -193 14 -358v-745h-217z" horiz-adv-x="1604" unicode="Ŋ"/><glyph d="M168 0v1106h184l33 -145h14q49 79 138.5 122t203.5 43q203 0 301.5 -101t98.5 -304v-866q0 -169 -83 -258t-241 -89q-98 0 -164 25v186q58 -18 121 -18q131 0 131 170v821q0 122 -52.5 182t-162.5 60q-149 0 -218 -88t-69 -295v-551h-235z" horiz-adv-x="1300" unicode="ŋ"/><glyph d="M121 735q0 362 178.5 556t509.5 194q326 0 504 -197t178 -555q0 -357 -178.5 -555t-505.5 -198q-331 0 -508.5 196.5t-177.5 558.5zM375 733q0 -270 109 -409.5t323 -139.5q213 0 321.5 138t108.5 411q0 269 -107.5 408t-320.5 139q-215 0 -324.5 -139t-109.5 -408z M488 1579v174h639v-174h-639z" horiz-adv-x="1612" unicode="Ō"/><glyph d="M102 555q0 269 138 420t389 151q240 0 380 -154.5t140 -416.5q0 -271 -139 -423t-387 -152q-155 0 -274 70t-183 201t-64 304zM344 555q0 -383 283 -383q280 0 280 383q0 379 -282 379q-148 0 -214.5 -98t-66.5 -281zM305 1241v174h639v-174h-639z" horiz-adv-x="1251" unicode="ō"/><glyph d="M121 735q0 362 178.5 556t509.5 194q326 0 504 -197t178 -555q0 -357 -178.5 -555t-505.5 -198q-331 0 -508.5 196.5t-177.5 558.5zM375 733q0 -270 109 -409.5t323 -139.5q213 0 321.5 138t108.5 411q0 269 -107.5 408t-320.5 139q-215 0 -324.5 -139t-109.5 -408z M455 1882h137q5 -48 27 -76.5t62.5 -40.5t123.5 -12q105 0 155.5 33t57.5 96h140q-12 -141 -108 -222t-249 -81q-157 0 -247.5 79.5t-98.5 223.5z" horiz-adv-x="1612" unicode="Ŏ"/><glyph d="M102 555q0 269 138 420t389 151q240 0 380 -154.5t140 -416.5q0 -271 -139 -423t-387 -152q-155 0 -274 70t-183 201t-64 304zM344 555q0 -383 283 -383q280 0 280 383q0 379 -282 379q-148 0 -214.5 -98t-66.5 -281zM272 1544h137q5 -48 27 -76.5t62.5 -40.5t123.5 -12 q105 0 155.5 33t57.5 96h140q-12 -141 -108 -222t-249 -81q-157 0 -247.5 79.5t-98.5 223.5z" horiz-adv-x="1251" unicode="ŏ"/><glyph d="M121 735q0 362 178.5 556t509.5 194q326 0 504 -197t178 -555q0 -357 -178.5 -555t-505.5 -198q-331 0 -508.5 196.5t-177.5 558.5zM375 733q0 -270 109 -409.5t323 -139.5q213 0 321.5 138t108.5 411q0 269 -107.5 408t-320.5 139q-215 0 -324.5 -139t-109.5 -408z M492 1579v25q104 144 186 303h244v-21q-29 -49 -126 -148t-175 -159h-129zM868 1579v25q43 57 99.5 147.5t87.5 155.5h243v-21q-29 -49 -126 -148t-175 -159h-129z" horiz-adv-x="1612" unicode="Ő"/><glyph d="M102 555q0 269 138 420t389 151q240 0 380 -154.5t140 -416.5q0 -271 -139 -423t-387 -152q-155 0 -274 70t-183 201t-64 304zM344 555q0 -383 283 -383q280 0 280 383q0 379 -282 379q-148 0 -214.5 -98t-66.5 -281zM299 1241v25q104 144 186 303h244v-21 q-29 -49 -126 -148t-175 -159h-129zM675 1241v25q43 57 99.5 147.5t87.5 155.5h243v-21q-29 -49 -126 -148t-175 -159h-129z" horiz-adv-x="1251" unicode="ő"/><glyph d="M121 735q0 360 172 555t491 195q115 0 209 -23h826v-202h-576v-398h539v-200h-539v-459h576v-203h-820q-102 -20 -211 -20q-320 0 -493.5 196.5t-173.5 558.5zM371 733q0 -269 106 -409t314 -140q129 0 213 35v1024q-80 37 -211 37q-208 0 -315 -139t-107 -408z" horiz-adv-x="1942" unicode="Œ"/><glyph d="M102 555q0 272 137 421.5t382 149.5q121 0 223 -49t168 -145q131 194 379 194q221 0 349 -133.5t128 -365.5v-127h-738q11 -164 85.5 -249t228.5 -85q102 0 187 18.5t181 61.5v-191q-84 -40 -171.5 -57.5t-202.5 -17.5q-281 0 -420 194q-132 -194 -400 -194 q-236 0 -376 155t-140 420zM344 555q0 -189 65.5 -286t211.5 -97q141 0 206.5 95.5t65.5 283.5q0 192 -66 287.5t-211 95.5q-143 0 -207.5 -95t-64.5 -284zM1137 670h497q0 134 -63 206t-178 72q-110 0 -177.5 -69.5t-78.5 -208.5z" horiz-adv-x="1966" unicode="œ"/><glyph d="M193 0v1462h413q283 0 419 -106t136 -320q0 -273 -284 -389l413 -647h-272l-350 584h-236v-584h-239zM432 782h166q167 0 242 62t75 184q0 124 -81 178t-244 54h-158v-478zM495 1579v25q57 70 117.5 156t95.5 147h273v-21q-52 -61 -155.5 -157.5t-174.5 -149.5h-156z" horiz-adv-x="1309" unicode="Ŕ"/><glyph d="M168 0v1106h184l31 -195h12q55 99 143.5 157t190.5 58q71 0 117 -10l-23 -219q-50 12 -104 12q-141 0 -228.5 -92t-87.5 -239v-578h-235zM349 1241v25q57 70 117.5 156t95.5 147h273v-21q-52 -61 -155.5 -157.5t-174.5 -149.5h-156z" horiz-adv-x="883" unicode="ŕ"/><glyph d="M193 0v1462h413q283 0 419 -106t136 -320q0 -273 -284 -389l413 -647h-272l-350 584h-236v-584h-239zM432 782h166q167 0 242 62t75 184q0 124 -81 178t-244 54h-158v-478zM510 -428q23 64 44.5 150.5t29.5 152.5h225v-20q-29 -80 -75 -166t-88 -142h-136v25z" horiz-adv-x="1309" unicode="Ŗ"/><glyph d="M168 0v1106h184l31 -195h12q55 99 143.5 157t190.5 58q71 0 117 -10l-23 -219q-50 12 -104 12q-141 0 -228.5 -92t-87.5 -239v-578h-235zM97 -428q23 64 44.5 150.5t29.5 152.5h225v-20q-29 -80 -75 -166t-88 -142h-136v25z" horiz-adv-x="883" unicode="ŗ"/><glyph d="M193 0v1462h413q283 0 419 -106t136 -320q0 -273 -284 -389l413 -647h-272l-350 584h-236v-584h-239zM432 782h166q167 0 242 62t75 184q0 124 -81 178t-244 54h-158v-478zM266 1880v27h158q138 -90 225 -183q97 100 228 183h159v-27q-126 -131 -177.5 -193t-78.5 -108 h-260q-65 105 -254 301z" horiz-adv-x="1309" unicode="Ř"/><glyph d="M168 0v1106h184l31 -195h12q55 99 143.5 157t190.5 58q71 0 117 -10l-23 -219q-50 12 -104 12q-141 0 -228.5 -92t-87.5 -239v-578h-235zM107 1542v27h158q138 -90 225 -183q97 100 228 183h159v-27q-126 -131 -177.5 -193t-78.5 -108h-260q-65 105 -254 301z" horiz-adv-x="883" unicode="ř"/><glyph d="M100 57v226q100 -47 212.5 -74t209.5 -27q142 0 209.5 54t67.5 145q0 82 -62 139t-256 135q-200 81 -282 185t-82 250q0 183 130 288t349 105q210 0 418 -92l-76 -195q-195 82 -348 82q-116 0 -176 -50.5t-60 -133.5q0 -57 24 -97.5t79 -76.5t198 -95q161 -67 236 -125 t110 -131t35 -172q0 -195 -141 -306t-389 -111t-406 77zM440 1579v25q57 70 117.5 156t95.5 147h273v-21q-52 -61 -155.5 -157.5t-174.5 -149.5h-156z" horiz-adv-x="1126" unicode="Ś"/><glyph d="M98 827q0 142 114.5 220.5t311.5 78.5q195 0 369 -79l-76 -177q-179 74 -301 74q-186 0 -186 -106q0 -52 48.5 -88t211.5 -99q137 -53 199 -97t92 -101.5t30 -137.5q0 -162 -118 -248.5t-338 -86.5q-221 0 -355 67v203q195 -90 363 -90q217 0 217 131q0 42 -24 70t-79 58 t-153 68q-191 74 -258.5 148t-67.5 192zM357 1241v25q57 70 117.5 156t95.5 147h273v-21q-52 -61 -155.5 -157.5t-174.5 -149.5h-156z" horiz-adv-x="997" unicode="ś"/><glyph d="M100 57v226q100 -47 212.5 -74t209.5 -27q142 0 209.5 54t67.5 145q0 82 -62 139t-256 135q-200 81 -282 185t-82 250q0 183 130 288t349 105q210 0 418 -92l-76 -195q-195 82 -348 82q-116 0 -176 -50.5t-60 -133.5q0 -57 24 -97.5t79 -76.5t198 -95q161 -67 236 -125 t110 -131t35 -172q0 -195 -141 -306t-389 -111t-406 77zM205 1579v25q191 198 254 303h260q63 -110 256 -303v-25h-159q-123 73 -228 180q-103 -103 -225 -180h-158z" horiz-adv-x="1126" unicode="Ŝ"/><glyph d="M98 827q0 142 114.5 220.5t311.5 78.5q195 0 369 -79l-76 -177q-179 74 -301 74q-186 0 -186 -106q0 -52 48.5 -88t211.5 -99q137 -53 199 -97t92 -101.5t30 -137.5q0 -162 -118 -248.5t-338 -86.5q-221 0 -355 67v203q195 -90 363 -90q217 0 217 131q0 42 -24 70t-79 58 t-153 68q-191 74 -258.5 148t-67.5 192zM128 1241v25q191 198 254 303h260q63 -110 256 -303v-25h-159q-123 73 -228 180q-103 -103 -225 -180h-158z" horiz-adv-x="997" unicode="ŝ"/><glyph d="M100 57v226q100 -47 212.5 -74t209.5 -27q142 0 209.5 54t67.5 145q0 82 -62 139t-256 135q-200 81 -282 185t-82 250q0 183 130 288t349 105q210 0 418 -92l-76 -195q-195 82 -348 82q-116 0 -176 -50.5t-60 -133.5q0 -57 24 -97.5t79 -76.5t198 -95q161 -67 236 -125 t110 -131t35 -172q0 -195 -141 -306t-389 -111t-406 77zM324 -340q54 -14 123 -14q54 0 85.5 16.5t31.5 61.5q0 85 -179 110l84 166h152l-41 -88q80 -21 125 -68.5t45 -113.5q0 -222 -305 -222q-66 0 -121 15v137z" horiz-adv-x="1126" unicode="Ş"/><glyph d="M98 827q0 142 114.5 220.5t311.5 78.5q195 0 369 -79l-76 -177q-179 74 -301 74q-186 0 -186 -106q0 -52 48.5 -88t211.5 -99q137 -53 199 -97t92 -101.5t30 -137.5q0 -162 -118 -248.5t-338 -86.5q-221 0 -355 67v203q195 -90 363 -90q217 0 217 131q0 42 -24 70t-79 58 t-153 68q-191 74 -258.5 148t-67.5 192zM256 -340q54 -14 123 -14q54 0 85.5 16.5t31.5 61.5q0 85 -179 110l84 166h152l-41 -88q80 -21 125 -68.5t45 -113.5q0 -222 -305 -222q-66 0 -121 15v137z" horiz-adv-x="997" unicode="ş"/><glyph d="M100 57v226q100 -47 212.5 -74t209.5 -27q142 0 209.5 54t67.5 145q0 82 -62 139t-256 135q-200 81 -282 185t-82 250q0 183 130 288t349 105q210 0 418 -92l-76 -195q-195 82 -348 82q-116 0 -176 -50.5t-60 -133.5q0 -57 24 -97.5t79 -76.5t198 -95q161 -67 236 -125 t110 -131t35 -172q0 -195 -141 -306t-389 -111t-406 77zM203 1880v27h158q138 -90 225 -183q97 100 228 183h159v-27q-126 -131 -177.5 -193t-78.5 -108h-260q-65 105 -254 301z" horiz-adv-x="1126" unicode="Š"/><glyph d="M98 827q0 142 114.5 220.5t311.5 78.5q195 0 369 -79l-76 -177q-179 74 -301 74q-186 0 -186 -106q0 -52 48.5 -88t211.5 -99q137 -53 199 -97t92 -101.5t30 -137.5q0 -162 -118 -248.5t-338 -86.5q-221 0 -355 67v203q195 -90 363 -90q217 0 217 131q0 42 -24 70t-79 58 t-153 68q-191 74 -258.5 148t-67.5 192zM134 1542v27h158q138 -90 225 -183q97 100 228 183h159v-27q-126 -131 -177.5 -193t-78.5 -108h-260q-65 105 -254 301z" horiz-adv-x="997" unicode="š"/><glyph d="M29 1257v205h1099v-205h-430v-1257h-239v1257h-430zM356 -340q54 -14 123 -14q54 0 85.5 16.5t31.5 61.5q0 85 -179 110l84 166h152l-41 -88q80 -21 125 -68.5t45 -113.5q0 -222 -305 -222q-66 0 -121 15v137z" horiz-adv-x="1159" unicode="Ţ"/><glyph d="M39 928v104l162 86l80 234h145v-246h315v-178h-315v-592q0 -85 42.5 -125.5t111.5 -40.5q86 0 172 27v-177q-39 -17 -100.5 -28.5t-127.5 -11.5q-334 0 -334 352v596h-151zM246 -340q54 -14 123 -14q54 0 85.5 16.5t31.5 61.5q0 85 -179 110l84 166h152l-41 -88 q80 -21 125 -68.5t45 -113.5q0 -222 -305 -222q-66 0 -121 15v137z" horiz-adv-x="805" unicode="ţ"/><glyph d="M29 1257v205h1099v-205h-430v-1257h-239v1257h-430zM197 1880v27h158q138 -90 225 -183q97 100 228 183h159v-27q-126 -131 -177.5 -193t-78.5 -108h-260q-65 105 -254 301z" horiz-adv-x="1159" unicode="Ť"/><glyph d="M39 928v104l162 86l80 234h145v-246h315v-178h-315v-592q0 -85 42.5 -125.5t111.5 -40.5q86 0 172 27v-177q-39 -17 -100.5 -28.5t-127.5 -11.5q-334 0 -334 352v596h-151zM555 1239v24q47 158 65 303h226v-20q-23 -62 -68 -151.5t-88 -155.5h-135z" horiz-adv-x="805" unicode="ť"/><glyph d="M29 1257v205h1099v-205h-430v-426h279v-196h-279v-635h-239v635h-281v196h281v426h-430z" horiz-adv-x="1159" unicode="Ŧ"/><glyph d="M39 928v104l162 86l80 234h145v-246h315v-178h-315v-226h289v-163h-289v-195q0 -174 156 -174q77 0 170 27v-177q-38 -17 -100.5 -28.5t-127.5 -11.5q-171 0 -252.5 89t-81.5 269v201h-135v163h135v226h-151z" horiz-adv-x="805" unicode="ŧ"/><glyph d="M180 520v942h240v-925q0 -181 84 -267t258 -86q338 0 338 355v923h239v-946q0 -162 -69.5 -283.5t-201 -187t-314.5 -65.5q-272 0 -423 144t-151 396zM369 1577q12 139 77.5 212t167.5 73q43 0 84 -17.5t80 -39t75.5 -39t70.5 -17.5q79 0 106 115h125 q-12 -134 -77 -209.5t-169 -75.5q-42 0 -82.5 17.5t-79.5 39t-76 39t-71 17.5q-81 0 -109 -115h-122z" horiz-adv-x="1520" unicode="Ũ"/><glyph d="M158 383v723h237v-682q0 -127 52 -190.5t163 -63.5q148 0 217.5 88.5t69.5 296.5v551h236v-1106h-185l-33 145h-12q-49 -77 -139.5 -121t-206.5 -44q-201 0 -300 100t-99 303zM254 1239q12 139 77.5 212t167.5 73q43 0 84 -17.5t80 -39t75.5 -39t70.5 -17.5q79 0 106 115 h125q-12 -134 -77 -209.5t-169 -75.5q-42 0 -82.5 17.5t-79.5 39t-76 39t-71 17.5q-81 0 -109 -115h-122z" horiz-adv-x="1300" unicode="ũ"/><glyph d="M180 520v942h240v-925q0 -181 84 -267t258 -86q338 0 338 355v923h239v-946q0 -162 -69.5 -283.5t-201 -187t-314.5 -65.5q-272 0 -423 144t-151 396zM441 1579v174h639v-174h-639z" horiz-adv-x="1520" unicode="Ū"/><glyph d="M158 383v723h237v-682q0 -127 52 -190.5t163 -63.5q148 0 217.5 88.5t69.5 296.5v551h236v-1106h-185l-33 145h-12q-49 -77 -139.5 -121t-206.5 -44q-201 0 -300 100t-99 303zM326 1241v174h639v-174h-639z" horiz-adv-x="1300" unicode="ū"/><glyph d="M180 520v942h240v-925q0 -181 84 -267t258 -86q338 0 338 355v923h239v-946q0 -162 -69.5 -283.5t-201 -187t-314.5 -65.5q-272 0 -423 144t-151 396zM405 1882h137q5 -48 27 -76.5t62.5 -40.5t123.5 -12q105 0 155.5 33t57.5 96h140q-12 -141 -108 -222t-249 -81 q-157 0 -247.5 79.5t-98.5 223.5z" horiz-adv-x="1520" unicode="Ŭ"/><glyph d="M158 383v723h237v-682q0 -127 52 -190.5t163 -63.5q148 0 217.5 88.5t69.5 296.5v551h236v-1106h-185l-33 145h-12q-49 -77 -139.5 -121t-206.5 -44q-201 0 -300 100t-99 303zM293 1544h137q5 -48 27 -76.5t62.5 -40.5t123.5 -12q105 0 155.5 33t57.5 96h140 q-12 -141 -108 -222t-249 -81q-157 0 -247.5 79.5t-98.5 223.5z" horiz-adv-x="1300" unicode="ŭ"/><glyph d="M180 520v942h240v-925q0 -181 84 -267t258 -86q338 0 338 355v923h239v-946q0 -162 -69.5 -283.5t-201 -187t-314.5 -65.5q-272 0 -423 144t-151 396zM522 1804q0 101 63.5 163.5t172.5 62.5q104 0 171.5 -62t67.5 -162q0 -102 -65.5 -165.5t-173.5 -63.5t-172 62.5 t-64 164.5zM651 1804q0 -106 107 -106q46 0 76 27.5t30 78.5q0 50 -30 78.5t-76 28.5q-47 0 -77 -28.5t-30 -78.5z" horiz-adv-x="1520" unicode="Ů"/><glyph d="M158 383v723h237v-682q0 -127 52 -190.5t163 -63.5q148 0 217.5 88.5t69.5 296.5v551h236v-1106h-185l-33 145h-12q-49 -77 -139.5 -121t-206.5 -44q-201 0 -300 100t-99 303zM407 1466q0 101 63.5 163.5t172.5 62.5q104 0 171.5 -62t67.5 -162q0 -102 -65.5 -165.5 t-173.5 -63.5t-172 62.5t-64 164.5zM536 1466q0 -106 107 -106q46 0 76 27.5t30 78.5q0 50 -30 78.5t-76 28.5q-47 0 -77 -28.5t-30 -78.5z" horiz-adv-x="1300" unicode="ů"/><glyph d="M180 520v942h240v-925q0 -181 84 -267t258 -86q338 0 338 355v923h239v-946q0 -162 -69.5 -283.5t-201 -187t-314.5 -65.5q-272 0 -423 144t-151 396zM447 1579v25q104 144 186 303h244v-21q-29 -49 -126 -148t-175 -159h-129zM823 1579v25q43 57 99.5 147.5t87.5 155.5 h243v-21q-29 -49 -126 -148t-175 -159h-129z" horiz-adv-x="1520" unicode="Ű"/><glyph d="M158 383v723h237v-682q0 -127 52 -190.5t163 -63.5q148 0 217.5 88.5t69.5 296.5v551h236v-1106h-185l-33 145h-12q-49 -77 -139.5 -121t-206.5 -44q-201 0 -300 100t-99 303zM338 1241v25q104 144 186 303h244v-21q-29 -49 -126 -148t-175 -159h-129zM714 1241v25 q43 57 99.5 147.5t87.5 155.5h243v-21q-29 -49 -126 -148t-175 -159h-129z" horiz-adv-x="1300" unicode="ű"/><glyph d="M180 520v942h240v-925q0 -181 84 -267t258 -86q338 0 338 355v923h239v-946q0 -162 -69.5 -283.5t-201 -187t-314.5 -65.5q-272 0 -423 144t-151 396zM586 -260q0 65 38 127t132 133h149q-69 -66 -106 -120.5t-37 -112.5q0 -89 88 -89q43 0 104 17v-144q-69 -20 -139 -20 q-113 0 -171 56.5t-58 152.5z" horiz-adv-x="1520" unicode="Ų"/><glyph d="M158 383v723h237v-682q0 -127 52 -190.5t163 -63.5q148 0 217.5 88.5t69.5 296.5v551h236v-1106h-185l-33 145h-12q-49 -77 -139.5 -121t-206.5 -44q-201 0 -300 100t-99 303zM781 -260q0 65 38 127t132 133h149q-69 -66 -106 -120.5t-37 -112.5q0 -89 88 -89 q43 0 104 17v-144q-69 -20 -139 -20q-113 0 -171 56.5t-58 152.5z" horiz-adv-x="1300" unicode="ų"/><glyph d="M12 1462h244l209 -852q49 -205 70 -362q11 85 33 190t40 170l238 854h237l244 -858q35 -119 74 -356q15 143 72 364l208 850h242l-381 -1462h-260l-248 872q-16 57 -40 164.5t-29 149.5q-10 -64 -32.5 -166t-37.5 -152l-242 -868h-260l-189 732zM581 1579v25 q191 198 254 303h260q63 -110 256 -303v-25h-159q-123 73 -228 180q-103 -103 -225 -180h-158z" horiz-adv-x="1937" unicode="Ŵ"/><glyph d="M20 1106h240l141 -545q48 -202 68 -346h6q10 73 30.5 167.5t35.5 141.5l168 582h258l163 -582q15 -49 37.5 -150t26.5 -157h8q15 123 70 344l143 545h236l-312 -1106h-264l-143 516q-26 82 -94 381h-9q-58 -270 -92 -383l-147 -514h-260zM450 1241v25q191 198 254 303 h260q63 -110 256 -303v-25h-159q-123 73 -228 180q-103 -103 -225 -180h-158z" horiz-adv-x="1673" unicode="ŵ"/><glyph d="M0 1462h260l346 -667l346 667h260l-487 -895v-567h-240v559zM222 1579v25q191 198 254 303h260q63 -110 256 -303v-25h-159q-123 73 -228 180q-103 -103 -225 -180h-158z" horiz-adv-x="1212" unicode="Ŷ"/><glyph d="M0 1106h256l225 -627q51 -134 68 -252h8q9 55 33 133.5t254 745.5h254l-473 -1253q-129 -345 -430 -345q-78 0 -152 17v186q53 -12 121 -12q170 0 239 197l41 104zM169 1241v25q191 198 254 303h260q63 -110 256 -303v-25h-159q-123 73 -228 180q-103 -103 -225 -180 h-158z" horiz-adv-x="1098" unicode="ŷ"/><glyph d="M0 1462h260l346 -667l346 667h260l-487 -895v-567h-240v559zM293 1737q0 62 33.5 89.5t81.5 27.5q53 0 84.5 -31t31.5 -86q0 -53 -32 -85t-84 -32q-48 0 -81.5 29t-33.5 88zM686 1737q0 62 33.5 89.5t81.5 27.5q53 0 85 -31t32 -86q0 -54 -33 -85.5t-84 -31.5 q-48 0 -81.5 29t-33.5 88z" horiz-adv-x="1212" unicode="Ÿ"/><glyph d="M66 0v166l737 1091h-717v205h1006v-168l-740 -1089h760v-205h-1046zM434 1579v25q57 70 117.5 156t95.5 147h273v-21q-52 -61 -155.5 -157.5t-174.5 -149.5h-156z" horiz-adv-x="1178" unicode="Ź"/><glyph d="M68 0v145l559 781h-525v180h789v-164l-547 -762h563v-180h-839zM361 1241v25q57 70 117.5 156t95.5 147h273v-21q-52 -61 -155.5 -157.5t-174.5 -149.5h-156z" horiz-adv-x="979" unicode="ź"/><glyph d="M66 0v166l737 1091h-717v205h1006v-168l-740 -1089h760v-205h-1046zM455 1737q0 63 34.5 97t98.5 34q62 0 96.5 -34t34.5 -97q0 -60 -34.5 -94.5t-96.5 -34.5q-64 0 -98.5 34.5t-34.5 94.5z" horiz-adv-x="1178" unicode="Ż"/><glyph d="M68 0v145l559 781h-525v180h789v-164l-547 -762h563v-180h-839zM357 1399q0 63 34.5 97t98.5 34q62 0 96.5 -34t34.5 -97q0 -60 -34.5 -94.5t-96.5 -34.5q-64 0 -98.5 34.5t-34.5 94.5z" horiz-adv-x="979" unicode="ż"/><glyph d="M66 0v166l737 1091h-717v205h1006v-168l-740 -1089h760v-205h-1046zM210 1880v27h158q138 -90 225 -183q97 100 228 183h159v-27q-126 -131 -177.5 -193t-78.5 -108h-260q-65 105 -254 301z" horiz-adv-x="1178" unicode="Ž"/><glyph d="M68 0v145l559 781h-525v180h789v-164l-547 -762h563v-180h-839zM115 1542v27h158q138 -90 225 -183q97 100 228 183h159v-27q-126 -131 -177.5 -193t-78.5 -108h-260q-65 105 -254 301z" horiz-adv-x="979" unicode="ž"/><glyph d="M168 0v1190q0 190 90.5 283.5t284.5 93.5q131 0 237 -43l-57 -178q-93 30 -164 30q-156 0 -156 -192v-1184h-235z" horiz-adv-x="719" unicode="ſ"/><glyph d="M195 -281q62 -18 124 -18q80 0 115 45t35 148v925h-195v113l195 69v111q0 191 83 281t273 90q78 0 135 -15t99 -30l-58 -176q-87 30 -153 30q-78 0 -110.5 -43.5t-32.5 -140.5v-109h253v-180h-251v-946q0 -365 -353 -365q-87 0 -159 21v190z" horiz-adv-x="1176" unicode="ƒ"/><glyph d="M121 735q0 362 178.5 556t509.5 194q335 0 514 -209q59 23 87 90t28 190h241l15 -22q-32 -167 -100.5 -260.5t-182.5 -136.5q78 -174 78 -404q0 -357 -178 -555t-504 -198q-331 0 -508.5 196.5t-177.5 558.5zM375 733q0 -273 109.5 -411t322.5 -138q430 0 430 549 q0 547 -428 547q-215 0 -324.5 -137.5t-109.5 -409.5z" horiz-adv-x="1642" unicode="Ơ"/><glyph d="M102 555q0 269 138 420t389 151q109 0 204 -35.5t164 -103.5q71 21 106.5 86.5t35.5 200.5h241l15 -23q-37 -179 -109.5 -268.5t-198.5 -126.5q62 -135 62 -301q0 -271 -139 -423t-387 -152q-155 0 -274 70t-183 201t-64 304zM344 555q0 -189 67 -286t216 -97 q147 0 213.5 97t66.5 286q0 187 -67 283t-215 96t-214.5 -96t-66.5 -283z" horiz-adv-x="1319" unicode="ơ"/><glyph d="M180 520v942h240v-938q0 -340 346 -340q334 0 334 342v936h239v-194q78 18 115 87.5t37 200.5h240l14 -22q-27 -142 -75.5 -221t-130 -129t-200.5 -68v-600q0 -251 -152 -393.5t-427 -142.5q-276 0 -428 144t-152 396z" horiz-adv-x="1692" unicode="Ư"/><glyph d="M158 383v723h237v-682q0 -127 52 -190.5t163 -63.5q148 0 217.5 88.5t69.5 296.5v551h236v-119q79 18 116 88.5t37 200.5h240l14 -23q-28 -145 -77 -225.5t-130.5 -130t-199.5 -63.5v-834h-185l-33 145h-14q-49 -77 -137.5 -121t-204.5 -44q-202 0 -301.5 100t-99.5 303z" horiz-adv-x="1458" unicode="ư"/><glyph d="M-121 -281q68 -18 139 -18q150 0 150 170v1235h235v-1251q0 -171 -89.5 -259t-258.5 -88q-106 0 -176 25v186zM-100 1542v27h158q138 -90 225 -183q97 100 228 183h159v-27q-126 -131 -177.5 -193t-78.5 -108h-260q-65 105 -254 301z" horiz-adv-x="571" unicode="ǰ"/><glyph d="M0 0l516 1276q-76 58 -76 168q0 102 64.5 163.5t171.5 61.5q103 0 171 -60.5t68 -162.5q0 -106 -75 -168l516 -1278h-252l-141 365h-574l-137 -365h-252zM455 571h448l-117 308q-81 198 -108 305q-12 -38 -25.5 -78t-197.5 -535zM567 1722v19q30 29 86 98.5t88 122.5h273 v-14q-31 -39 -126.5 -111.5t-162.5 -114.5h-158zM569 1444q0 -50 25.5 -78.5t75.5 -28.5h10q45 0 73.5 28.5t28.5 78.5q0 51 -30 78.5t-76 27.5q-47 0 -77 -27.5t-30 -78.5z" horiz-adv-x="1356" unicode="Ǻ"/><glyph d="M90 317q0 169 128.5 257t385.5 96l191 6v59q0 105 -51 158t-152 53q-71 0 -149 -21t-164 -63l-76 168q96 48 195.5 72t203.5 24q213 0 319.5 -95.5t106.5 -285.5v-745h-168l-47 154h-8q-67 -87 -159 -130.5t-210 -43.5q-160 0 -253 88t-93 249zM334 315q0 -78 44 -116.5 t132 -38.5q127 0 205 71.5t78 200.5v96l-142 -6q-159 -7 -238 -59t-79 -148zM367 1446q0 104 65.5 164.5t169.5 60.5q100 0 170 -59.5t70 -163.5q0 -109 -68.5 -169t-171.5 -60q-104 0 -169.5 60t-65.5 167zM471 1753v16q98 91 174 193h301v-12q-59 -64 -313 -197h-162z M496 1446q0 -54 26.5 -80.5t79.5 -26.5t80 26.5t27 80.5q0 53 -27 79.5t-80 26.5t-79.5 -26.5t-26.5 -79.5z" horiz-adv-x="1188" unicode="ǻ"/><glyph d="M-2 0l678 1462h1071v-202h-571v-398h532v-200h-532v-459h571v-203h-811v406h-504l-188 -406h-246zM522 612h414v641h-123zM991 1579v25q57 70 117.5 156t95.5 147h273v-21q-52 -61 -155.5 -157.5t-174.5 -149.5h-156z" horiz-adv-x="1868" unicode="Ǽ"/><glyph d="M90 317q0 172 121.5 258.5t370.5 94.5l188 6v76q0 194 -201 194q-141 0 -307 -82l-74 166q88 47 192.5 71.5t203.5 24.5q241 0 340 -155q120 155 346 155q206 0 328 -134.5t122 -362.5v-127h-712q10 -336 301 -336q184 0 356 80v-191q-86 -41 -171.5 -58t-195.5 -17 q-140 0 -248.5 54.5t-175.5 164.5q-94 -125 -190.5 -172t-241.5 -47q-165 0 -258.5 90t-93.5 247zM334 315q0 -155 166 -155q124 0 196 72.5t72 199.5v96l-135 -6q-155 -6 -227 -54.5t-72 -152.5zM1014 670h473q0 130 -58.5 204t-162.5 74q-112 0 -177.5 -69.5t-74.5 -208.5 zM788 1241v25q57 70 117.5 156t95.5 147h273v-21q-52 -61 -155.5 -157.5t-174.5 -149.5h-156z" horiz-adv-x="1817" unicode="ǽ"/><glyph d="M121 735q0 362 178.5 556t509.5 194q199 0 354 -82l90 129l142 -92l-99 -140q195 -199 195 -567q0 -357 -178.5 -555t-505.5 -198q-213 0 -361 81l-94 -137l-141 94l98 144q-188 196 -188 573zM375 733q0 -231 78 -362l587 850q-92 59 -231 59q-215 0 -324.5 -139 t-109.5 -408zM571 244q97 -60 236 -60q213 0 321.5 138t108.5 411q0 225 -80 361zM655 1579v25q57 70 117.5 156t95.5 147h273v-21q-52 -61 -155.5 -157.5t-174.5 -149.5h-156z" horiz-adv-x="1612" unicode="Ǿ"/><glyph d="M102 555q0 269 138 420t389 151q144 0 258 -63l69 100l136 -92l-78 -108q135 -152 135 -408q0 -271 -139 -423t-387 -152q-144 0 -250 57l-76 -109l-135 90l82 117q-142 155 -142 420zM344 555q0 -135 37 -219l391 559q-60 39 -147 39q-148 0 -214.5 -98t-66.5 -281z M487 205q54 -33 140 -33q280 0 280 383q0 121 -33 203zM466 1241v25q57 70 117.5 156t95.5 147h273v-21q-52 -61 -155.5 -157.5t-174.5 -149.5h-156z" horiz-adv-x="1251" unicode="ǿ"/><glyph d="M100 57v226q100 -47 212.5 -74t209.5 -27q142 0 209.5 54t67.5 145q0 82 -62 139t-256 135q-200 81 -282 185t-82 250q0 183 130 288t349 105q210 0 418 -92l-76 -195q-195 82 -348 82q-116 0 -176 -50.5t-60 -133.5q0 -57 24 -97.5t79 -76.5t198 -95q161 -67 236 -125 t110 -131t35 -172q0 -195 -141 -306t-389 -111t-406 77zM358 -428q23 64 44.5 150.5t29.5 152.5h225v-20q-29 -80 -75 -166t-88 -142h-136v25z" horiz-adv-x="1126" unicode="Ș"/><glyph d="M98 827q0 142 114.5 220.5t311.5 78.5q195 0 369 -79l-76 -177q-179 74 -301 74q-186 0 -186 -106q0 -52 48.5 -88t211.5 -99q137 -53 199 -97t92 -101.5t30 -137.5q0 -162 -118 -248.5t-338 -86.5q-221 0 -355 67v203q195 -90 363 -90q217 0 217 131q0 42 -24 70t-79 58 t-153 68q-191 74 -258.5 148t-67.5 192zM296 -428q23 64 44.5 150.5t29.5 152.5h225v-20q-29 -80 -75 -166t-88 -142h-136v25z" horiz-adv-x="997" unicode="ș"/><glyph d="M29 1257v205h1099v-205h-430v-1257h-239v1257h-430zM391 -428q23 64 44.5 150.5t29.5 152.5h225v-20q-29 -80 -75 -166t-88 -142h-136v25z" horiz-adv-x="1159" unicode="Ț"/><glyph d="M39 928v104l162 86l80 234h145v-246h315v-178h-315v-592q0 -85 42.5 -125.5t111.5 -40.5q86 0 172 27v-177q-39 -17 -100.5 -28.5t-127.5 -11.5q-334 0 -334 352v596h-151zM271 -428q23 64 44.5 150.5t29.5 152.5h225v-20q-29 -80 -75 -166t-88 -142h-136v25z" horiz-adv-x="805" unicode="ț"/><glyph d="M-121 -281q68 -18 139 -18q150 0 150 170v1235h235v-1251q0 -171 -89.5 -259t-258.5 -88q-106 0 -176 25v186z" horiz-adv-x="571" unicode="ȷ"/><glyph d="M16 961q69 289 100 501h231l15 -22q-53 -209 -176 -479h-170z" horiz-adv-x="393" unicode="ʼ"/><glyph d="M227 1241v25q191 198 254 303h260q63 -110 256 -303v-25h-159q-123 73 -228 180q-103 -103 -225 -180h-158z" horiz-adv-x="1227" unicode="ˆ"/><glyph d="M227 1542v27h158q138 -90 225 -183q97 100 228 183h159v-27q-126 -131 -177.5 -193t-78.5 -108h-260q-65 105 -254 301z" horiz-adv-x="1227" unicode="ˇ"/><glyph d="M291 1241v174h639v-174h-639z" horiz-adv-x="1223" unicode="ˉ"/><glyph d="M260 1544h137q5 -48 27 -76.5t62.5 -40.5t123.5 -12q105 0 155.5 33t57.5 96h140q-12 -141 -108 -222t-249 -81q-157 0 -247.5 79.5t-98.5 223.5z" horiz-adv-x="1227" unicode="˘"/><glyph d="M154 1399q0 63 34.5 97t98.5 34q62 0 96.5 -34t34.5 -97q0 -60 -34.5 -94.5t-96.5 -34.5q-64 0 -98.5 34.5t-34.5 94.5z" horiz-adv-x="571" unicode="˙"/><glyph d="M352 1466q0 101 63.5 163.5t172.5 62.5q104 0 171.5 -62t67.5 -162q0 -102 -65.5 -165.5t-173.5 -63.5t-172 62.5t-64 164.5zM481 1466q0 -106 107 -106q46 0 76 27.5t30 78.5q0 50 -30 78.5t-76 28.5q-47 0 -77 -28.5t-30 -78.5z" horiz-adv-x="1182" unicode="˚"/><glyph d="M23 -260q0 65 38 127t132 133h149q-69 -66 -106 -120.5t-37 -112.5q0 -89 88 -89q43 0 104 17v-144q-69 -20 -139 -20q-113 0 -171 56.5t-58 152.5z" horiz-adv-x="412" unicode="˛"/><glyph d="M236 1239q12 139 77.5 212t167.5 73q43 0 84 -17.5t80 -39t75.5 -39t70.5 -17.5q79 0 106 115h125q-12 -134 -77 -209.5t-169 -75.5q-42 0 -82.5 17.5t-79.5 39t-76 39t-71 17.5q-81 0 -109 -115h-122z" horiz-adv-x="1227" unicode="˜"/><glyph d="M193 1241v25q104 144 186 303h244v-21q-29 -49 -126 -148t-175 -159h-129zM569 1241v25q43 57 99.5 147.5t87.5 155.5h243v-21q-29 -49 -126 -148t-175 -159h-129z" horiz-adv-x="1192" unicode="˝"/><glyph d="M102 -352q0 104 64 165.5t170 61.5q108 0 175 -63.5t67 -161.5q0 -104 -67.5 -166t-174.5 -62q-106 0 -170 61t-64 165zM229 -352q0 -50 27 -78.5t80 -28.5q48 0 77 28.5t29 78.5q0 51 -30 78.5t-76 27.5q-47 0 -77 -27.5t-30 -78.5z" horiz-adv-x="682" unicode="˳"/><glyph d="M-972 1548v21h273q38 -70 103.5 -161t109.5 -142v-25h-158q-69 52 -174.5 150.5t-153.5 156.5z" horiz-adv-x="0" unicode="̀"/><glyph d="M-786 1241v25q57 70 117.5 156t95.5 147h273v-21q-52 -61 -155.5 -157.5t-174.5 -149.5h-156z" horiz-adv-x="0" unicode="́"/><glyph d="M-1027 1239q12 139 77.5 212t167.5 73q43 0 84 -17.5t80 -39t75.5 -39t70.5 -17.5q79 0 106 115h125q-12 -134 -77 -209.5t-169 -75.5q-42 0 -82.5 17.5t-79.5 39t-76 39t-71 17.5q-81 0 -109 -115h-122z" horiz-adv-x="0" unicode="̃"/><glyph d="M-784 1538v135q68 17 141 17q131 0 199.5 -50t68.5 -149q0 -147 -164 -186l-10 -93h-139l-19 162q75 13 111.5 37t36.5 68q0 73 -109 73q-60 0 -116 -14z" horiz-adv-x="0" unicode="̉"/><glyph d="M-1102 1548v21h244q28 -61 77.5 -148t98.5 -155v-25h-129q-68 54 -164.5 155t-126.5 152zM-725 1548v21h244q28 -61 77.5 -148t98.5 -155v-25h-129q-68 54 -164.5 155t-126.5 152z" horiz-adv-x="0" unicode="̏"/><glyph d="M-758 -262q0 63 34.5 97t98.5 34t97.5 -34.5t33.5 -96.5q0 -59 -34 -94t-97 -35q-64 0 -98.5 34.5t-34.5 94.5z" horiz-adv-x="0" unicode="̣"/><glyph d="M489 1241v29q27 82 52 188.5t34 181.5h234v-24q-24 -71 -75 -178t-105 -197h-140z" horiz-adv-x="1182" unicode="΄"/><glyph d="M233 1399q0 62 31 89.5t80 27.5q51 0 81 -30t30 -87q0 -59 -32 -88t-79 -29q-49 0 -80 29t-31 88zM500 1389v24q23 73 46.5 163.5t31.5 139.5h225v-20q-28 -61 -80.5 -144t-114.5 -163h-108zM725 1399q0 117 111 117q46 0 78 -28t32 -89q0 -59 -32 -88t-78 -29 q-50 0 -80.5 29t-30.5 88z" horiz-adv-x="1182" unicode="΅"/><glyph d="M0 0l547 1468h260l547 -1468h-254l-146 406h-559l-143 -406h-252zM465 612h426l-137 398q-15 40 -41.5 126t-36.5 126q-27 -123 -79 -269zM-14 1136v29q27 82 52 188.5t34 181.5h234v-24q-24 -71 -75 -178t-105 -197h-140z" horiz-adv-x="1354" unicode="Ά"/><glyph d="M133 721q0 75 37.5 114t110.5 39t111 -40t38 -113q0 -72 -39 -112t-110 -40t-109.5 39t-38.5 113z" horiz-adv-x="563" unicode="·"/><glyph d="M326 0v1462h827v-202h-588v-398h551v-200h-551v-459h588v-203h-827zM-71 1136v29q27 82 52 188.5t34 181.5h234v-24q-24 -71 -75 -178t-105 -197h-140z" horiz-adv-x="1278" unicode="Έ"/><glyph d="M338 0v1462h239v-598h674v598h240v-1462h-240v659h-674v-659h-239zM-71 1136v29q27 82 52 188.5t34 181.5h234v-24q-24 -71 -75 -178t-105 -197h-140z" horiz-adv-x="1686" unicode="Ή"/><glyph d="M351 0v1462h239v-1462h-239zM-63 1136v29q27 82 52 188.5t34 181.5h234v-24q-24 -71 -75 -178t-105 -197h-140z" horiz-adv-x="784" unicode="Ί"/><glyph d="M195 735q0 362 178.5 556t509.5 194q326 0 504 -197t178 -555q0 -357 -178.5 -555t-505.5 -198q-331 0 -508.5 196.5t-177.5 558.5zM449 733q0 -270 109 -409.5t323 -139.5q213 0 321.5 138t108.5 411q0 269 -107.5 408t-320.5 139q-215 0 -324.5 -139t-109.5 -408z M-42 1136v29q27 82 52 188.5t34 181.5h234v-24q-24 -71 -75 -178t-105 -197h-140z" horiz-adv-x="1688" unicode="Ό"/><glyph d="M276 1462h260l346 -667l346 667h260l-487 -895v-567h-240v559zM-81 1136v29q27 82 52 188.5t34 181.5h234v-24q-24 -71 -75 -178t-105 -197h-140z" horiz-adv-x="1489" unicode="Ύ"/><glyph d="M144 0v205h366q-152 107 -232.5 275t-80.5 368q0 292 182 464.5t500 172.5t500 -171t182 -466q0 -203 -82 -370t-234 -273h369v-205h-614v205q158 100 234.5 248.5t76.5 361.5q0 227 -110.5 346t-321.5 119q-212 0 -322 -119.5t-110 -345.5q0 -209 73.5 -356.5 t235.5 -253.5v-205h-612zM-42 1136v29q27 82 52 188.5t34 181.5h234v-24q-24 -71 -75 -178t-105 -197h-140z" horiz-adv-x="1636" unicode="Ώ"/><glyph d="M164 334v772h235v-770q0 -166 146 -166q89 0 180 27v-177q-37 -17 -98 -28.5t-127 -11.5q-173 0 -254.5 88t-81.5 266zM-40 1399q0 62 31 89.5t80 27.5q51 0 81 -30t30 -87q0 -59 -32 -88t-79 -29q-49 0 -80 29t-31 88zM227 1389v24q23 73 46.5 163.5t31.5 139.5h225v-20 q-28 -61 -80.5 -144t-114.5 -163h-108zM452 1399q0 117 111 117q46 0 78 -28t32 -89q0 -59 -32 -88t-78 -29q-50 0 -80.5 29t-30.5 88z" horiz-adv-x="764" unicode="ΐ"/><glyph d="M0 0l547 1468h260l547 -1468h-254l-146 406h-559l-143 -406h-252zM465 612h426l-137 398q-15 40 -41.5 126t-36.5 126q-27 -123 -79 -269z" horiz-adv-x="1354" unicode="Α"/><glyph d="M193 0v1462h434q302 0 436.5 -88t134.5 -278q0 -128 -66 -213t-190 -107v-10q154 -29 226.5 -114.5t72.5 -231.5q0 -197 -137.5 -308.5t-382.5 -111.5h-528zM432 201h254q150 0 226.5 57.5t76.5 181.5q0 114 -78 169t-237 55h-242v-463zM432 858h230q150 0 219 47.5 t69 161.5q0 103 -74.5 149t-236.5 46h-207v-404z" horiz-adv-x="1352" unicode="Β"/><glyph d="M193 0v1462h868v-205h-629v-1257h-239z" horiz-adv-x="1106" unicode="Γ"/><glyph d="M47 0v141l453 1323h258l452 -1325v-139h-1163zM297 205h661l-253 764q-23 64 -46 148t-30 124q-43 -173 -76 -268z" horiz-adv-x="1260" unicode="Δ"/><glyph d="M193 0v1462h827v-202h-588v-398h551v-200h-551v-459h588v-203h-827z" horiz-adv-x="1143" unicode="Ε"/><glyph d="M66 0v166l737 1091h-717v205h1006v-168l-740 -1089h760v-205h-1046z" horiz-adv-x="1178" unicode="Ζ"/><glyph d="M193 0v1462h239v-598h674v598h240v-1462h-240v659h-674v-659h-239z" horiz-adv-x="1538" unicode="Η"/><glyph d="M121 735q0 362 178.5 556t509.5 194q326 0 504 -197t178 -555q0 -357 -178.5 -555t-505.5 -198q-331 0 -508.5 196.5t-177.5 558.5zM371 733q0 -269 110 -409t326 -140q215 0 324.5 137.5t109.5 411.5q0 271 -109.5 409t-322.5 138q-217 0 -327.5 -139.5t-110.5 -407.5z M518 643v201h576v-201h-576z" horiz-adv-x="1612" unicode="Θ"/><glyph d="M193 0v1462h239v-1462h-239z" horiz-adv-x="625" unicode="Ι"/><glyph d="M193 0v1462h239v-698q98 120 195 231l395 467h272q-383 -450 -549 -641l564 -821h-277l-459 662l-141 -115v-547h-239z" horiz-adv-x="1309" unicode="Κ"/><glyph d="M0 0l512 1462h256l514 -1462h-248l-301 903q-65 194 -94 332q-9 -44 -26 -111.5t-32.5 -120.5t-332.5 -1003h-248z" horiz-adv-x="1282" unicode="Λ"/><glyph d="M193 0v1462h337l406 -1163h6l418 1163h338v-1462h-230v723q0 109 5.5 284t9.5 212h-8l-439 -1219h-211l-424 1221h-8q17 -272 17 -510v-711h-217z" horiz-adv-x="1890" unicode="Μ"/><glyph d="M193 0v1462h290l717 -1159h6q-2 23 -8 167.5t-6 225.5v766h219v-1462h-293l-719 1165h-8l5 -65q14 -186 14 -340v-760h-217z" horiz-adv-x="1604" unicode="Ν"/><glyph d="M76 0v203h997v-203h-997zM117 1260v202h915v-202h-915zM199 662v200h751v-200h-751z" horiz-adv-x="1151" unicode="Ξ"/><glyph d="M121 735q0 362 178.5 556t509.5 194q326 0 504 -197t178 -555q0 -357 -178.5 -555t-505.5 -198q-331 0 -508.5 196.5t-177.5 558.5zM375 733q0 -270 109 -409.5t323 -139.5q213 0 321.5 138t108.5 411q0 269 -107.5 408t-320.5 139q-215 0 -324.5 -139t-109.5 -408z" horiz-adv-x="1612" unicode="Ο"/><glyph d="M193 0v1462h1124v-1462h-240v1257h-645v-1257h-239z" horiz-adv-x="1509" unicode="Π"/><glyph d="M193 0v1462h421q274 0 410.5 -112t136.5 -330q0 -229 -150 -351t-427 -122h-152v-547h-239zM432 748h127q184 0 270 64t86 200q0 126 -77 188t-240 62h-166v-514z" horiz-adv-x="1260" unicode="Ρ"/><glyph d="M76 0v193l475 571l-463 508v190h983v-205h-504l-215 7l457 -498l-479 -569l313 6h487v-203h-1054z" horiz-adv-x="1188" unicode="Σ"/><glyph d="M29 1257v205h1099v-205h-430v-1257h-239v1257h-430z" horiz-adv-x="1159" unicode="Τ"/><glyph d="M0 1462h260l346 -667l346 667h260l-487 -895v-567h-240v559z" horiz-adv-x="1212" unicode="Υ"/><glyph d="M98 758q0 155 70 279.5t201 195t307 70.5h59v180h226v-180h61q177 0 307.5 -70t199 -193.5t68.5 -281.5q0 -163 -77 -293t-211.5 -195t-315.5 -65h-32v-225h-226v225h-33q-179 0 -314.5 65.5t-212.5 196.5t-77 291zM332 760q0 -170 101 -267.5t284 -97.5h18v713h-49 q-166 0 -260 -94.5t-94 -253.5zM961 395h20q180 0 281.5 96.5t101.5 268.5q0 160 -94.5 254t-259.5 94h-49v-713z" horiz-adv-x="1698" unicode="Φ"/><glyph d="M4 0l485 758l-454 704h266l338 -553l338 553h258l-457 -708l492 -754h-275l-366 598l-369 -598h-256z" horiz-adv-x="1274" unicode="Χ"/><glyph d="M109 979v483h231v-479q0 -176 91.5 -260t283.5 -84h28v823h224v-823h30q182 0 277.5 85.5t95.5 254.5v483h234v-481q0 -263 -150.5 -402t-437.5 -139h-49v-440h-224v440h-49q-283 0 -434 136.5t-151 402.5z" horiz-adv-x="1712" unicode="Ψ"/><glyph d="M68 0v205h366q-152 107 -232.5 275t-80.5 368q0 292 182 464.5t500 172.5t500 -171t182 -466q0 -203 -82 -370t-234 -273h369v-205h-614v205q158 100 234.5 248.5t76.5 361.5q0 227 -110.5 346t-321.5 119q-212 0 -322 -119.5t-110 -345.5q0 -209 73.5 -356.5 t235.5 -253.5v-205h-612z" horiz-adv-x="1606" unicode="Ω"/><glyph d="M193 0v1462h239v-1462h-239zM1 1737q0 62 33.5 89.5t81.5 27.5q53 0 84.5 -31t31.5 -86q0 -53 -32 -85t-84 -32q-48 0 -81.5 29t-33.5 88zM394 1737q0 62 33.5 89.5t81.5 27.5q53 0 85 -31t32 -86q0 -54 -33 -85.5t-84 -31.5q-48 0 -81.5 29t-33.5 88z" horiz-adv-x="625" unicode="Ϊ"/><glyph d="M0 1462h260l346 -667l346 667h260l-487 -895v-567h-240v559zM293 1737q0 62 33.5 89.5t81.5 27.5q53 0 84.5 -31t31.5 -86q0 -53 -32 -85t-84 -32q-48 0 -81.5 29t-33.5 88zM686 1737q0 62 33.5 89.5t81.5 27.5q53 0 85 -31t32 -86q0 -54 -33 -85.5t-84 -31.5 q-48 0 -81.5 29t-33.5 88z" horiz-adv-x="1212" unicode="Ϋ"/><glyph d="M102 549q0 277 122.5 427t342.5 150q120 0 198.5 -42.5t131.5 -125.5h12q27 97 68 148h190q-27 -82 -44 -210.5t-17 -229.5v-375q0 -57 22 -87t62 -30q31 0 61 10v-178q-16 -10 -55.5 -18t-69.5 -8q-95 0 -147 39t-78 128h-16q-115 -167 -336 -167q-210 0 -328.5 150 t-118.5 419zM344 547q0 -189 63 -283t199 -94q146 0 209.5 84.5t65.5 284.5v12q0 206 -67 294.5t-210 88.5q-260 0 -260 -387zM528 1241v29q27 82 52 188.5t34 181.5h234v-24q-24 -71 -75 -178t-105 -197h-140z" horiz-adv-x="1288" unicode="ά"/><glyph d="M84 303q0 105 61.5 170.5t194.5 97.5v11q-209 54 -209 254q0 136 121.5 213t329.5 77q220 0 399 -79l-78 -179q-111 48 -179.5 62t-139.5 14q-236 0 -236 -133q0 -76 72.5 -111.5t224.5 -35.5h131v-177h-158q-156 0 -228.5 -41.5t-72.5 -123.5q0 -156 281 -156 q193 0 381 86v-197q-152 -75 -397 -75q-242 0 -370 84.5t-128 238.5zM480 1241v29q27 82 52 188.5t34 181.5h234v-24q-24 -71 -75 -178t-105 -197h-140z" horiz-adv-x="1055" unicode="έ"/><glyph d="M168 0v1106h184l33 -145h12q50 79 142 122t204 43q398 0 398 -405v-1213h-236v1172q0 132 -54 193t-167 61q-147 0 -214 -90.5t-67 -292.5v-551h-235zM577 1241v29q27 82 52 188.5t34 181.5h234v-24q-24 -71 -75 -178t-105 -197h-140z" horiz-adv-x="1300" unicode="ή"/><glyph d="M164 334v772h235v-770q0 -166 146 -166q89 0 180 27v-177q-37 -17 -98 -28.5t-127 -11.5q-173 0 -254.5 88t-81.5 266zM209 1241v29q27 82 52 188.5t34 181.5h234v-24q-24 -71 -75 -178t-105 -197h-140z" horiz-adv-x="764" unicode="ί"/><glyph d="M154 502v604h235v-604q0 -163 63 -247.5t201 -84.5q148 0 216.5 106.5t68.5 333.5q0 109 -14 218.5t-54 277.5h238q39 -152 52.5 -267.5t13.5 -236.5q0 -313 -131.5 -467.5t-401.5 -154.5q-243 0 -365 127t-122 395zM296 1399q0 62 31 89.5t80 27.5q51 0 81 -30t30 -87 q0 -59 -32 -88t-79 -29q-49 0 -80 29t-31 88zM563 1389v24q23 73 46.5 163.5t31.5 139.5h225v-20q-28 -61 -80.5 -144t-114.5 -163h-108zM788 1399q0 117 111 117q46 0 78 -28t32 -89q0 -59 -32 -88t-78 -29q-50 0 -80.5 29t-30.5 88z" horiz-adv-x="1284" unicode="ΰ"/><glyph d="M102 549q0 277 122.5 427t342.5 150q120 0 198.5 -42.5t131.5 -125.5h12q27 97 68 148h190q-27 -82 -44 -210.5t-17 -229.5v-375q0 -57 22 -87t62 -30q31 0 61 10v-178q-16 -10 -55.5 -18t-69.5 -8q-95 0 -147 39t-78 128h-16q-115 -167 -336 -167q-210 0 -328.5 150 t-118.5 419zM344 547q0 -189 63 -283t199 -94q146 0 209.5 84.5t65.5 284.5v12q0 206 -67 294.5t-210 88.5q-260 0 -260 -387z" horiz-adv-x="1288" unicode="α"/><glyph d="M168 -492v1588q0 225 133.5 348t374.5 123q226 0 356.5 -104t130.5 -289q0 -293 -303 -345v-6q375 -44 375 -401q0 -212 -132 -327t-364 -115q-204 0 -336 65v-537h-235zM403 248q138 -78 293 -78q299 0 299 270q0 132 -80.5 203.5t-232.5 71.5h-92v190h72 q128 0 196 64.5t68 183.5q0 109 -67.5 167t-186.5 58q-269 0 -269 -301v-829z" horiz-adv-x="1319" unicode="β"/><glyph d="M6 1106h244l203 -539q28 -74 62 -186.5t44 -169.5h6q6 34 23.5 103t38 135.5t229.5 656.5h244l-410 -1083q-42 -109 -70 -255.5t-28 -259.5h-252q0 86 28 229t74 275z" horiz-adv-x="1106" unicode="γ"/><glyph d="M102 438q0 178 103 302.5t309 185.5q-246 144 -246 340q0 137 109 216t297 79q105 0 202 -22.5t238 -88.5l-96 -174q-85 43 -170 72.5t-182 29.5q-79 0 -122.5 -33.5t-43.5 -89.5q0 -58 58 -112t218 -137q199 -108 285 -228.5t86 -281.5q0 -247 -137.5 -381.5 t-388.5 -134.5q-236 0 -377.5 123.5t-141.5 334.5zM346 442q0 -121 73.5 -195.5t201.5 -74.5q137 0 210.5 80.5t73.5 232.5q0 114 -56 197t-175 145q-163 -42 -245.5 -142t-82.5 -243z" horiz-adv-x="1227" unicode="δ"/><glyph d="M84 303q0 105 61.5 170.5t194.5 97.5v11q-209 54 -209 254q0 136 121.5 213t329.5 77q220 0 399 -79l-78 -179q-111 48 -179.5 62t-139.5 14q-236 0 -236 -133q0 -76 72.5 -111.5t224.5 -35.5h131v-177h-158q-156 0 -228.5 -41.5t-72.5 -123.5q0 -156 281 -156 q193 0 381 86v-197q-152 -75 -397 -75q-242 0 -370 84.5t-128 238.5z" horiz-adv-x="1055" unicode="ε"/><glyph d="M102 463q0 153 58 291t168.5 273.5t365.5 358.5q-44 -12 -266 -12h-266v182h803v-155q-212 -178 -349 -333.5t-203.5 -296.5t-66.5 -296q0 -90 27.5 -144.5t86 -87t204.5 -61.5q158 -32 231.5 -90t73.5 -153q0 -145 -133 -328h-236q59 77 97 154t38 126q0 33 -20 51.5 t-68 35t-129 30.5q-213 38 -314.5 150t-101.5 305z" horiz-adv-x="1004" unicode="ζ"/><glyph d="M168 0v1106h184l33 -145h12q50 79 142 122t204 43q398 0 398 -405v-1213h-236v1172q0 132 -54 193t-167 61q-147 0 -214 -90.5t-67 -292.5v-551h-235z" horiz-adv-x="1300" unicode="η"/><glyph d="M102 780q0 406 128.5 602.5t385.5 196.5q255 0 387 -203t132 -596q0 -405 -128 -602.5t-391 -197.5q-252 0 -383 203t-131 597zM342 700q4 -279 70.5 -409.5t203.5 -130.5q142 0 207.5 134t71.5 406h-553zM344 885h549q-9 255 -73.5 384.5t-201.5 129.5 q-138 0 -201.5 -129.5t-72.5 -384.5z" horiz-adv-x="1239" unicode="θ"/><glyph d="M164 334v772h235v-770q0 -166 146 -166q89 0 180 27v-177q-37 -17 -98 -28.5t-127 -11.5q-173 0 -254.5 88t-81.5 266z" horiz-adv-x="764" unicode="ι"/><glyph d="M168 0v1106h242v-289q0 -128 -11 -260l467 549h267l-428 -498l454 -608h-274l-336 465l-139 -103v-362h-242z" horiz-adv-x="1165" unicode="κ"/><glyph d="M-4 0l473 1067l-45 127q-37 99 -83.5 138.5t-127.5 39.5q-56 0 -109 -12v192q68 17 150 17q103 0 173.5 -32.5t121 -101.5t104.5 -216l322 -893q29 -78 59 -115t72 -37q18 0 65 10v-178q-26 -12 -67 -19t-76 -7q-90 0 -145 43.5t-92 148.5q-143 398 -176 498t-42 143h-6 q-35 -135 -96 -278l-231 -535h-244z" horiz-adv-x="1176" unicode="λ"/><glyph d="M168 -492v1598h235v-684q0 -252 218 -252q146 0 215 88.5t69 296.5v551h236v-1106h-183l-34 147h-13q-48 -83 -119.5 -125t-175.5 -42q-140 0 -219 90h-4q3 -28 6.5 -117t3.5 -125v-320h-235z" horiz-adv-x="1309" unicode="μ"/><glyph d="M2 1106h244l217 -604q32 -83 98 -297h8q149 167 213 376t64 525h235q0 -366 -102 -619.5t-332 -486.5h-231z" horiz-adv-x="1163" unicode="ν"/><glyph d="M102 428q0 133 75 233t210 148v10q-219 60 -219 268q0 112 71 184t226 115q-192 -12 -258 -12h-45v182h751v-172h-63q-197 0 -324 -79t-127 -207q0 -104 75 -151.5t235 -47.5h168v-170h-172q-171 0 -265 -73.5t-94 -209.5q0 -78 27 -125.5t80.5 -76.5t214.5 -62 q161 -35 231 -94t70 -149q0 -143 -129 -328h-232q58 78 95.5 155t37.5 128q0 44 -52 69.5t-167 44.5q-420 72 -420 420z" horiz-adv-x="995" unicode="ξ"/><glyph d="M102 555q0 269 138 420t389 151q240 0 380 -154.5t140 -416.5q0 -271 -139 -423t-387 -152q-155 0 -274 70t-183 201t-64 304zM344 555q0 -383 283 -383q280 0 280 383q0 379 -282 379q-148 0 -214.5 -98t-66.5 -281z" horiz-adv-x="1251" unicode="ο"/><glyph d="M25 920v102l159 84h1170v-186h-224v-637q0 -115 95 -115q54 0 106 27v-177q-25 -15 -71.5 -26.5t-102.5 -11.5q-262 0 -262 290v650h-408v-920h-235v920h-227z" horiz-adv-x="1421" unicode="π"/><glyph d="M143 -492v1053q0 270 132.5 417.5t375.5 147.5q228 0 362 -154.5t134 -418.5q0 -273 -125 -423t-350 -150q-167 0 -291 86h-12q12 -120 12 -271v-287h-238zM381 266q104 -94 262 -94q139 0 200.5 93t61.5 288q0 196 -61 288.5t-199 92.5q-134 0 -199 -90t-65 -277v-301z" horiz-adv-x="1251" unicode="ρ"/><glyph d="M102 506q0 308 137.5 464t405.5 156q177 0 324 -67l-72 -187q-146 58 -260 58q-155 0 -224 -106.5t-69 -311.5q0 -100 27 -158.5t90 -94t207 -64.5q162 -37 231.5 -96.5t69.5 -153.5q0 -145 -129 -336h-232q63 90 98 167t35 124q0 45 -48 70.5t-171 49.5 q-214 42 -317 163.5t-103 322.5z" horiz-adv-x="1004" unicode="ς"/><glyph d="M102 532q0 574 613 574h536v-182h-274q178 -183 178 -432q0 -152 -64 -269t-183 -180t-281 -63q-246 0 -385.5 145.5t-139.5 406.5zM346 532q0 -174 73.5 -267t211.5 -93q135 0 208.5 86.5t73.5 251.5q0 243 -151 414h-57q-194 0 -276.5 -93t-82.5 -299z" horiz-adv-x="1296" unicode="σ"/><glyph d="M29 922v100l161 84h779v-184h-414v-580q0 -174 168 -174q89 0 182 27v-177q-101 -41 -227 -41q-186 0 -273.5 89t-87.5 266v590h-288z" horiz-adv-x="1034" unicode="τ"/><glyph d="M154 502v604h235v-604q0 -163 63 -247.5t201 -84.5q148 0 216.5 106.5t68.5 333.5q0 109 -14 218.5t-54 277.5h238q39 -152 52.5 -267.5t13.5 -236.5q0 -313 -131.5 -467.5t-401.5 -154.5q-243 0 -365 127t-122 395z" horiz-adv-x="1284" unicode="υ"/><glyph d="M102 555q0 301 220 567l176 -116q-92 -122 -130 -230t-38 -227q0 -337 315 -381v569q0 186 96.5 286.5t262.5 100.5q199 0 318.5 -145.5t119.5 -396.5q0 -174 -70.5 -304t-200.5 -206t-303 -88v-476h-223v476q-269 21 -406 167.5t-137 403.5zM868 168q158 15 250 124.5 t92 287.5q0 170 -54.5 267t-149.5 97q-138 0 -138 -205v-571z" horiz-adv-x="1546" unicode="φ"/><glyph d="M-35 -492l484 861l-154 397q-29 80 -65 118t-87 38q-45 0 -88 -15v187q76 22 154 22q71 0 118.5 -23t82.5 -71.5t79 -171.5l111 -295l297 551h244l-441 -766l193 -479q35 -88 73.5 -123t102.5 -35q44 0 94 10v-182q-65 -23 -155 -23q-122 0 -196.5 63t-129.5 222 l-127 357l-338 -642h-252z" horiz-adv-x="1165" unicode="χ"/><glyph d="M154 553v553h227v-559q0 -186 78.5 -277t249.5 -102v1388h223v-1386q180 15 267 113.5t87 291.5q0 113 -15 233.5t-57 297.5h226q69 -272 69 -528q0 -273 -145.5 -426.5t-431.5 -169.5v-474h-223v474q-275 9 -415 152.5t-140 418.5z" horiz-adv-x="1628" unicode="ψ"/><glyph d="M111 537q0 157 28 290.5t90 278.5h232q-66 -145 -95.5 -278t-29.5 -287q0 -177 55 -275t156 -98q180 0 180 258v303h221v-303q0 -258 178 -258q102 0 156.5 96t54.5 275q0 156 -30.5 291.5t-94.5 275.5h234q63 -146 90 -282t27 -287q0 -258 -110.5 -407.5t-307.5 -149.5 q-230 0 -303 196h-11q-73 -196 -303 -196q-196 0 -306.5 149t-110.5 408z" horiz-adv-x="1675" unicode="ω"/><glyph d="M164 334v772h235v-770q0 -166 146 -166q89 0 180 27v-177q-37 -17 -98 -28.5t-127 -11.5q-173 0 -254.5 88t-81.5 266zM9 1399q0 62 33.5 89.5t81.5 27.5q53 0 84.5 -31t31.5 -86q0 -53 -32 -85t-84 -32q-48 0 -81.5 29t-33.5 88zM402 1399q0 62 33.5 89.5t81.5 27.5 q53 0 85 -31t32 -86q0 -54 -33 -85.5t-84 -31.5q-48 0 -81.5 29t-33.5 88z" horiz-adv-x="764" unicode="ϊ"/><glyph d="M154 502v604h235v-604q0 -163 63 -247.5t201 -84.5q148 0 216.5 106.5t68.5 333.5q0 109 -14 218.5t-54 277.5h238q39 -152 52.5 -267.5t13.5 -236.5q0 -313 -131.5 -467.5t-401.5 -154.5q-243 0 -365 127t-122 395zM340 1399q0 62 33.5 89.5t81.5 27.5q53 0 84.5 -31 t31.5 -86q0 -53 -32 -85t-84 -32q-48 0 -81.5 29t-33.5 88zM733 1399q0 62 33.5 89.5t81.5 27.5q53 0 85 -31t32 -86q0 -54 -33 -85.5t-84 -31.5q-48 0 -81.5 29t-33.5 88z" horiz-adv-x="1284" unicode="ϋ"/><glyph d="M102 555q0 269 138 420t389 151q240 0 380 -154.5t140 -416.5q0 -271 -139 -423t-387 -152q-155 0 -274 70t-183 201t-64 304zM344 555q0 -383 283 -383q280 0 280 383q0 379 -282 379q-148 0 -214.5 -98t-66.5 -281zM538 1241v29q27 82 52 188.5t34 181.5h234v-24 q-24 -71 -75 -178t-105 -197h-140z" horiz-adv-x="1251" unicode="ό"/><glyph d="M154 502v604h235v-604q0 -163 63 -247.5t201 -84.5q148 0 216.5 106.5t68.5 333.5q0 109 -14 218.5t-54 277.5h238q39 -152 52.5 -267.5t13.5 -236.5q0 -313 -131.5 -467.5t-401.5 -154.5q-243 0 -365 127t-122 395zM546 1241v29q27 82 52 188.5t34 181.5h234v-24 q-24 -71 -75 -178t-105 -197h-140z" horiz-adv-x="1284" unicode="ύ"/><glyph d="M111 537q0 157 28 290.5t90 278.5h232q-66 -145 -95.5 -278t-29.5 -287q0 -177 55 -275t156 -98q180 0 180 258v303h221v-303q0 -258 178 -258q102 0 156.5 96t54.5 275q0 156 -30.5 291.5t-94.5 275.5h234q63 -146 90 -282t27 -287q0 -258 -110.5 -407.5t-307.5 -149.5 q-230 0 -303 196h-11q-73 -196 -303 -196q-196 0 -306.5 149t-110.5 408zM743 1241v29q27 82 52 188.5t34 181.5h234v-24q-24 -71 -75 -178t-105 -197h-140z" horiz-adv-x="1675" unicode="ώ"/><glyph d="M25 780q114 62 239 62q95 0 141 -51t46 -134q0 -47 -11 -147q-12 -101 -12 -164q0 -89 54.5 -134.5t156.5 -45.5q334 0 334 551v42l-2 42q-224 2 -380 57.5t-236.5 155t-80.5 233.5q0 156 102 243t283 87q450 0 539 -594h143v-180h-133q4 -38 4 -98q0 -350 -152 -537.5 t-433 -187.5q-416 0 -416 337q0 44 19 208l3 55q0 45 -16 60t-45 15q-49 0 -92 -26zM504 1253q0 -126 122 -197.5t337 -72.5q-25 189 -106.5 300.5t-192.5 111.5q-76 0 -118 -38t-42 -104z" horiz-adv-x="1386" unicode="ϑ"/><glyph d="M0 1462h260l342 -678q151 340 207.5 452t93.5 155.5t83.5 63.5t109.5 20t121 -21v-182q-35 8 -64 8q-41 0 -70 -26t-73 -102t-104.5 -194.5t-103.5 -215t-81 -195.5v-547h-240v559z" horiz-adv-x="1225" unicode="ϒ"/><glyph d="M35 922v100l158 84h1632v-184h-254q90 -234 90 -447q0 -244 -106 -369.5t-312 -125.5q-228 0 -305 196h-8q-77 -196 -303 -196q-206 0 -312 126.5t-106 368.5q0 210 98 447h-272zM434 485q0 -161 49.5 -239t159.5 -78q180 0 180 258v164h221v-164q0 -124 45 -191t136 -67 q107 0 159 76t52 239q0 217 -88 439h-820q-94 -242 -94 -437z" horiz-adv-x="1882" unicode="ϖ"/><glyph d="M193 0v1462h827v-202h-588v-398h551v-200h-551v-459h588v-203h-827zM275 1886v21h273q38 -70 103.5 -161t109.5 -142v-25h-158q-69 52 -174.5 150.5t-153.5 156.5z" horiz-adv-x="1143" unicode="Ѐ"/><glyph d="M193 0v1462h827v-202h-588v-398h551v-200h-551v-459h588v-203h-827zM303 1737q0 62 33.5 89.5t81.5 27.5q53 0 84.5 -31t31.5 -86q0 -53 -32 -85t-84 -32q-48 0 -81.5 29t-33.5 88zM696 1737q0 62 33.5 89.5t81.5 27.5q53 0 85 -31t32 -86q0 -54 -33 -85.5t-84 -31.5 q-48 0 -81.5 29t-33.5 88z" horiz-adv-x="1143" unicode="Ё"/><glyph d="M29 1257v205h1032v-205h-440v-346h370q218 0 334.5 -100t116.5 -281v-137q0 -198 -100 -305.5t-289 -107.5q-103 0 -176 30v203q84 -31 159 -31q87 0 126.5 49t39.5 146v129q0 108 -52 154.5t-171 46.5h-358v-707h-240v1257h-352z" horiz-adv-x="1575" unicode="Ђ"/><glyph d="M193 0v1462h868v-205h-629v-1257h-239zM473 1579v25q57 70 117.5 156t95.5 147h273v-21q-52 -61 -155.5 -157.5t-174.5 -149.5h-156z" horiz-adv-x="1106" unicode="Ѓ"/><glyph d="M121 731q0 228 86.5 398.5t250 262t388.5 91.5q231 0 436 -94l-90 -201q-125 55 -200 72.5t-154 17.5q-200 0 -320.5 -111t-140.5 -315h678v-203h-680q10 -223 126 -344t337 -121q161 0 389 66v-205q-180 -65 -410 -65q-336 0 -516 192t-180 559z" horiz-adv-x="1348" unicode="Є"/><glyph d="M100 57v226q100 -47 212.5 -74t209.5 -27q142 0 209.5 54t67.5 145q0 82 -62 139t-256 135q-200 81 -282 185t-82 250q0 183 130 288t349 105q210 0 418 -92l-76 -195q-195 82 -348 82q-116 0 -176 -50.5t-60 -133.5q0 -57 24 -97.5t79 -76.5t198 -95q161 -67 236 -125 t110 -131t35 -172q0 -195 -141 -306t-389 -111t-406 77z" horiz-adv-x="1126" unicode="Ѕ"/><glyph d="M193 0v1462h239v-1462h-239z" horiz-adv-x="625" unicode="І"/><glyph d="M193 0v1462h239v-1462h-239zM1 1737q0 62 33.5 89.5t81.5 27.5q53 0 84.5 -31t31.5 -86q0 -53 -32 -85t-84 -32q-48 0 -81.5 29t-33.5 88zM394 1737q0 62 33.5 89.5t81.5 27.5q53 0 85 -31t32 -86q0 -54 -33 -85.5t-84 -31.5q-48 0 -81.5 29t-33.5 88z" horiz-adv-x="625" unicode="Ї"/><glyph d="M-156 -182q84 -21 146 -21q196 0 196 248v1417h240v-1409q0 -224 -106.5 -342.5t-311.5 -118.5q-98 0 -164 25v201z" horiz-adv-x="612" unicode="Ј"/><glyph d="M8 2v199q57 -25 111 -25q72 0 113.5 89.5t92.5 405t111 791.5h768v-594h119q276 0 421.5 -109.5t145.5 -318.5q0 -217 -142.5 -328.5t-416.5 -111.5h-366v1257h-328l-29 -223q-50 -376 -84.5 -569.5t-79.5 -293t-116.5 -147t-180.5 -47.5q-73 0 -139 25zM1204 201h113 q163 0 245.5 56.5t82.5 182.5q0 120 -81 174t-274 54h-86v-467z" horiz-adv-x="1974" unicode="Љ"/><glyph d="M193 0v1462h239v-598h559v598h242v-594h117q278 0 422.5 -110.5t144.5 -317.5q0 -217 -141.5 -328.5t-415.5 -111.5h-369v659h-559v-659h-239zM1233 201h113q161 0 244 56.5t83 182.5q0 118 -80.5 173t-273.5 55h-86v-467z" horiz-adv-x="2001" unicode="Њ"/><glyph d="M29 1257v205h1065v-205h-473v-346h391q207 0 318.5 -99.5t111.5 -281.5v-530h-240v508q0 104 -47.5 151.5t-159.5 47.5h-374v-707h-240v1257h-352z" horiz-adv-x="1575" unicode="Ћ"/><glyph d="M193 0v1462h239v-708l592 708h262l-590 -706l619 -756h-281l-602 741v-741h-239zM567 1579v25q57 70 117.5 156t95.5 147h273v-21q-52 -61 -155.5 -157.5t-174.5 -149.5h-156z" horiz-adv-x="1315" unicode="Ќ"/><glyph d="M193 0v1462h219v-760q0 -119 -6 -240.5t-9 -164.5h9l747 1165h279v-1462h-220v754q0 173 19 420h-8l-750 -1174h-280zM456 1886v21h273q38 -70 103.5 -161t109.5 -142v-25h-158q-69 52 -174.5 150.5t-153.5 156.5z" horiz-adv-x="1622" unicode="Ѝ"/><glyph d="M12 1462h258l357 -733q48 -104 59 -139h10q6 26 30 83l329 789h250l-461 -1040q-85 -191 -156 -276.5t-164.5 -125.5t-226.5 -40q-116 0 -215 30v215q98 -39 205 -39q91 0 152.5 44.5t111.5 160.5zM242 1911h213q6 -72 27.5 -112t62 -57.5t123.5 -17.5q98 0 149 43.5 t62 143.5h217q-15 -172 -121 -252t-313 -80q-212 0 -310.5 76.5t-109.5 255.5z" horiz-adv-x="1305" unicode="Ў"/><glyph d="M193 0v1462h239v-1257h645v1257h240v-1462h-447v-403h-237v403h-440z" horiz-adv-x="1509" unicode="Џ"/><glyph d="M0 0l547 1468h260l547 -1468h-254l-146 406h-559l-143 -406h-252zM465 612h426l-137 398q-15 40 -41.5 126t-36.5 126q-27 -123 -79 -269z" horiz-adv-x="1354" unicode="А"/><glyph d="M193 0v1462h892v-205h-653v-389h174q576 0 576 -428q0 -440 -564 -440h-425zM432 201h172q172 0 252 56.5t80 182.5q0 121 -80.5 174.5t-280.5 53.5h-143v-467z" horiz-adv-x="1280" unicode="Б"/><glyph d="M193 0v1462h434q302 0 436.5 -88t134.5 -278q0 -128 -66 -213t-190 -107v-10q154 -29 226.5 -114.5t72.5 -231.5q0 -197 -137.5 -308.5t-382.5 -111.5h-528zM432 201h254q150 0 226.5 57.5t76.5 181.5q0 114 -78 169t-237 55h-242v-463zM432 858h230q150 0 219 47.5 t69 161.5q0 103 -74.5 149t-236.5 46h-207v-404z" horiz-adv-x="1352" unicode="В"/><glyph d="M193 0v1462h868v-205h-629v-1257h-239z" horiz-adv-x="1106" unicode="Г"/><glyph d="M12 205h113q145 265 243 595t126 662h755v-1257h189v-608h-230v403h-966v-403h-230v608zM377 205h633v1050h-316q-22 -227 -112 -526.5t-205 -523.5z" horiz-adv-x="1481" unicode="Д"/><glyph d="M193 0v1462h827v-202h-588v-398h551v-200h-551v-459h588v-203h-827z" horiz-adv-x="1143" unicode="Е"/><glyph d="M0 0l559 756l-534 706h256l520 -708v708h227v-708l520 708h256l-534 -706l557 -756h-264l-535 741v-741h-227v741l-535 -741h-266z" horiz-adv-x="1829" unicode="Ж"/><glyph d="M88 1327q225 156 530 156q232 0 367 -99t135 -264q0 -143 -94.5 -234t-261.5 -116v-6q192 -23 292.5 -113.5t100.5 -236.5q0 -204 -159.5 -319t-440.5 -115q-292 0 -467 79v209q97 -46 217.5 -71t220.5 -25q385 0 385 252q0 116 -115.5 177t-342.5 61h-176v192h165 q437 0 437 233q0 93 -74.5 147t-208.5 54q-106 0 -202 -28t-199 -95z" horiz-adv-x="1257" unicode="З"/><glyph d="M193 0v1462h219v-760q0 -119 -6 -240.5t-9 -164.5h9l747 1165h279v-1462h-220v754q0 173 19 420h-8l-750 -1174h-280z" horiz-adv-x="1622" unicode="И"/><glyph d="M193 0v1462h219v-760q0 -119 -6 -240.5t-9 -164.5h9l747 1165h279v-1462h-220v754q0 173 19 420h-8l-750 -1174h-280zM400 1911h213q6 -72 27.5 -112t62 -57.5t123.5 -17.5q98 0 149 43.5t62 143.5h217q-15 -172 -121 -252t-313 -80q-212 0 -310.5 76.5t-109.5 255.5z" horiz-adv-x="1622" unicode="Й"/><glyph d="M193 0v1462h239v-708l592 708h262l-590 -706l619 -756h-281l-602 741v-741h-239z" horiz-adv-x="1315" unicode="К"/><glyph d="M8 2v199q57 -25 111 -25q72 0 112.5 86.5t89 382.5t115.5 817h854v-1462h-239v1257h-416q-79 -640 -126.5 -871t-133.5 -321.5t-228 -87.5q-73 0 -139 25z" horiz-adv-x="1483" unicode="Л"/><glyph d="M193 0v1462h337l406 -1163h6l418 1163h338v-1462h-230v723q0 109 5.5 284t9.5 212h-8l-439 -1219h-211l-424 1221h-8q17 -272 17 -510v-711h-217z" horiz-adv-x="1890" unicode="М"/><glyph d="M193 0v1462h239v-598h674v598h240v-1462h-240v659h-674v-659h-239z" horiz-adv-x="1538" unicode="Н"/><glyph d="M121 735q0 362 178.5 556t509.5 194q326 0 504 -197t178 -555q0 -357 -178.5 -555t-505.5 -198q-331 0 -508.5 196.5t-177.5 558.5zM375 733q0 -270 109 -409.5t323 -139.5q213 0 321.5 138t108.5 411q0 269 -107.5 408t-320.5 139q-215 0 -324.5 -139t-109.5 -408z" horiz-adv-x="1612" unicode="О"/><glyph d="M193 0v1462h1124v-1462h-240v1257h-645v-1257h-239z" horiz-adv-x="1509" unicode="П"/><glyph d="M193 0v1462h421q274 0 410.5 -112t136.5 -330q0 -229 -150 -351t-427 -122h-152v-547h-239zM432 748h127q184 0 270 64t86 200q0 126 -77 188t-240 62h-166v-514z" horiz-adv-x="1260" unicode="Р"/><glyph d="M121 731q0 228 83.5 399t241.5 262t371 91q224 0 414 -94l-86 -199q-74 35 -156.5 61.5t-173.5 26.5q-206 0 -324 -146t-118 -403q0 -269 113.5 -407t328.5 -138q93 0 180 18.5t181 47.5v-205q-172 -65 -390 -65q-321 0 -493 194.5t-172 556.5z" horiz-adv-x="1298" unicode="С"/><glyph d="M29 1257v205h1099v-205h-430v-1257h-239v1257h-430z" horiz-adv-x="1159" unicode="Т"/><glyph d="M12 1462h258l357 -733q48 -104 59 -139h10q6 26 30 83l329 789h250l-461 -1040q-85 -191 -156 -276.5t-164.5 -125.5t-226.5 -40q-116 0 -215 30v215q98 -39 205 -39q91 0 152.5 44.5t111.5 160.5z" horiz-adv-x="1305" unicode="У"/><glyph d="M98 758q0 155 70 279.5t201 195t307 70.5h59v180h226v-180h61q177 0 307.5 -70t199 -193.5t68.5 -281.5q0 -163 -77 -293t-211.5 -195t-315.5 -65h-32v-225h-226v225h-33q-179 0 -314.5 65.5t-212.5 196.5t-77 291zM332 760q0 -170 101 -267.5t284 -97.5h18v713h-49 q-166 0 -260 -94.5t-94 -253.5zM961 395h20q180 0 281.5 96.5t101.5 268.5q0 160 -94.5 254t-259.5 94h-49v-713z" horiz-adv-x="1698" unicode="Ф"/><glyph d="M4 0l485 758l-454 704h266l338 -553l338 553h258l-457 -708l492 -754h-275l-366 598l-369 -598h-256z" horiz-adv-x="1274" unicode="Х"/><glyph d="M193 0v1462h239v-1257h645v1257h240v-1263h194v-602h-231v403h-1087z" horiz-adv-x="1554" unicode="Ц"/><glyph d="M139 868v594h240v-538q0 -114 56.5 -170t185.5 -56q95 0 185 17.5t218 60.5v686h240v-1462h-240v584q-135 -48 -240.5 -69t-212.5 -21q-207 0 -319.5 97.5t-112.5 276.5z" horiz-adv-x="1456" unicode="Ч"/><glyph d="M193 0v1462h239v-1257h526v1257h242v-1257h526v1257h242v-1462h-1775z" horiz-adv-x="2161" unicode="Ш"/><glyph d="M193 0v1462h239v-1257h518v1257h242v-1257h520v1257h240v-1263h194v-602h-231v403h-1722z" horiz-adv-x="2198" unicode="Щ"/><glyph d="M8 1257v205h592v-594h182q276 0 422 -109.5t146 -318.5q0 -217 -141.5 -328.5t-415.5 -111.5h-433v1257h-352zM600 201h178q161 0 243.5 56.5t82.5 182.5q0 118 -80.5 173t-271.5 55h-152v-467z" horiz-adv-x="1448" unicode="Ъ"/><glyph d="M193 0v1462h239v-594h170q274 0 417.5 -110t143.5 -318q0 -217 -140.5 -328.5t-412.5 -111.5h-417zM432 199h164q160 0 242 57.5t82 183.5q0 119 -78.5 172.5t-266.5 53.5h-143v-467zM1368 0v1462h240v-1462h-240z" horiz-adv-x="1800" unicode="Ы"/><glyph d="M193 0v1462h239v-594h207q278 0 425.5 -110.5t147.5 -317.5q0 -215 -144.5 -327.5t-418.5 -112.5h-456zM432 201h201q161 0 247.5 56.5t86.5 182.5q0 118 -83 173t-278 55h-174v-467z" horiz-adv-x="1311" unicode="Ь"/><glyph d="M66 1389q201 94 448 94q326 0 506 -196.5t180 -543.5q0 -368 -182.5 -565.5t-525.5 -197.5q-228 0 -408 65v205q100 -29 193 -47.5t192 -18.5q230 0 349.5 118.5t127.5 348.5h-676v203h674q-14 200 -130 312t-304 112q-166 0 -358 -86z" horiz-adv-x="1323" unicode="Э"/><glyph d="M193 0v1462h239v-598h322q28 301 194 461t451 160q309 0 479 -198t170 -554q0 -358 -169.5 -555.5t-479.5 -197.5q-297 0 -464.5 177.5t-184.5 501.5h-318v-659h-239zM997 733q0 -271 101 -410t299 -139q201 0 301 140t100 409q0 271 -101 409t-296 138q-200 0 -302 -139 t-102 -408z" horiz-adv-x="2171" unicode="Ю"/><glyph d="M20 0l412 641q-280 97 -280 408q0 201 139 307t409 106h439v-1462h-240v586h-244l-362 -586h-273zM397 1034q0 -118 78 -184t242 -66h182v478h-190q-151 0 -231.5 -53.5t-80.5 -174.5z" horiz-adv-x="1331" unicode="Я"/><glyph d="M90 317q0 171 127 258t387 95l191 6v59q0 106 -49.5 158.5t-153.5 52.5q-85 0 -163 -25t-150 -59l-76 168q90 47 197 71.5t202 24.5q211 0 318.5 -92t107.5 -289v-745h-168l-47 154h-8q-80 -101 -161 -137.5t-208 -36.5q-163 0 -254.5 88t-91.5 249zM334 315 q0 -74 44 -114.5t132 -40.5q128 0 205.5 71.5t77.5 200.5v96l-142 -6q-166 -6 -241.5 -55.5t-75.5 -151.5z" horiz-adv-x="1188" unicode="а"/><glyph d="M104 664q0 370 125.5 569t399.5 256q207 42 477 82l33 -207q-328 -50 -480 -78q-157 -29 -226.5 -129t-80.5 -301h15q57 83 149 128.5t197 45.5q204 0 318 -129t114 -362q0 -267 -138.5 -413t-383.5 -146q-243 0 -381 180t-138 504zM346 651q0 -236 75 -357.5t218 -121.5 q262 0 262 344q0 332 -237 332q-65 0 -126 -28t-112.5 -74t-79.5 -95z" horiz-adv-x="1247" unicode="б"/><glyph d="M168 0v1106h526q434 0 434 -283q0 -196 -229 -237v-8q128 -15 196 -81t68 -171q0 -157 -119.5 -241.5t-347.5 -84.5h-528zM403 174h277q242 0 242 166q0 80 -62 113.5t-186 33.5h-271v-313zM403 662h250q118 0 179 30.5t61 110.5q0 66 -51.5 95.5t-153.5 29.5h-285v-266z" horiz-adv-x="1237" unicode="в"/><glyph d="M168 0v1106h715v-184h-480v-922h-235z" horiz-adv-x="928" unicode="г"/><glyph d="M35 182h90q118 169 187.5 408.5t82.5 515.5h672v-924h162v-573h-219v391h-758v-391h-217v573zM371 182h465v744h-238q-19 -206 -79.5 -406t-147.5 -338z" horiz-adv-x="1266" unicode="д"/><glyph d="M102 545q0 271 135 426t371 155q219 0 346 -133t127 -366v-127h-737q5 -161 87 -247.5t231 -86.5q98 0 182.5 18.5t181.5 61.5v-191q-86 -41 -174 -58t-201 -17q-258 0 -403.5 150.5t-145.5 414.5zM348 670h502q-2 137 -66 207.5t-176 70.5t-179.5 -71t-80.5 -207z" horiz-adv-x="1180" unicode="е"/><glyph d="M2 0l473 571l-434 535h248l424 -537v537h219v-537l426 537h248l-435 -535l474 -571h-259l-454 561v-561h-219v561l-453 -561h-258z" horiz-adv-x="1647" unicode="ж"/><glyph d="M72 49v203q183 -86 379 -86q141 0 217.5 39.5t76.5 120.5q0 83 -77 122t-238 39h-135v177h117q161 0 237 35.5t76 109.5q0 135 -240 135q-160 0 -327 -72l-76 175q193 79 426 79q206 0 320 -75.5t114 -216.5q0 -186 -213 -244v-8q133 -36 190.5 -103t57.5 -166 q0 -152 -133.5 -242.5t-372.5 -90.5q-261 0 -399 69z" horiz-adv-x="1063" unicode="з"/><glyph d="M168 0v1106h225v-567q0 -99 -16 -291l555 858h287v-1106h-226v557q0 46 5.5 149t9.5 150l-553 -856h-287z" horiz-adv-x="1386" unicode="и"/><glyph d="M168 0v1106h225v-567q0 -99 -16 -291l555 858h287v-1106h-226v557q0 46 5.5 149t9.5 150l-553 -856h-287zM266 1573h213q6 -72 27.5 -112t62 -57.5t123.5 -17.5q98 0 149 43.5t62 143.5h217q-15 -172 -121 -252t-313 -80q-212 0 -310.5 76.5t-109.5 255.5z" horiz-adv-x="1386" unicode="й"/><glyph d="M168 0v1106h235v-537l451 537h258l-457 -533l496 -573h-270l-478 561v-561h-235z" horiz-adv-x="1165" unicode="к"/><glyph d="M8 4v184q37 -14 74 -14q102 0 160.5 229.5t91.5 702.5h743v-1106h-237v922h-305q-28 -356 -75.5 -556t-124 -292t-198.5 -92q-77 0 -129 22z" horiz-adv-x="1245" unicode="л"/><glyph d="M168 0v1106h311l240 -586q32 -81 84 -295l13 48q41 149 71 229l248 604h313v-1106h-217v893l-18 -60q-45 -161 -76 -237l-242 -596h-178l-242 600q-50 130 -92 293v-893h-215z" horiz-adv-x="1616" unicode="м"/><glyph d="M168 0v1106h235v-444h521v444h235v-1106h-235v477h-521v-477h-235z" horiz-adv-x="1327" unicode="н"/><glyph d="M102 555q0 269 138 420t389 151q240 0 380 -154.5t140 -416.5q0 -271 -139 -423t-387 -152q-155 0 -274 70t-183 201t-64 304zM344 555q0 -383 283 -383q280 0 280 383q0 379 -282 379q-148 0 -214.5 -98t-66.5 -281z" horiz-adv-x="1251" unicode="о"/><glyph d="M168 0v1106h967v-1106h-236v920h-496v-920h-235z" horiz-adv-x="1303" unicode="п"/><glyph d="M168 -492v1598h190q8 -31 33 -148h12q110 168 330 168q207 0 322.5 -150t115.5 -421t-117.5 -423t-324.5 -152q-210 0 -326 151h-14q14 -140 14 -170v-453h-235zM403 555q0 -202 64 -292.5t209 -90.5q122 0 188 100t66 285q0 186 -65.5 281.5t-192.5 95.5 q-140 0 -204.5 -82t-64.5 -262v-35z" horiz-adv-x="1276" unicode="р"/><glyph d="M102 547q0 279 136.5 429t394.5 150q175 0 315 -65l-71 -189q-149 58 -246 58q-287 0 -287 -381q0 -186 71.5 -279.5t209.5 -93.5q157 0 297 78v-205q-63 -37 -134.5 -53t-173.5 -16q-251 0 -381.5 146.5t-130.5 420.5z" horiz-adv-x="1014" unicode="с"/><glyph d="M43 922v184h956v-184h-360v-922h-236v922h-360z" horiz-adv-x="1044" unicode="т"/><glyph d="M0 1106h256l225 -627q51 -134 68 -252h8q9 55 33 133.5t254 745.5h254l-473 -1253q-129 -345 -430 -345q-78 0 -152 17v186q53 -12 121 -12q170 0 239 197l41 104z" horiz-adv-x="1098" unicode="у"/><glyph d="M102 553q0 253 149 399.5t423 165.5v438h221v-438q266 -24 416.5 -173t150.5 -392q0 -249 -150.5 -397t-416.5 -168v-480h-223v480q-263 20 -416.5 170.5t-153.5 394.5zM346 553q0 -164 82 -264t246 -117v762q-165 -19 -246.5 -118t-81.5 -263zM895 172 q163 19 243.5 118.5t80.5 262.5q0 162 -81.5 260t-242.5 117v-758z" horiz-adv-x="1565" unicode="ф"/><glyph d="M25 0l389 565l-371 541h268l252 -387l254 387h266l-372 -541l391 -565h-266l-273 414l-272 -414h-266z" horiz-adv-x="1128" unicode="х"/><glyph d="M168 0v1106h235v-920h515v920h235v-924h160v-571h-221v389h-924z" horiz-adv-x="1346" unicode="ц"/><glyph d="M139 692v414h236v-404q0 -170 176 -170q85 0 166 23.5t174 75.5v475h235v-1106h-235v469q-97 -60 -187.5 -88.5t-197.5 -28.5q-173 0 -270 89.5t-97 250.5z" horiz-adv-x="1294" unicode="ч"/><glyph d="M168 0v1106h235v-920h431v920h235v-920h430v920h236v-1106h-1567z" horiz-adv-x="1903" unicode="ш"/><glyph d="M168 0v1106h235v-920h431v920h235v-920h430v920h236v-924h159v-571h-221v389h-1505z" horiz-adv-x="1927" unicode="щ"/><glyph d="M20 922v184h588v-442h264q241 0 357.5 -80t116.5 -240q0 -169 -118 -256.5t-351 -87.5h-504v922h-353zM608 174h264q238 0 238 164q0 83 -60.5 116t-183.5 33h-258v-313z" horiz-adv-x="1438" unicode="ъ"/><glyph d="M168 0v1106h235v-442h224q232 0 343 -80t111 -240q0 -171 -115.5 -257.5t-338.5 -86.5h-459zM403 174h177q142 0 205 40t63 124q0 83 -61.5 116t-176.5 33h-207v-313zM1255 0v1106h236v-1106h-236z" horiz-adv-x="1659" unicode="ы"/><glyph d="M168 0v1106h235v-442h277q463 0 463 -320q0 -169 -118 -256.5t-345 -87.5h-512zM403 174h267q116 0 176.5 42t60.5 122q0 83 -63 116t-178 33h-263v-313z" horiz-adv-x="1235" unicode="ь"/><glyph d="M66 43v193q159 -70 309 -70q286 0 305 313h-487v172h487q-12 149 -81 219t-200 70q-98 0 -258 -57l-65 174q67 31 154.5 50t172.5 19q261 0 391 -144t130 -423t-139.5 -429t-405.5 -150q-185 0 -313 63z" horiz-adv-x="1028" unicode="э"/><glyph d="M168 0v1106h235v-444h246q25 220 154.5 342t343.5 122q230 0 364 -154.5t134 -416.5q0 -272 -132.5 -423.5t-369.5 -151.5q-218 0 -346.5 128.5t-149.5 368.5h-244v-477h-235zM887 555q0 -189 60.5 -286t197.5 -97q136 0 197 97t61 286q0 187 -61 283t-197 96 q-137 0 -197.5 -96t-60.5 -283z" horiz-adv-x="1749" unicode="ю"/><glyph d="M18 0l308 453q-112 32 -176 114.5t-64 204.5q0 157 112 245.5t306 88.5h504v-1106h-236v426h-223l-268 -426h-263zM315 770q0 -85 64.5 -127.5t173.5 -42.5h219v328h-256q-96 0 -148.5 -41t-52.5 -117z" horiz-adv-x="1176" unicode="я"/><glyph d="M102 545q0 271 135 426t371 155q219 0 346 -133t127 -366v-127h-737q5 -161 87 -247.5t231 -86.5q98 0 182.5 18.5t181.5 61.5v-191q-86 -41 -174 -58t-201 -17q-258 0 -403.5 150.5t-145.5 414.5zM348 670h502q-2 137 -66 207.5t-176 70.5t-179.5 -71t-80.5 -207z M283 1548v21h273q38 -70 103.5 -161t109.5 -142v-25h-158q-69 52 -174.5 150.5t-153.5 156.5z" horiz-adv-x="1180" unicode="ѐ"/><glyph d="M102 545q0 271 135 426t371 155q219 0 346 -133t127 -366v-127h-737q5 -161 87 -247.5t231 -86.5q98 0 182.5 18.5t181.5 61.5v-191q-86 -41 -174 -58t-201 -17q-258 0 -403.5 150.5t-145.5 414.5zM348 670h502q-2 137 -66 207.5t-176 70.5t-179.5 -71t-80.5 -207z M297 1399q0 62 33.5 89.5t81.5 27.5q53 0 84.5 -31t31.5 -86q0 -53 -32 -85t-84 -32q-48 0 -81.5 29t-33.5 88zM690 1399q0 62 33.5 89.5t81.5 27.5q53 0 85 -31t32 -86q0 -54 -33 -85.5t-84 -31.5q-48 0 -81.5 29t-33.5 88z" horiz-adv-x="1180" unicode="ё"/><glyph d="M12 1219v163h156v174h235v-174h359v-163h-359v-107q0 -29 -2 -69.5t-10 -133.5h15q54 87 141.5 127.5t193.5 40.5q400 0 400 -405v-815q0 -168 -82.5 -258.5t-237.5 -90.5q-91 0 -157 25v188q58 -18 116 -18q125 0 125 170v768q0 244 -215 244q-148 0 -217.5 -90 t-69.5 -295v-500h-235v1219h-156z" horiz-adv-x="1300" unicode="ђ"/><glyph d="M168 0v1106h715v-184h-480v-922h-235zM368 1241v25q57 70 117.5 156t95.5 147h273v-21q-52 -61 -155.5 -157.5t-174.5 -149.5h-156z" horiz-adv-x="928" unicode="ѓ"/><glyph d="M102 547q0 285 135.5 432t407.5 147q183 0 328 -65l-70 -178q-154 57 -264 57q-134 0 -205 -71t-88 -218h488v-172h-488q11 -161 81 -237t206 -76q152 0 315 70v-191q-132 -65 -305 -65q-264 0 -402.5 145t-138.5 422z" horiz-adv-x="1040" unicode="є"/><glyph d="M98 827q0 142 114.5 220.5t311.5 78.5q195 0 369 -79l-76 -177q-179 74 -301 74q-186 0 -186 -106q0 -52 48.5 -88t211.5 -99q137 -53 199 -97t92 -101.5t30 -137.5q0 -162 -118 -248.5t-338 -86.5q-221 0 -355 67v203q195 -90 363 -90q217 0 217 131q0 42 -24 70t-79 58 t-153 68q-191 74 -258.5 148t-67.5 192z" horiz-adv-x="997" unicode="ѕ"/><glyph d="M154 1399q0 63 34.5 97t98.5 34q62 0 96.5 -34t34.5 -97q0 -60 -34.5 -94.5t-96.5 -34.5q-64 0 -98.5 34.5t-34.5 94.5zM168 0v1106h235v-1106h-235z" horiz-adv-x="571" unicode="і"/><glyph d="M168 0v1106h235v-1106h-235zM-23 1399q0 62 33.5 89.5t81.5 27.5q53 0 84.5 -31t31.5 -86q0 -53 -32 -85t-84 -32q-48 0 -81.5 29t-33.5 88zM370 1399q0 62 33.5 89.5t81.5 27.5q53 0 85 -31t32 -86q0 -54 -33 -85.5t-84 -31.5q-48 0 -81.5 29t-33.5 88z" horiz-adv-x="571" unicode="ї"/><glyph d="M-121 -281q68 -18 139 -18q150 0 150 170v1235h235v-1251q0 -171 -89.5 -259t-258.5 -88q-106 0 -176 25v186zM154 1399q0 63 34.5 97t98.5 34q62 0 96.5 -34t34.5 -97q0 -60 -34.5 -94.5t-96.5 -34.5q-64 0 -98.5 34.5t-34.5 94.5z" horiz-adv-x="571" unicode="ј"/><glyph d="M8 4v184q37 -14 74 -14q102 0 160.5 229.5t91.5 702.5h696v-442h193q230 0 340 -80t110 -240q0 -171 -116.5 -257.5t-342.5 -86.5h-432v922h-247q-28 -361 -75 -558.5t-123.5 -288.5t-197.5 -91q-84 0 -131 20zM1020 174h184q115 0 174.5 42t59.5 122q0 83 -60.5 116 t-177.5 33h-180v-313z" horiz-adv-x="1765" unicode="љ"/><glyph d="M168 0v1106h238v-444h428v444h237v-442h199q232 0 342 -80t110 -240q0 -170 -114.5 -257t-341.5 -87h-435v477h-425v-477h-238zM1069 174h186q234 0 234 164q0 83 -60.5 116t-177.5 33h-182v-313z" horiz-adv-x="1817" unicode="њ"/><glyph d="M12 1219v163h156v174h235v-174h381v-163h-381v-107q0 -29 -2 -69.5t-10 -133.5h15q54 87 141.5 127.5t193.5 40.5q400 0 400 -405v-672h-236v631q0 127 -51.5 190.5t-163.5 63.5q-148 0 -217.5 -88.5t-69.5 -296.5v-500h-235v1219h-156z" horiz-adv-x="1300" unicode="ћ"/><glyph d="M168 0v1106h235v-537l451 537h258l-457 -533l496 -573h-270l-478 561v-561h-235zM475 1241v25q57 70 117.5 156t95.5 147h273v-21q-52 -61 -155.5 -157.5t-174.5 -149.5h-156z" horiz-adv-x="1165" unicode="ќ"/><glyph d="M168 0v1106h225v-567q0 -99 -16 -291l555 858h287v-1106h-226v557q0 46 5.5 149t9.5 150l-553 -856h-287zM351 1548v21h273q38 -70 103.5 -161t109.5 -142v-25h-158q-69 52 -174.5 150.5t-153.5 156.5z" horiz-adv-x="1386" unicode="ѝ"/><glyph d="M0 1106h256l225 -627q51 -134 68 -252h8q9 55 33 133.5t254 745.5h254l-473 -1253q-129 -345 -430 -345q-78 0 -152 17v186q53 -12 121 -12q170 0 239 197l41 104zM124 1573h213q6 -72 27.5 -112t62 -57.5t123.5 -17.5q98 0 149 43.5t62 143.5h217q-15 -172 -121 -252 t-313 -80q-212 0 -310.5 76.5t-109.5 255.5z" horiz-adv-x="1098" unicode="ў"/><glyph d="M168 0v1106h235v-920h517v920h235v-1106h-381v-389h-219v389h-387z" horiz-adv-x="1323" unicode="џ"/><glyph d="M125 766q0 341 138.5 528t385.5 187q81 0 159 -26.5t138 -68.5l-90 -180q-69 45 -111.5 59.5t-85.5 14.5q-137 0 -213.5 -133.5t-76.5 -382.5q0 -277 98.5 -426.5t277.5 -149.5q114 0 205 74v426h240v-426q90 -74 213 -74q181 0 279 149.5t98 426.5q0 246 -77 381 t-214 135q-43 0 -87 -15t-112 -59l-88 180q60 42 137.5 68.5t157.5 26.5q248 0 387 -187t139 -528q0 -372 -153 -579t-430 -207q-116 0 -203 29.5t-164 90.5q-87 -66 -172.5 -93t-191.5 -27q-278 0 -431 206t-153 580z" horiz-adv-x="2148" unicode="Ѡ"/><glyph d="M2 1106h246l221 -668q37 -109 61 -256h9q10 38 26 81t183 427l-150 416h262l193 -604q73 -227 90 -297h8q140 170 200 378t60 523h238q0 -367 -99.5 -629t-312.5 -477h-227l-164 418l-47 -111l-144 -307h-262z" horiz-adv-x="1745" unicode="ѡ"/><glyph d="M10 1124v189h289v243h240v-243h397v-189h-397v-256h161q284 0 432 -109.5t148 -318.5q0 -218 -142.5 -329t-422.5 -111h-416v1124h-289zM539 199h159q169 0 253.5 57.5t84.5 183.5q0 121 -84.5 173.5t-281.5 52.5h-131v-467z" horiz-adv-x="1380" unicode="Ѣ"/><glyph d="M10 922v184h248v213h236v-213h350v-184h-350v-258h266q471 0 471 -320q0 -169 -117.5 -256.5t-349.5 -87.5h-506v922h-248zM494 174h258q245 0 245 164q0 83 -63.5 116t-185.5 33h-254v-313z" horiz-adv-x="1325" unicode="ѣ"/><glyph d="M193 0v1462h239v-598h285q38 293 223 455t487 164q222 0 422 -99l-86 -198q-199 92 -344 92q-196 0 -312 -106.5t-142 -307.5h657v-205h-659q10 -225 128 -350t326 -125q97 0 188 18.5t189 47.5v-205q-176 -65 -399 -65q-316 0 -492.5 175.5t-191.5 503.5h-279v-659h-239 z" horiz-adv-x="1913" unicode="Ѥ"/><glyph d="M168 0v1106h235v-444h254q25 228 155 346t362 118q168 0 323 -67l-67 -176q-139 57 -250 57q-133 0 -201 -69t-80 -209h479v-185h-481q9 -163 83 -237t208 -74q144 0 303 70v-193q-124 -63 -309 -63q-237 0 -372.5 126.5t-152.5 370.5h-254v-477h-235z" horiz-adv-x="1573" unicode="ѥ"/><glyph d="M0 0l586 1464h268l588 -1464h-242l-248 655h-125v-655h-213v655h-127l-247 -655h-240zM559 850h322l-82 213q-66 170 -78 219q-6 -27 -25.5 -82t-136.5 -350z" horiz-adv-x="1442" unicode="Ѧ"/><glyph d="M4 0l469 1106h285l469 -1106h-232l-180 455h-94v-455h-209v455h-96l-178 -455h-234zM481 629h271q-112 266 -136 338q-29 -81 -135 -338z" horiz-adv-x="1233" unicode="ѧ"/><glyph d="M193 0v1462h239v-598h445l239 600h268l588 -1464h-246l-245 659h-123v-659h-213v659h-125l-246 -659h-244l265 659h-363v-659h-239zM1092 854h315q-102 264 -124 326.5t-32 101.5q-7 -31 -28.5 -90.5t-130.5 -337.5z" horiz-adv-x="1972" unicode="Ѩ"/><glyph d="M168 0v1106h215v-444h375l190 444h285l469 -1106h-232l-186 475h-90v-475h-207v475h-88l-188 -475h-232l201 477h-297v-477h-215zM965 649h252q-74 177 -92 225.5t-33 92.5l-88 -226z" horiz-adv-x="1708" unicode="ѩ"/><glyph d="M31 0q31 105 143 453q47 146 96 220t119 115.5t170 55.5l-393 481v137h1233v-137l-404 -481q154 -22 242 -107.5t149 -283.5l144 -453h-244l-129 420q-41 133 -94 188.5t-127 55.5h-35v-664h-239v664h-33q-77 0 -128 -54t-93 -190l-129 -420h-248zM465 1255l315 -383 l316 383h-631z" horiz-adv-x="1561" unicode="Ѫ"/><glyph d="M16 0l123 340q54 152 121 217t178 86l-311 358v105h1044v-105l-315 -360q75 -14 127 -46t90 -86.5t80 -168.5l125 -340h-215l-115 315q-34 96 -73 133t-93 37h-28v-485h-209v485h-33q-59 0 -96 -35.5t-72 -134.5l-115 -315h-213zM412 934l235 -272l238 272h-473z" horiz-adv-x="1294" unicode="ѫ"/><glyph d="M193 0v1462h239v-598h653l-376 461v137h1230v-137l-401 -483q104 -13 175.5 -55.5t121 -117t94.5 -216.5l144 -453h-240l-131 420q-45 144 -97.5 193t-148.5 49h-12v-662h-240v662h-12q-96 0 -148 -48.5t-98 -193.5l-129 -420h-244l144 449q50 156 102 210h-387v-659 h-239zM1008 1255l315 -385l315 385h-630z" horiz-adv-x="2095" unicode="Ѭ"/><glyph d="M168 0v1106h215v-444h514l-297 339v105h1045v-105l-316 -360q75 -14 127 -46t90 -86.5t80 -168.5l125 -340h-215l-115 315q-34 96 -73 133t-93 37h-28v-485h-209v485h-33q-59 0 -96 -35.5t-72 -134.5l-115 -315h-213l125 340q41 107 72 137h-303v-477h-215zM885 934 l235 -270l238 270h-473z" horiz-adv-x="1767" unicode="ѭ"/><glyph d="M51 -125q0 147 113 219t358 82q199 6 287 65t88 185q0 117 -117 176.5t-342 59.5h-176v192h166q436 0 436 233q0 96 -74.5 148.5t-207.5 52.5q-208 0 -400 -123l-110 162q176 117 370 143q-27 33 -61 71.5t-164 174.5v27h166q75 -53 217 -195q75 93 117 129.5t88 59 t100 22.5q66 0 111 -14v-133q-26 12 -78 12q-43 0 -93.5 -38t-101.5 -116q169 -27 265 -121t96 -229q0 -138 -91.5 -230.5t-258.5 -119.5v-8q187 -22 287 -112.5t100 -233.5q0 -203 -153.5 -315.5t-444.5 -118.5q-97 -2 -151.5 -13t-77.5 -32t-23 -64q0 -51 41.5 -73.5 t118.5 -22.5q95 0 205 5t171 5q146 0 199 -39v-199q-22 19 -72.5 33.5t-128.5 14.5q-70 0 -176 -5q-107 -6 -225 -6q-181 0 -277 76t-96 213z" horiz-adv-x="1243" unicode="Ѯ"/><glyph d="M27 -125q0 287 419 291q299 2 299 162q0 83 -78 121t-239 38h-133v177h117q161 0 237 35.5t76 109.5q0 135 -240 135q-160 0 -327 -72l-76 175q134 54 252 69q-70 85 -187 209v27h160q78 -55 211 -193q72 89 115.5 127.5t91 60t100.5 21.5q64 0 109 -14v-133 q-29 12 -76 12q-45 0 -91.5 -35t-84.5 -92q124 -30 192 -101t68 -171q0 -187 -209 -244v-8q131 -37 187.5 -102t56.5 -165q0 -160 -135 -246t-381 -87q-84 -1 -133.5 -11.5t-72 -30t-22.5 -59.5q0 -47 36 -69.5t128 -22.5q85 0 187 5l151 5q132 0 164 -41v-186 q-19 19 -61 31t-97 12q-69 0 -167.5 -5t-217.5 -5q-161 0 -245 69t-84 201z" horiz-adv-x="1063" unicode="ѯ"/><glyph d="M109 979v483h231v-479q0 -176 91.5 -260t283.5 -84h28v823h224v-823h30q182 0 277.5 85.5t95.5 254.5v483h234v-481q0 -263 -150.5 -402t-437.5 -139h-49v-440h-224v440h-49q-283 0 -434 136.5t-151 402.5z" horiz-adv-x="1712" unicode="Ѱ"/><glyph d="M154 553v553h227v-559q0 -186 78.5 -277t249.5 -102v1388h223v-1386q180 15 267 113.5t87 291.5q0 113 -15 233.5t-57 297.5h226q69 -272 69 -528q0 -273 -145.5 -426.5t-431.5 -169.5v-474h-223v474q-275 9 -415 152.5t-140 418.5z" horiz-adv-x="1628" unicode="ѱ"/><glyph d="M121 735q0 362 178.5 556t509.5 194q326 0 504 -197t178 -555q0 -357 -178.5 -555t-505.5 -198q-331 0 -508.5 196.5t-177.5 558.5zM375 645q15 -227 125.5 -344t306.5 -117q195 0 304 115.5t126 345.5h-862zM377 848h856q-21 213 -128 322.5t-296 109.5t-299 -108 t-133 -324z" horiz-adv-x="1614" unicode="Ѳ"/><glyph d="M102 555q0 269 138 420t389 151q240 0 380 -154.5t140 -416.5q0 -271 -139 -423t-387 -152q-155 0 -274 70t-183 201t-64 304zM346 475q12 -152 80 -227.5t201 -75.5q131 0 197.5 75.5t78.5 227.5h-557zM348 651h555q-15 141 -82.5 212t-195.5 71q-129 0 -196 -71.5 t-81 -211.5z" horiz-adv-x="1251" unicode="ѳ"/><glyph d="M0 1462h246l313 -923q58 -186 86 -322q24 135 86 334l166 518q60 190 104 264.5t101.5 108t142.5 33.5q73 0 154 -29v-193q-53 23 -103 23q-54 0 -90 -47t-82 -191l-344 -1038h-268z" horiz-adv-x="1374" unicode="Ѵ"/><glyph d="M0 1106h246l215 -619q79 -231 88 -305h6q8 53 33 145t49 165l108 327q44 132 81 189t87.5 82.5t133.5 25.5q65 0 112 -20v-181q-33 13 -76 13q-46 0 -71.5 -36t-46.5 -101l-277 -791h-272z" horiz-adv-x="1137" unicode="ѵ"/><glyph d="M0 1462h246l313 -923q58 -186 86 -322q24 135 86 334l166 518q60 190 104 264.5t101.5 108t142.5 33.5q73 0 154 -29v-193q-53 23 -103 23q-54 0 -90 -47t-82 -191l-344 -1038h-268zM176 1886v21h244q28 -61 77.5 -148t98.5 -155v-25h-129q-68 54 -164.5 155t-126.5 152z M553 1886v21h244q28 -61 77.5 -148t98.5 -155v-25h-129q-68 54 -164.5 155t-126.5 152z" horiz-adv-x="1374" unicode="Ѷ"/><glyph d="M0 1106h246l215 -619q79 -231 88 -305h6q8 53 33 145t49 165l108 327q44 132 81 189t87.5 82.5t133.5 25.5q65 0 112 -20v-181q-33 13 -76 13q-46 0 -71.5 -36t-46.5 -101l-277 -791h-272zM74 1548v21h244q28 -61 77.5 -148t98.5 -155v-25h-129q-68 54 -164.5 155 t-126.5 152zM451 1548v21h244q28 -61 77.5 -148t98.5 -155v-25h-129q-68 54 -164.5 155t-126.5 152z" horiz-adv-x="1137" unicode="ѷ"/><glyph d="M121 735q0 368 164 559t477 191q308 0 471.5 -194.5t163.5 -557.5t-165 -558t-472 -195q-312 0 -475.5 193t-163.5 562zM371 733q0 -278 97.5 -413.5t291.5 -135.5q197 0 292 135t95 414q0 275 -94 411t-291 136t-294 -136t-97 -411zM1487 1106h256l227 -629 q49 -127 68 -252h8q14 83 72 254l213 627h252l-472 -1253q-128 -345 -430 -345q-77 0 -151 17v186q53 -12 121 -12q170 0 239 197l41 104z" horiz-adv-x="2589" unicode="Ѹ"/><glyph d="M102 555q0 269 138 420t389 151q240 0 380 -154.5t140 -416.5q0 -271 -139 -423t-387 -152q-155 0 -274 70t-183 201t-64 304zM344 555q0 -383 283 -383q280 0 280 383q0 379 -282 379q-148 0 -214.5 -98t-66.5 -281zM1161 1106h256l225 -627q54 -155 68 -252h6 q18 93 72 254l217 625h252l-471 -1253q-129 -345 -430 -345q-75 0 -154 17v186q55 -12 123 -12q171 0 240 197l39 104z" horiz-adv-x="2259" unicode="ѹ"/><glyph d="M121 735q0 316 151.5 507.5t432.5 230.5q13 62 50 86t93 24q54 0 91 -24t52 -86q277 -39 429.5 -233.5t152.5 -506.5q0 -311 -152.5 -506.5t-425.5 -236.5q-29 -113 -147 -113q-120 0 -146 113q-279 38 -430 233t-151 512zM371 733q0 -217 84 -355.5t252 -178.5 q20 45 55 62.5t86 17.5q103 0 139 -80q169 40 252.5 178.5t83.5 355.5q0 214 -83.5 352t-250.5 179q-34 -82 -141 -82q-105 0 -143 80q-168 -41 -251 -178t-83 -351z" horiz-adv-x="1694" unicode="Ѻ"/><glyph d="M102 555q0 237 119 381t334 178q9 51 42 70.5t87 19.5q50 0 83 -19.5t44 -72.5q213 -36 333 -183t120 -374q0 -235 -116.5 -379.5t-332.5 -181.5q-18 -105 -131 -105q-116 0 -133 107q-211 36 -330 182.5t-119 376.5zM344 555q0 -316 211 -375q15 40 44 59t85 19 q53 0 82.5 -20t46.5 -58q209 60 209 375q0 307 -207 369q-14 -45 -44.5 -66.5t-86.5 -21.5q-59 0 -89 21.5t-44 66.5q-207 -62 -207 -369z" horiz-adv-x="1368" unicode="ѻ"/><glyph d="M121 766q0 341 138.5 528t387.5 187q153 0 285 -97l-80 -180q-103 76 -197 76q-137 0 -213.5 -133.5t-76.5 -382.5q0 -277 96 -427.5t268 -150.5q92 0 181.5 45t156.5 125q69 -80 158 -125t180 -45q173 0 270 151.5t97 426.5q0 246 -77 381t-214 135q-60 0 -109.5 -24 t-89.5 -52l-78 180q130 97 285 97q248 0 386 -187t138 -528q0 -370 -153 -578t-433 -208q-113 0 -199 30t-161 90q-75 -60 -161 -90t-199 -30q-280 0 -433 206.5t-153 579.5zM729 1868v39q0 241 252 241q58 0 114.5 -18.5t116 -40.5t125.5 -40.5t144 -18.5h14v-158h-16 q-98 0 -171 17t-131 38t-104 38t-88 17q-53 0 -74.5 -28.5t-27.5 -85.5h-154zM942 1520v79q59 17 89 45t30 54q0 19 -17 27.5t-37.5 17t-37.5 21.5t-17 40q0 92 121 92q66 0 103.5 -39t37.5 -104q0 -89 -74.5 -152t-197.5 -81z" horiz-adv-x="2136" unicode="Ѽ"/><glyph d="M102 555q0 280 111 425.5t328 145.5q138 0 245 -57l-71 -174q-88 47 -162 47q-207 0 -207 -385q0 -189 66 -288t198 -99q141 0 258 102q51 -43 114 -74.5t144 -31.5q131 0 198 100t67 291q0 385 -205 385q-51 0 -90.5 -15t-73.5 -32l-72 174q112 57 248 57 q216 0 326 -145.5t110 -425.5t-127.5 -427.5t-369.5 -147.5q-161 0 -269 88q-108 -88 -266 -88q-241 0 -370.5 147.5t-129.5 427.5zM510 1556v39q0 118 60.5 179t191.5 61q58 0 114.5 -18.5t116 -41t125.5 -41t144 -18.5h14v-157h-16q-99 0 -172.5 17.5t-131 38.5t-103 38.5 t-87.5 17.5q-51 0 -72.5 -27.5t-29.5 -87.5h-154zM723 1208v78q59 19 88 46.5t29 53.5q0 19 -16.5 28t-37 17t-37 21t-16.5 41q0 45 32.5 68.5t88.5 23.5q66 0 103.5 -39t37.5 -104q0 -91 -75.5 -153.5t-196.5 -80.5z" horiz-adv-x="1739" unicode="ѽ"/><glyph d="M106 766q0 339 137.5 527t387.5 188q151 0 287 -95l-80 -180q-69 45 -111.5 59.5t-85.5 14.5q-136 0 -213.5 -133.5t-77.5 -382.5q0 -274 99 -425t282 -151q109 0 207 76v424h240v-420q93 -80 213 -80q183 0 282 150.5t99 425.5q0 246 -77 381t-214 135q-43 0 -87 -15 t-112 -59l-78 180q133 95 285 95q248 0 386 -187t138 -528q0 -373 -153.5 -579.5t-432.5 -206.5q-115 0 -202 31.5t-164 92.5q-88 -66 -176 -95t-193 -29q-279 0 -432.5 206t-153.5 580zM643 1767v60h830v-60l-80 -170h-45l-50 103h-170l-49 -103h-43l-49 103h-172l-47 -103 h-45z" horiz-adv-x="2122" unicode="Ѿ"/><glyph d="M2 1106h246l221 -666q42 -125 63 -256h9q22 76 68.5 186.5t142.5 315.5l-156 420h248l203 -604q81 -251 92 -297h8q141 167 202.5 372t61.5 529h238q0 -253 -42 -437t-134 -349t-242 -320h-234l-112 311l-35 109l-45 -111l-135 -309h-271zM420 1386v58h829v-58l-82 -172 h-43l-49 103h-172l-49 -103h-43l-49 103h-170l-49 -103h-43z" horiz-adv-x="1745" unicode="ѿ"/><glyph d="M121 731q0 225 88 396.5t253 263.5t388 92q236 0 432 -94l-86 -199q-196 88 -352 88q-221 0 -346 -146.5t-125 -402.5q0 -270 118.5 -406.5t350.5 -136.5q127 0 241 31v-709h-239v472q-352 0 -537.5 192.5t-185.5 558.5z" horiz-adv-x="1348" unicode="Ҁ"/><glyph d="M102 547q0 285 135.5 432t407.5 147q177 0 324 -67l-70 -187q-156 58 -260 58q-153 0 -224 -92.5t-71 -288.5q0 -192 77 -283.5t218 -91.5q75 0 126 12t97 29v-707h-235v474h-13q-248 8 -380 150.5t-132 414.5z" horiz-adv-x="1036" unicode="ҁ"/><glyph d="M104 549l68 119l289 -166l201 350l-287 166l69 121l287 -166l184 315l123 -71l-184 -318l289 -164l-72 -119l-285 164l-202 -350l286 -166l-69 -119l-287 164l-180 -313l-125 70l180 317z" horiz-adv-x="1247" unicode="҂"/><glyph d="M190 1272q0 56 23.5 81t79.5 25h455q11 95 102 95q102 0 102 -109q0 -56 -24 -84.5t-80 -28.5h-455q-13 -94 -102 -94q-101 0 -101 115z" horiz-adv-x="1141" unicode="҃"/><glyph d="M246 1249v158h12q78 0 144 18.5t125.5 41t115.5 41t115 18.5q130 0 192 -60t62 -180v-41h-154v27q0 88 -104 88q-42 0 -88 -17.5t-103 -38t-130.5 -38t-170.5 -17.5h-16z" horiz-adv-x="1182" unicode="҄"/><glyph d="M469 1462q0 65 38.5 104.5t104.5 39.5q57 0 89 -24t32 -69q0 -42 -54 -61q-27 -10 -40.5 -20t-13.5 -25q0 -26 29 -53.5t89 -44.5v-80q-124 19 -199 81.5t-75 151.5z" horiz-adv-x="1182" unicode="҅"/><glyph d="M471 1229v80q59 17 88 44.5t29 53.5q0 19 -16.5 27.5t-37 17t-37 21.5t-16.5 40q0 45 32 69t89 24q66 0 103.5 -39.5t37.5 -108.5q0 -86 -74 -148t-198 -81z" horiz-adv-x="1182" unicode="҆"/><glyph d="M41 459q5 90 55.5 142t153.5 52q92 0 149.5 -51t63.5 -143h-80q-5 45 -35 66.5t-98 21.5q-78 0 -103 -19.5t-30 -68.5h-76zM219 -41q5 90 55.5 142.5t153.5 52.5q92 0 149.5 -51t63.5 -144h-80q-5 45 -35 66.5t-98 21.5q-78 0 -103 -19.5t-30 -68.5h-76zM219 946 q5 90 55.5 142.5t153.5 52.5q92 0 149.5 -51t63.5 -144h-80q-5 45 -35 66.5t-98 21.5q-78 0 -103 -19.5t-30 -68.5h-76zM793 -319q5 89 55 141.5t153 52.5q92 0 149.5 -51t63.5 -143h-79q-5 44 -35 66t-99 22q-78 0 -103 -20.5t-30 -67.5h-75zM793 1231q11 194 208 194 q93 0 149.5 -50.5t63.5 -143.5h-79q-5 44 -35 66t-99 22q-78 0 -103 -20.5t-30 -67.5h-75zM1372 -41q5 90 55.5 142.5t153.5 52.5q92 0 149.5 -51t63.5 -144h-80q-5 45 -35 66.5t-98 21.5q-78 0 -103 -19.5t-30 -68.5h-76zM1372 946q5 90 55.5 142.5t153.5 52.5 q92 0 149.5 -51t63.5 -144h-80q-5 45 -35 66.5t-98 21.5q-78 0 -103 -19.5t-30 -68.5h-76zM1563 459q11 194 209 194q92 0 149.5 -52t63.5 -142h-80q-5 44 -35 66t-98 22q-78 0 -103.5 -20t-30.5 -68h-75z" horiz-adv-x="2025" unicode="҈"/><glyph d="M41 565v97q221 -53 350 -70v-139l-14 -11q-66 17 -161.5 52t-174.5 71zM236 -57q225 146 296 198l97 -96l-4 -18q-131 -78 -322 -152zM324 1204l67 68q158 -243 199 -297l-96 -98l-19 4q-31 50 -76 146.5t-75 176.5zM870 -385q53 221 70 350h139l11 -14 q-17 -66 -52 -161.5t-71 -174.5h-97zM870 1155q19 71 55.5 171t67.5 165h97q-52 -220 -70 -350h-139zM1325 1016l4 18q126 78 324 152l67 -68q-234 -152 -297 -198zM1366 86l96 98l19 -4q35 -58 78.5 -152t72.5 -171l-67 -68q-144 222 -199 297zM1567 512v139l14 11 q71 -19 171 -55.5t165 -67.5v-97q-221 53 -350 70z" horiz-adv-x="1958" unicode="҉"/><glyph d="M193 0v1462h219v-762q0 -90 -15 -405h9q199 315 747 1167h277v-1253h260l-162 -612h-271l173 403h-218v754q0 29 1.5 71.5t3 89t4 92.5t4.5 83t3.5 60t2.5 24h-8l-752 -1174h-278zM385 1911h215q7 -102 51 -144.5t160 -42.5q103 0 153.5 46t59.5 141h217 q-18 -176 -123.5 -254t-310.5 -78q-211 0 -310 75.5t-112 256.5z" horiz-adv-x="1726" unicode="Ҋ"/><glyph d="M168 0v1106h225v-551q0 -17 -0.5 -38t-15.5 -269l555 858h287v-924h237l-137 -571h-232l132 389h-226v559q0 104 15 299l-555 -858h-285zM279 1573h213q7 -102 51 -144.5t162 -42.5q99 0 150 45.5t60 141.5h218q-16 -173 -122 -252.5t-313 -79.5q-212 0 -310 76.5 t-109 255.5z" horiz-adv-x="1479" unicode="ҋ"/><glyph d="M47 1092v200h146v170h239v-170h320v-200h-320v-224h158q290 0 441 -109t151 -319q0 -218 -146 -329t-430 -111h-413v1092h-146zM432 199h162q167 0 254.5 57.5t87.5 183.5q0 117 -83 171.5t-273 54.5h-148v-467z" horiz-adv-x="1257" unicode="Ҍ"/><glyph d="M12 1157v164h156v235h235v-235h336v-164h-336v-493h267q241 0 357 -80t116 -240q0 -171 -120 -257.5t-349 -86.5h-506v1157h-156zM403 174h259q245 0 245 164q0 83 -63.5 116t-186.5 33h-254v-313z" horiz-adv-x="1235" unicode="ҍ"/><glyph d="M193 0v1462h430q271 0 408.5 -112.5t137.5 -329.5q0 -130 -53 -229t-153 -158l104 -141l-125 -99l-133 178q-96 -24 -219 -24h-158v-547h-239zM432 748h143q55 0 105 6l-82 110l131 97l111 -146q84 65 84 197q0 127 -78.5 188.5t-243.5 61.5h-170v-514z" horiz-adv-x="1268" unicode="Ҏ"/><glyph d="M168 -492v1598h190l35 -148h13q110 168 327 168q207 0 322.5 -150t115.5 -421q0 -323 -163 -473l104 -139l-129 -101l-119 158q-59 -20 -135 -20q-210 0 -326 151h-14l7 -68l7 -104v-451h-235zM403 555q0 -202 64 -292.5t209 -90.5q39 0 61 8l-110 142l137 102l104 -135 q62 89 62 268q0 190 -62.5 283.5t-195.5 93.5q-138 0 -201.5 -80t-67.5 -264v-35z" horiz-adv-x="1276" unicode="ҏ"/><glyph d="M193 0v1462h681v305h216v-510h-658v-1257h-239z" horiz-adv-x="1135" unicode="Ґ"/><glyph d="M168 0v1106h516v313h221v-491h-502v-928h-235z" horiz-adv-x="963" unicode="ґ"/><glyph d="M47 623v200h146v639h874v-205h-635v-434h412v-200h-412v-623h-239v623h-146z" horiz-adv-x="1112" unicode="Ғ"/><glyph d="M10 451v182h148v473h737v-193h-502v-280h340v-182h-340v-451h-235v451h-148z" horiz-adv-x="940" unicode="ғ"/><glyph d="M193 0v1462h880v-205h-641v-458q106 12 234 12q200 0 348 -78.5t227.5 -229.5t79.5 -358q0 -202 -66 -350t-190 -227.5t-287 -79.5q-102 0 -167 10.5t-134 36.5v213q123 -49 260 -49q164 0 253 114.5t89 331.5t-124.5 334t-364.5 117q-62 0 -158 -12v-584h-239z" horiz-adv-x="1409" unicode="Ҕ"/><glyph d="M168 0v1106h741v-195h-506v-284q86 12 146 12q259 0 400 -150.5t141 -425.5q0 -269 -123.5 -417t-341.5 -148q-142 0 -252 56v204q109 -57 227 -57q124 0 190 92t66 273q0 179 -80.5 273.5t-257.5 94.5q-57 0 -115 -12v-422h-235z" horiz-adv-x="1153" unicode="ҕ"/><glyph d="M0 0l559 756l-534 706h256l520 -708v708h227v-708l520 708h256l-534 -706l405 -547h250v-612h-231v403h-131l-535 741v-741h-227v741l-535 -741h-266z" horiz-adv-x="1964" unicode="Җ"/><glyph d="M2 0l473 573l-434 533h248l424 -537v537h219v-537l426 537h248l-435 -533l322 -391h229v-571h-217v389h-119l-454 561v-561h-219v561l-453 -561h-258z" horiz-adv-x="1763" unicode="җ"/><glyph d="M88 1327q225 156 530 156q232 0 367 -99t135 -264q0 -143 -94.5 -234t-261.5 -116v-6q192 -23 292.5 -113.5t100.5 -236.5q0 -204 -159.5 -319t-440.5 -115q-292 0 -467 79v209q97 -46 217.5 -71t220.5 -25q385 0 385 252q0 116 -115.5 177t-342.5 61h-176v192h165 q437 0 437 233q0 93 -74.5 147t-208.5 54q-106 0 -202 -28t-199 -95zM408 -307q54 -15 100 -15q37 0 60.5 22.5t23.5 66.5q0 54 -37 110.5t-106 122.5h151q72 -56 103 -92.5t48 -78.5t17 -87q0 -97 -60.5 -154t-164.5 -57q-70 0 -135 18v144z" horiz-adv-x="1257" unicode="Ҙ"/><glyph d="M72 49v203q183 -86 379 -86q141 0 217.5 39.5t76.5 120.5q0 83 -77 122t-238 39h-135v177h117q161 0 237 35.5t76 109.5q0 135 -240 135q-160 0 -327 -72l-76 175q193 79 426 79q206 0 320 -75.5t114 -216.5q0 -186 -213 -244v-8q133 -36 190.5 -103t57.5 -166 q0 -152 -133.5 -242.5t-372.5 -90.5q-261 0 -399 69zM314 -307q54 -15 100 -15q37 0 60.5 22.5t23.5 66.5q0 54 -37 110.5t-106 122.5h151q72 -56 103 -92.5t48 -78.5t17 -87q0 -97 -60.5 -154t-164.5 -57q-70 0 -135 18v144z" horiz-adv-x="1063" unicode="ҙ"/><glyph d="M193 0v1462h239v-698q98 120 195 231l395 467h272q-383 -450 -549 -641l420 -612h250v-612h-231v403h-152l-459 662l-141 -115v-547h-239z" horiz-adv-x="1450" unicode="Қ"/><glyph d="M168 0v1106h235v-537l451 537h258l-457 -533l340 -391h213v-573h-217v391h-110l-478 561v-561h-235z" horiz-adv-x="1239" unicode="қ"/><glyph d="M193 0v1462h239v-698l125 149v357h129v-205l336 397h272l-549 -641l564 -821h-277l-346 500v-256h-129v405l-125 -102v-547h-239z" horiz-adv-x="1309" unicode="Ҝ"/><glyph d="M168 0v1106h235v-537l99 117v328h137v-164l215 256h258l-457 -533l496 -573h-270l-242 283v-191h-137v352l-99 117v-561h-235z" horiz-adv-x="1159" unicode="ҝ"/><glyph d="M47 1102v203h146v157h239v-157h180v-203h-180v-338q98 120 195 231l395 467h272q-383 -450 -549 -641l564 -821h-277l-459 662l-141 -115v-547h-239v1102h-146z" horiz-adv-x="1309" unicode="Ҟ"/><glyph d="M12 1219v163h156v174h233v-174h349v-163h-349v-435l-10 -200h6l129 166l334 356h273l-445 -475l471 -631h-274l-355 483l-129 -104v-379h-233v1219h-156z" horiz-adv-x="1163" unicode="ҟ"/><glyph d="M8 1255v207h572v-700l589 700h273l-549 -641l563 -821h-276l-459 662l-141 -115v-547h-240v1255h-332z" horiz-adv-x="1456" unicode="Ҡ"/><glyph d="M20 922v184h578v-537l451 537h249l-458 -533l497 -573h-260l-479 561v-561h-225v922h-353z" horiz-adv-x="1341" unicode="ҡ"/><glyph d="M193 0v1462h239v-598h674v598h240v-1253h231v-612h-231v403h-240v659h-674v-659h-239z" horiz-adv-x="1624" unicode="Ң"/><glyph d="M168 0v1106h235v-444h521v444h235v-924h213v-571h-221v389h-227v477h-521v-477h-235z" horiz-adv-x="1423" unicode="ң"/><glyph d="M193 0v1462h239v-598h674v598h571v-207h-331v-1255h-240v659h-674v-659h-239z" horiz-adv-x="1686" unicode="Ҥ"/><glyph d="M168 0v1106h235v-444h521v444h587v-184h-352v-922h-235v477h-521v-477h-235z" horiz-adv-x="1530" unicode="ҥ"/><glyph d="M193 0v1462h1077v-665q100 14 237 14q191 0 334 -78.5t220 -228.5t77 -361q0 -202 -67.5 -351t-190.5 -226.5t-283 -77.5q-90 0 -157 10t-144 39v211q129 -47 260 -47q158 0 249 117t91 327q0 218 -114.5 333.5t-337.5 115.5q-102 0 -174 -16v-578h-240v1255h-598v-1255 h-239z" horiz-adv-x="2245" unicode="Ҧ"/><glyph d="M168 0v1106h932v-477q52 10 110 10q157 0 273.5 -67.5t179.5 -197.5t63 -311q0 -179 -53.5 -306t-155 -193t-239.5 -66q-134 0 -242 56v206q102 -59 217 -59q116 0 178 93t62 272t-77 273.5t-245 94.5q-41 0 -71 -10v-424h-238v920h-459v-920h-235z" horiz-adv-x="1796" unicode="ҧ"/><glyph d="M121 713q0 380 164.5 576t478.5 196q56 0 122 -11t111 -28l-61 -193q-84 29 -172 29q-395 0 -395 -559q0 -257 112.5 -398t319.5 -141q38 0 65 9q-70 82 -113.5 215.5t-43.5 279.5q0 234 99 355.5t282 121.5t284 -126.5t101 -360.5q0 -164 -61.5 -305.5t-172.5 -233.5 q61 -24 135 -24q78 0 142 22v-196q-60 -25 -164 -25q-175 0 -322 98q-102 -34 -248 -34q-205 0 -355 88.5t-229 254t-79 390.5zM936 674q0 -136 38 -241.5t97 -170.5q78 56 127 166.5t49 241.5q0 147 -39.5 227t-113.5 80t-116 -80t-42 -223z" horiz-adv-x="1593" unicode="Ҩ"/><glyph d="M102 545q0 275 130 428t370 153q102 0 189 -30l-52 -183q-72 21 -139 21q-133 0 -195.5 -94.5t-62.5 -300.5q0 -174 68 -270.5t208 -96.5q52 0 68 8q-106 138 -106 328q0 171 86 263.5t239 92.5q150 0 234 -94t84 -264q0 -123 -48.5 -221t-134.5 -156q40 -16 95 -16 q64 0 118 14v-174q-55 -19 -141 -19q-145 0 -274 82q-108 -36 -226 -36q-152 0 -268 69.5t-179 199t-63 296.5zM786 502q0 -162 105 -260q57 35 92 101.5t35 160.5q0 182 -113 182q-119 0 -119 -184z" horiz-adv-x="1327" unicode="ҩ"/><glyph d="M121 731q0 228 83.5 399t241.5 262t371 91q224 0 414 -94l-86 -199q-74 35 -156.5 61.5t-173.5 26.5q-206 0 -324 -146t-118 -403q0 -269 113.5 -407t328.5 -138q93 0 180 18.5t181 47.5v-205q-172 -65 -390 -65q-321 0 -493 194.5t-172 556.5zM588 -307q54 -15 100 -15 q37 0 60.5 22.5t23.5 66.5q0 54 -37 110.5t-106 122.5h151q72 -56 103 -92.5t48 -78.5t17 -87q0 -97 -60.5 -154t-164.5 -57q-70 0 -135 18v144z" horiz-adv-x="1298" unicode="Ҫ"/><glyph d="M102 547q0 279 136.5 429t394.5 150q175 0 315 -65l-71 -189q-149 58 -246 58q-287 0 -287 -381q0 -186 71.5 -279.5t209.5 -93.5q157 0 297 78v-205q-63 -37 -134.5 -53t-173.5 -16q-251 0 -381.5 146.5t-130.5 420.5zM430 -307q54 -15 100 -15q37 0 60.5 22.5 t23.5 66.5q0 54 -37 110.5t-106 122.5h151q72 -56 103 -92.5t48 -78.5t17 -87q0 -97 -60.5 -154t-164.5 -57q-70 0 -135 18v144z" horiz-adv-x="1014" unicode="ҫ"/><glyph d="M29 1255v207h1099v-207h-430v-1046h232v-612h-232v403h-239v1255h-430z" horiz-adv-x="1159" unicode="Ҭ"/><glyph d="M43 922v184h956v-184h-360v-740h211v-571h-219v389h-228v922h-360z" horiz-adv-x="1040" unicode="ҭ"/><glyph d="M0 1462h260l346 -667l346 667h260l-487 -895v-567h-240v559z" horiz-adv-x="1212" unicode="Ү"/><glyph d="M0 1106h254l205 -557q39 -103 86 -299h10q45 188 86 299l207 557h252l-432 -1108v-490h-236v490z" horiz-adv-x="1100" unicode="ү"/><glyph d="M0 1462h260l346 -667l346 667h260l-487 -895v-49h309v-205h-309v-313h-240v313h-309v205h309v41z" horiz-adv-x="1212" unicode="Ұ"/><glyph d="M0 1106h254l219 -596q39 -108 72 -260h10q33 132 76 254l217 602h252l-430 -1106h282v-178h-284v-314h-236v314h-285v178h283z" horiz-adv-x="1100" unicode="ұ"/><glyph d="M4 0l485 758l-454 704h266l338 -553l338 553h258l-457 -708l352 -545h228v-612h-230v403h-133l-366 598l-369 -598h-256z" horiz-adv-x="1395" unicode="Ҳ"/><glyph d="M25 0l389 565l-371 541h268l252 -387l254 387h266l-372 -541l266 -383h203v-573h-219v391h-125l-273 414l-272 -414h-266z" horiz-adv-x="1210" unicode="ҳ"/><glyph d="M29 1255v207h1077v-207h-442v-1050h645v1257h239v-1253h236v-612h-232v403h-1128v1255h-395z" horiz-adv-x="1827" unicode="Ҵ"/><glyph d="M43 922v184h852v-184h-328v-736h494v920h235v-924h215v-571h-221v389h-958v922h-289z" horiz-adv-x="1544" unicode="ҵ"/><glyph d="M139 868v594h240v-538q0 -114 56.5 -170t185.5 -56q95 0 185 17.5t218 60.5v686h240v-1253h231v-612h-231v403h-240v584q-135 -48 -240.5 -69t-212.5 -21q-207 0 -319.5 97.5t-112.5 276.5z" horiz-adv-x="1532" unicode="Ҷ"/><glyph d="M139 692v414h236v-404q0 -170 176 -170q85 0 166 23.5t174 75.5v475h235v-924h211v-573h-219v391h-227v469q-97 -60 -187.5 -88.5t-197.5 -28.5q-173 0 -270 89.5t-97 250.5z" horiz-adv-x="1366" unicode="ҷ"/><glyph d="M139 868v594h240v-538q0 -118 60 -172t188 -54v338h129v-329q114 13 268 67v688h240v-1462h-240v582q-154 -56 -268 -76v-313h-129v301q-244 0 -366 92t-122 282z" horiz-adv-x="1456" unicode="Ҹ"/><glyph d="M139 692v414h236v-404q0 -170 176 -170v279h123v-266q97 21 209 86v475h235v-1106h-235v469q-120 -73 -209 -94v-246h-123v225l-23 -2h-26q-169 0 -266 88.5t-97 251.5z" horiz-adv-x="1286" unicode="ҹ"/><glyph d="M193 0v1462h239v-585q146 50 252.5 71t200.5 21q208 0 320 -99t112 -278v-592h-240v539q0 112 -56 168.5t-185 56.5q-85 0 -172 -16t-232 -64v-684h-239z" horiz-adv-x="1456" unicode="Һ"/><glyph d="M168 0v1106h235v-471q183 117 383 117q176 0 272.5 -89.5t96.5 -250.5v-412h-237v408q0 163 -177 163q-82 0 -155.5 -19.5t-182.5 -76.5v-475h-235z" horiz-adv-x="1280" unicode="һ"/><glyph d="M31 897q0 93 39 166h190q-24 -56 -24 -115q0 -96 104 -96h39q35 304 206 468.5t459 164.5q319 0 481.5 -192.5t162.5 -573.5v-70h-1063q13 -223 128 -344t339 -121q121 0 258 31.5t254 85.5v-217q-223 -104 -525 -104q-316 0 -497.5 173.5t-206.5 495.5q-344 0 -344 248z M627 852h809q0 220 -96.5 324t-297.5 104q-183 0 -292 -111t-123 -317z" horiz-adv-x="1829" unicode="Ҽ"/><glyph d="M25 725q0 82 32 141h174q-22 -42 -22 -106q0 -90 100 -90h19q43 224 171 340t330 116q225 0 353.5 -134t128.5 -365v-127h-750q10 -334 320 -334q103 0 187 17.5t187 62.5v-191q-86 -41 -176.5 -58t-201.5 -17q-249 0 -395.5 135.5t-159.5 384.5q-297 2 -297 225z M565 670h512q0 132 -64.5 205t-183.5 73q-114 0 -182.5 -69.5t-81.5 -208.5z" horiz-adv-x="1407" unicode="ҽ"/><glyph d="M31 897q0 93 39 166h190q-24 -56 -24 -115q0 -96 104 -96h39q31 300 205 466.5t460 166.5q319 0 481.5 -192.5t162.5 -573.5v-70h-1063q13 -223 128 -344t339 -121q121 0 258 31.5t254 85.5v-217q-188 -87 -430 -100v-387h-232v393q-256 35 -401.5 205.5t-165.5 453.5 q-168 0 -256 62t-88 186zM627 852h809q0 220 -96.5 324t-297.5 104q-183 0 -292 -111t-123 -317z" horiz-adv-x="1829" unicode="Ҿ"/><glyph d="M25 725q0 82 32 141h174q-22 -42 -22 -106q0 -90 100 -90h19q43 224 171 340t330 116q225 0 353.5 -134t128.5 -365v-127h-750q10 -334 320 -334q103 0 187 17.5t187 62.5v-191q-130 -63 -307 -71v-373h-219v383q-189 36 -293 166.5t-114 339.5q-297 2 -297 225zM565 670 h512q0 132 -64.5 205t-183.5 73q-114 0 -182.5 -69.5t-81.5 -208.5z" horiz-adv-x="1407" unicode="ҿ"/><glyph d="M193 0v1462h239v-1462h-239z" horiz-adv-x="625" unicode="Ӏ"/><glyph d="M0 0l559 756l-534 706h256l520 -708v708h227v-708l520 708h256l-534 -706l557 -756h-264l-535 741v-741h-227v741l-535 -741h-266zM484 1911h213q6 -72 27.5 -112t62 -57.5t123.5 -17.5q98 0 149 43.5t62 143.5h217q-15 -172 -121 -252t-313 -80q-212 0 -310.5 76.5 t-109.5 255.5z" horiz-adv-x="1829" unicode="Ӂ"/><glyph d="M2 0l473 571l-434 535h248l424 -537v537h219v-537l426 537h248l-435 -535l474 -571h-259l-454 561v-561h-219v561l-453 -561h-258zM395 1573h213q6 -72 27.5 -112t62 -57.5t123.5 -17.5q98 0 149 43.5t62 143.5h217q-15 -172 -121 -252t-313 -80q-212 0 -310.5 76.5 t-109.5 255.5z" horiz-adv-x="1647" unicode="ӂ"/><glyph d="M193 0v1462h239v-706l180 221l414 485h274l-606 -686h15q208 0 357 -71.5t230.5 -213.5t81.5 -346q0 -203 -68.5 -352t-193.5 -227t-289 -78q-88 0 -154 9.5t-147 39.5v211q129 -47 269 -47q163 0 253.5 117t90.5 327q0 212 -128 326.5t-368 114.5q-97 0 -211 -29v-557 h-239z" horiz-adv-x="1483" unicode="Ӄ"/><glyph d="M168 0v1106h233v-506l459 506h264l-465 -490q243 -2 373.5 -146.5t130.5 -406.5q0 -177 -58 -305t-164 -194t-247 -66q-137 0 -243 56v204q111 -59 219 -59q124 0 194 94t70 270q0 363 -344 363q-88 0 -189 -29v-397h-233z" horiz-adv-x="1239" unicode="ӄ"/><glyph d="M8 2v199q57 -25 111 -25q72 0 112.5 86.5t89 382.5t115.5 817h854v-1253h260l-161 -612h-271l172 403h-239v1257h-416q-79 -640 -126.5 -871t-133.5 -321.5t-228 -87.5q-73 0 -139 25z" horiz-adv-x="1581" unicode="Ӆ"/><glyph d="M8 4v186q37 -14 74 -14q97 0 156 213t94 717h743v-924h238l-137 -571h-232l131 389h-235v920h-305q-28 -356 -75.5 -555.5t-123.5 -290t-199 -90.5q-82 0 -129 20z" horiz-adv-x="1329" unicode="ӆ"/><glyph d="M193 0v1462h239v-598h674v598h240v-1343q0 -295 -144.5 -463t-398.5 -168q-99 0 -164.5 10.5t-136.5 36.5v211q129 -47 272 -47q164 0 248 110t84 324v526h-674v-659h-239z" horiz-adv-x="1528" unicode="Ӈ"/><glyph d="M168 0v1106h235v-444h519v444h237v-1069q0 -255 -116.5 -397t-331.5 -142q-76 0 -132 13.5t-110 42.5v206q109 -59 219 -59q118 0 175 86t59 260v430h-519v-477h-235z" horiz-adv-x="1309" unicode="ӈ"/><glyph d="M193 0v1462h239v-598h674v598h240v-1253h260l-162 -612h-270l172 403h-240v659h-674v-659h-239z" horiz-adv-x="1640" unicode="Ӊ"/><glyph d="M168 0v1106h235v-444h521v444h235v-924h238l-137 -571h-232l131 389h-235v477h-521v-477h-235z" horiz-adv-x="1430" unicode="ӊ"/><glyph d="M139 868v594h240v-538q0 -114 56.5 -170t185.5 -56q95 0 185 17.5t218 60.5v686h240v-1462h-213v-403h-232v612h205v375q-135 -48 -240.5 -69t-212.5 -21q-207 0 -319.5 97.5t-112.5 276.5z" horiz-adv-x="1456" unicode="Ӌ"/><glyph d="M139 692v414h236v-404q0 -170 176 -170q85 0 166 23.5t174 75.5v475h235v-1106h-204v-391h-222v573h191v287q-97 -60 -187.5 -88.5t-197.5 -28.5q-173 0 -270 89.5t-97 250.5z" horiz-adv-x="1294" unicode="ӌ"/><glyph d="M193 0v1462h337l406 -1163h8l416 1163h338v-1253h258l-160 -612h-272l174 403h-230v817q0 50 1.5 110t13.5 292h-8l-439 -1219h-211l-424 1221h-8q17 -327 17 -416v-805h-217z" horiz-adv-x="1987" unicode="Ӎ"/><glyph d="M168 0v1106h311l244 -600q23 -58 41.5 -120t38.5 -161l13 48q41 149 71 229l248 604h313v-924h238l-138 -571h-231l131 389h-217v893l-18 -60q-45 -161 -76 -237l-242 -596h-178l-242 600q-50 130 -92 293v-893h-215z" horiz-adv-x="1702" unicode="ӎ"/><glyph d="M193 0v1462h239v-1462h-239z" horiz-adv-x="625" unicode="ӏ"/><glyph d="M0 0l547 1468h260l547 -1468h-254l-146 406h-559l-143 -406h-252zM465 612h426l-137 398q-15 40 -41.5 126t-36.5 126q-27 -123 -79 -269zM248 1911h213q6 -72 27.5 -112t62 -57.5t123.5 -17.5q98 0 149 43.5t62 143.5h217q-15 -172 -121 -252t-313 -80 q-212 0 -310.5 76.5t-109.5 255.5z" horiz-adv-x="1354" unicode="Ӑ"/><glyph d="M90 317q0 171 127 258t387 95l191 6v59q0 106 -49.5 158.5t-153.5 52.5q-85 0 -163 -25t-150 -59l-76 168q90 47 197 71.5t202 24.5q211 0 318.5 -92t107.5 -289v-745h-168l-47 154h-8q-80 -101 -161 -137.5t-208 -36.5q-163 0 -254.5 88t-91.5 249zM334 315 q0 -74 44 -114.5t132 -40.5q128 0 205.5 71.5t77.5 200.5v96l-142 -6q-166 -6 -241.5 -55.5t-75.5 -151.5zM170 1573h213q6 -72 27.5 -112t62 -57.5t123.5 -17.5q98 0 149 43.5t62 143.5h217q-15 -172 -121 -252t-313 -80q-212 0 -310.5 76.5t-109.5 255.5z" horiz-adv-x="1188" unicode="ӑ"/><glyph d="M0 0l547 1468h260l547 -1468h-254l-146 406h-559l-143 -406h-252zM465 612h426l-137 398q-15 40 -41.5 126t-36.5 126q-27 -123 -79 -269zM367 1737q0 62 33.5 89.5t81.5 27.5q53 0 84.5 -31t31.5 -86q0 -53 -32 -85t-84 -32q-48 0 -81.5 29t-33.5 88zM760 1737 q0 62 33.5 89.5t81.5 27.5q53 0 85 -31t32 -86q0 -54 -33 -85.5t-84 -31.5q-48 0 -81.5 29t-33.5 88z" horiz-adv-x="1354" unicode="Ӓ"/><glyph d="M90 317q0 171 127 258t387 95l191 6v59q0 106 -49.5 158.5t-153.5 52.5q-85 0 -163 -25t-150 -59l-76 168q90 47 197 71.5t202 24.5q211 0 318.5 -92t107.5 -289v-745h-168l-47 154h-8q-80 -101 -161 -137.5t-208 -36.5q-163 0 -254.5 88t-91.5 249zM334 315 q0 -74 44 -114.5t132 -40.5q128 0 205.5 71.5t77.5 200.5v96l-142 -6q-166 -6 -241.5 -55.5t-75.5 -151.5zM284 1399q0 62 33.5 89.5t81.5 27.5q53 0 84.5 -31t31.5 -86q0 -53 -32 -85t-84 -32q-48 0 -81.5 29t-33.5 88zM677 1399q0 62 33.5 89.5t81.5 27.5q53 0 85 -31 t32 -86q0 -54 -33 -85.5t-84 -31.5q-48 0 -81.5 29t-33.5 88z" horiz-adv-x="1188" unicode="ӓ"/><glyph d="M-2 0l678 1462h1071v-202h-571v-398h532v-200h-532v-459h571v-203h-811v406h-504l-188 -406h-246zM522 612h414v641h-123z" horiz-adv-x="1868" unicode="Ӕ"/><glyph d="M90 317q0 172 121.5 258.5t370.5 94.5l188 6v76q0 194 -201 194q-141 0 -307 -82l-74 166q88 47 192.5 71.5t203.5 24.5q241 0 340 -155q120 155 346 155q206 0 328 -134.5t122 -362.5v-127h-712q10 -336 301 -336q184 0 356 80v-191q-86 -41 -171.5 -58t-195.5 -17 q-140 0 -248.5 54.5t-175.5 164.5q-94 -125 -190.5 -172t-241.5 -47q-165 0 -258.5 90t-93.5 247zM334 315q0 -155 166 -155q124 0 196 72.5t72 199.5v96l-135 -6q-155 -6 -227 -54.5t-72 -152.5zM1014 670h473q0 130 -58.5 204t-162.5 74q-112 0 -177.5 -69.5t-74.5 -208.5 z" horiz-adv-x="1817" unicode="ӕ"/><glyph d="M193 0v1462h827v-202h-588v-398h551v-200h-551v-459h588v-203h-827zM176 1911h213q6 -72 27.5 -112t62 -57.5t123.5 -17.5q98 0 149 43.5t62 143.5h217q-15 -172 -121 -252t-313 -80q-212 0 -310.5 76.5t-109.5 255.5z" horiz-adv-x="1143" unicode="Ӗ"/><glyph d="M102 545q0 271 135 426t371 155q219 0 346 -133t127 -366v-127h-737q5 -161 87 -247.5t231 -86.5q98 0 182.5 18.5t181.5 61.5v-191q-86 -41 -174 -58t-201 -17q-258 0 -403.5 150.5t-145.5 414.5zM348 670h502q-2 137 -66 207.5t-176 70.5t-179.5 -71t-80.5 -207z M182 1573h213q6 -72 27.5 -112t62 -57.5t123.5 -17.5q98 0 149 43.5t62 143.5h217q-15 -172 -121 -252t-313 -80q-212 0 -310.5 76.5t-109.5 255.5z" horiz-adv-x="1180" unicode="ӗ"/><glyph d="M139 743v72h1069q-15 232 -134 348.5t-333 116.5q-247 0 -516 -119v213q130 61 252.5 86t267.5 25q337 0 526 -200.5t189 -555.5q0 -353 -178 -551t-498 -198q-645 0 -645 763zM391 610q0 -220 96 -323t297 -103q184 0 296.5 111.5t125.5 314.5h-815z" horiz-adv-x="1583" unicode="Ә"/><glyph d="M96 479v127h750q-5 167 -86.5 250.5t-233.5 83.5q-189 0 -374 -82v193q85 39 172.5 57t205.5 18q260 0 407.5 -149t147.5 -416q0 -272 -136 -426.5t-371 -154.5q-225 0 -353.5 133.5t-128.5 365.5zM330 436q0 -133 64 -205.5t184 -72.5q113 0 183 70t81 208h-512z" horiz-adv-x="1188" unicode="ә"/><glyph d="M139 743v72h1069q-15 232 -134 348.5t-333 116.5q-247 0 -516 -119v213q130 61 252.5 86t267.5 25q337 0 526 -200.5t189 -555.5q0 -353 -178 -551t-498 -198q-645 0 -645 763zM391 610q0 -220 96 -323t297 -103q184 0 296.5 111.5t125.5 314.5h-815zM486 1737 q0 62 33.5 89.5t81.5 27.5q53 0 84.5 -31t31.5 -86q0 -53 -32 -85t-84 -32q-48 0 -81.5 29t-33.5 88zM879 1737q0 62 33.5 89.5t81.5 27.5q53 0 85 -31t32 -86q0 -54 -33 -85.5t-84 -31.5q-48 0 -81.5 29t-33.5 88z" horiz-adv-x="1583" unicode="Ӛ"/><glyph d="M96 479v127h750q-5 167 -86.5 250.5t-233.5 83.5q-189 0 -374 -82v193q85 39 172.5 57t205.5 18q260 0 407.5 -149t147.5 -416q0 -272 -136 -426.5t-371 -154.5q-225 0 -353.5 133.5t-128.5 365.5zM330 436q0 -133 64 -205.5t184 -72.5q113 0 183 70t81 208h-512z M282 1399q0 62 33.5 89.5t81.5 27.5q53 0 84.5 -31t31.5 -86q0 -53 -32 -85t-84 -32q-48 0 -81.5 29t-33.5 88zM675 1399q0 62 33.5 89.5t81.5 27.5q53 0 85 -31t32 -86q0 -54 -33 -85.5t-84 -31.5q-48 0 -81.5 29t-33.5 88z" horiz-adv-x="1188" unicode="ӛ"/><glyph d="M0 0l559 756l-534 706h256l520 -708v708h227v-708l520 708h256l-534 -706l557 -756h-264l-535 741v-741h-227v741l-535 -741h-266zM600 1737q0 62 33.5 89.5t81.5 27.5q53 0 84.5 -31t31.5 -86q0 -53 -32 -85t-84 -32q-48 0 -81.5 29t-33.5 88zM993 1737q0 62 33.5 89.5 t81.5 27.5q53 0 85 -31t32 -86q0 -54 -33 -85.5t-84 -31.5q-48 0 -81.5 29t-33.5 88z" horiz-adv-x="1829" unicode="Ӝ"/><glyph d="M2 0l473 571l-434 535h248l424 -537v537h219v-537l426 537h248l-435 -535l474 -571h-259l-454 561v-561h-219v561l-453 -561h-258zM510 1399q0 62 33.5 89.5t81.5 27.5q53 0 84.5 -31t31.5 -86q0 -53 -32 -85t-84 -32q-48 0 -81.5 29t-33.5 88zM903 1399q0 62 33.5 89.5 t81.5 27.5q53 0 85 -31t32 -86q0 -54 -33 -85.5t-84 -31.5q-48 0 -81.5 29t-33.5 88z" horiz-adv-x="1647" unicode="ӝ"/><glyph d="M88 1327q225 156 530 156q232 0 367 -99t135 -264q0 -143 -94.5 -234t-261.5 -116v-6q192 -23 292.5 -113.5t100.5 -236.5q0 -204 -159.5 -319t-440.5 -115q-292 0 -467 79v209q97 -46 217.5 -71t220.5 -25q385 0 385 252q0 116 -115.5 177t-342.5 61h-176v192h165 q437 0 437 233q0 93 -74.5 147t-208.5 54q-106 0 -202 -28t-199 -95zM307 1737q0 62 33.5 89.5t81.5 27.5q53 0 84.5 -31t31.5 -86q0 -53 -32 -85t-84 -32q-48 0 -81.5 29t-33.5 88zM700 1737q0 62 33.5 89.5t81.5 27.5q53 0 85 -31t32 -86q0 -54 -33 -85.5t-84 -31.5 q-48 0 -81.5 29t-33.5 88z" horiz-adv-x="1257" unicode="Ӟ"/><glyph d="M72 49v203q183 -86 379 -86q141 0 217.5 39.5t76.5 120.5q0 83 -77 122t-238 39h-135v177h117q161 0 237 35.5t76 109.5q0 135 -240 135q-160 0 -327 -72l-76 175q193 79 426 79q206 0 320 -75.5t114 -216.5q0 -186 -213 -244v-8q133 -36 190.5 -103t57.5 -166 q0 -152 -133.5 -242.5t-372.5 -90.5q-261 0 -399 69zM214 1399q0 62 33.5 89.5t81.5 27.5q53 0 84.5 -31t31.5 -86q0 -53 -32 -85t-84 -32q-48 0 -81.5 29t-33.5 88zM607 1399q0 62 33.5 89.5t81.5 27.5q53 0 85 -31t32 -86q0 -54 -33 -85.5t-84 -31.5q-48 0 -81.5 29 t-33.5 88z" horiz-adv-x="1063" unicode="ӟ"/><glyph d="M66 59v209q99 -46 212 -71t216 -25q366 0 366 258q0 236 -432 236h-131v178l426 413h-612v205h929v-170l-471 -450q263 -10 399 -119t136 -301q0 -208 -158.5 -325t-445.5 -117q-261 0 -434 79z" horiz-adv-x="1202" unicode="Ӡ"/><glyph d="M41 -209q94 -44 200.5 -67t200.5 -23q163 0 252.5 82t89.5 223q0 301 -407 301h-121v166l430 447h-610v186h895v-160l-447 -463q239 -20 368.5 -146.5t129.5 -334.5q0 -148 -70 -260.5t-200.5 -173t-302.5 -60.5q-244 0 -408 76v207z" horiz-adv-x="1096" unicode="ӡ"/><glyph d="M193 0v1462h219v-760q0 -119 -6 -240.5t-9 -164.5h9l747 1165h279v-1462h-220v754q0 173 19 420h-8l-750 -1174h-280zM490 1579v174h639v-174h-639z" horiz-adv-x="1622" unicode="Ӣ"/><glyph d="M168 0v1106h225v-567q0 -99 -16 -291l555 858h287v-1106h-226v557q0 46 5.5 149t9.5 150l-553 -856h-287zM373 1241v174h639v-174h-639z" horiz-adv-x="1386" unicode="ӣ"/><glyph d="M193 0v1462h219v-760q0 -119 -6 -240.5t-9 -164.5h9l747 1165h279v-1462h-220v754q0 173 19 420h-8l-750 -1174h-280zM498 1737q0 62 33.5 89.5t81.5 27.5q53 0 84.5 -31t31.5 -86q0 -53 -32 -85t-84 -32q-48 0 -81.5 29t-33.5 88zM891 1737q0 62 33.5 89.5t81.5 27.5 q53 0 85 -31t32 -86q0 -54 -33 -85.5t-84 -31.5q-48 0 -81.5 29t-33.5 88z" horiz-adv-x="1622" unicode="Ӥ"/><glyph d="M168 0v1106h225v-567q0 -99 -16 -291l555 858h287v-1106h-226v557q0 46 5.5 149t9.5 150l-553 -856h-287zM381 1399q0 62 33.5 89.5t81.5 27.5q53 0 84.5 -31t31.5 -86q0 -53 -32 -85t-84 -32q-48 0 -81.5 29t-33.5 88zM774 1399q0 62 33.5 89.5t81.5 27.5q53 0 85 -31 t32 -86q0 -54 -33 -85.5t-84 -31.5q-48 0 -81.5 29t-33.5 88z" horiz-adv-x="1386" unicode="ӥ"/><glyph d="M121 735q0 362 178.5 556t509.5 194q326 0 504 -197t178 -555q0 -357 -178.5 -555t-505.5 -198q-331 0 -508.5 196.5t-177.5 558.5zM375 733q0 -270 109 -409.5t323 -139.5q213 0 321.5 138t108.5 411q0 269 -107.5 408t-320.5 139q-215 0 -324.5 -139t-109.5 -408z M494 1737q0 62 33.5 89.5t81.5 27.5q53 0 84.5 -31t31.5 -86q0 -53 -32 -85t-84 -32q-48 0 -81.5 29t-33.5 88zM887 1737q0 62 33.5 89.5t81.5 27.5q53 0 85 -31t32 -86q0 -54 -33 -85.5t-84 -31.5q-48 0 -81.5 29t-33.5 88z" horiz-adv-x="1612" unicode="Ӧ"/><glyph d="M102 555q0 269 138 420t389 151q240 0 380 -154.5t140 -416.5q0 -271 -139 -423t-387 -152q-155 0 -274 70t-183 201t-64 304zM344 555q0 -383 283 -383q280 0 280 383q0 379 -282 379q-148 0 -214.5 -98t-66.5 -281zM313 1399q0 62 33.5 89.5t81.5 27.5q53 0 84.5 -31 t31.5 -86q0 -53 -32 -85t-84 -32q-48 0 -81.5 29t-33.5 88zM706 1399q0 62 33.5 89.5t81.5 27.5q53 0 85 -31t32 -86q0 -54 -33 -85.5t-84 -31.5q-48 0 -81.5 29t-33.5 88z" horiz-adv-x="1251" unicode="ӧ"/><glyph d="M121 735q0 362 178.5 556t509.5 194q326 0 504 -197t178 -555q0 -357 -178.5 -555t-505.5 -198q-331 0 -508.5 196.5t-177.5 558.5zM375 645q15 -227 125.5 -344t306.5 -117q195 0 304 115.5t126 345.5h-862zM377 848h856q-21 213 -128 322.5t-296 109.5t-299 -108 t-133 -324z" horiz-adv-x="1614" unicode="Ө"/><glyph d="M102 555q0 269 138 420t389 151q240 0 380 -154.5t140 -416.5q0 -271 -139 -423t-387 -152q-155 0 -274 70t-183 201t-64 304zM346 475q12 -152 80 -227.5t201 -75.5q131 0 197.5 75.5t78.5 227.5h-557zM348 651h555q-15 141 -82.5 212t-195.5 71q-129 0 -196 -71.5 t-81 -211.5z" horiz-adv-x="1251" unicode="ө"/><glyph d="M121 735q0 362 178.5 556t509.5 194q326 0 504 -197t178 -555q0 -357 -178.5 -555t-505.5 -198q-331 0 -508.5 196.5t-177.5 558.5zM375 645q15 -227 125.5 -344t306.5 -117q195 0 304 115.5t126 345.5h-862zM377 848h856q-21 213 -128 322.5t-296 109.5t-299 -108 t-133 -324zM496 1737q0 62 33.5 89.5t81.5 27.5q53 0 84.5 -31t31.5 -86q0 -53 -32 -85t-84 -32q-48 0 -81.5 29t-33.5 88zM889 1737q0 62 33.5 89.5t81.5 27.5q53 0 85 -31t32 -86q0 -54 -33 -85.5t-84 -31.5q-48 0 -81.5 29t-33.5 88z" horiz-adv-x="1614" unicode="Ӫ"/><glyph d="M102 555q0 269 138 420t389 151q240 0 380 -154.5t140 -416.5q0 -271 -139 -423t-387 -152q-155 0 -274 70t-183 201t-64 304zM346 475q12 -152 80 -227.5t201 -75.5q131 0 197.5 75.5t78.5 227.5h-557zM348 651h555q-15 141 -82.5 212t-195.5 71q-129 0 -196 -71.5 t-81 -211.5zM311 1399q0 62 33.5 89.5t81.5 27.5q53 0 84.5 -31t31.5 -86q0 -53 -32 -85t-84 -32q-48 0 -81.5 29t-33.5 88zM704 1399q0 62 33.5 89.5t81.5 27.5q53 0 85 -31t32 -86q0 -54 -33 -85.5t-84 -31.5q-48 0 -81.5 29t-33.5 88z" horiz-adv-x="1251" unicode="ӫ"/><glyph d="M66 1389q201 94 448 94q326 0 506 -196.5t180 -543.5q0 -368 -182.5 -565.5t-525.5 -197.5q-228 0 -408 65v205q100 -29 193 -47.5t192 -18.5q230 0 349.5 118.5t127.5 348.5h-676v203h674q-14 200 -130 312t-304 112q-166 0 -358 -86zM299 1737q0 62 33.5 89.5 t81.5 27.5q53 0 84.5 -31t31.5 -86q0 -53 -32 -85t-84 -32q-48 0 -81.5 29t-33.5 88zM692 1737q0 62 33.5 89.5t81.5 27.5q53 0 85 -31t32 -86q0 -54 -33 -85.5t-84 -31.5q-48 0 -81.5 29t-33.5 88z" horiz-adv-x="1323" unicode="Ӭ"/><glyph d="M66 43v193q159 -70 309 -70q286 0 305 313h-487v172h487q-12 149 -81 219t-200 70q-98 0 -258 -57l-65 174q67 31 154.5 50t172.5 19q261 0 391 -144t130 -423t-139.5 -429t-405.5 -150q-185 0 -313 63zM183 1399q0 62 33.5 89.5t81.5 27.5q53 0 84.5 -31t31.5 -86 q0 -53 -32 -85t-84 -32q-48 0 -81.5 29t-33.5 88zM576 1399q0 62 33.5 89.5t81.5 27.5q53 0 85 -31t32 -86q0 -54 -33 -85.5t-84 -31.5q-48 0 -81.5 29t-33.5 88z" horiz-adv-x="1028" unicode="ӭ"/><glyph d="M12 1462h258l357 -733q48 -104 59 -139h10q6 26 30 83l329 789h250l-461 -1040q-85 -191 -156 -276.5t-164.5 -125.5t-226.5 -40q-116 0 -215 30v215q98 -39 205 -39q91 0 152.5 44.5t111.5 160.5zM338 1579v174h639v-174h-639z" horiz-adv-x="1305" unicode="Ӯ"/><glyph d="M0 1106h256l225 -627q51 -134 68 -252h8q9 55 33 133.5t254 745.5h254l-473 -1253q-129 -345 -430 -345q-78 0 -152 17v186q53 -12 121 -12q170 0 239 197l41 104zM233 1241v174h639v-174h-639z" horiz-adv-x="1098" unicode="ӯ"/><glyph d="M12 1462h258l357 -733q48 -104 59 -139h10q6 26 30 83l329 789h250l-461 -1040q-85 -191 -156 -276.5t-164.5 -125.5t-226.5 -40q-116 0 -215 30v215q98 -39 205 -39q91 0 152.5 44.5t111.5 160.5zM346 1737q0 62 33.5 89.5t81.5 27.5q53 0 84.5 -31t31.5 -86 q0 -53 -32 -85t-84 -32q-48 0 -81.5 29t-33.5 88zM739 1737q0 62 33.5 89.5t81.5 27.5q53 0 85 -31t32 -86q0 -54 -33 -85.5t-84 -31.5q-48 0 -81.5 29t-33.5 88z" horiz-adv-x="1305" unicode="Ӱ"/><glyph d="M0 1106h256l225 -627q51 -134 68 -252h8q9 55 33 133.5t254 745.5h254l-473 -1253q-129 -345 -430 -345q-78 0 -152 17v186q53 -12 121 -12q170 0 239 197l41 104zM239 1399q0 62 33.5 89.5t81.5 27.5q53 0 84.5 -31t31.5 -86q0 -53 -32 -85t-84 -32q-48 0 -81.5 29 t-33.5 88zM632 1399q0 62 33.5 89.5t81.5 27.5q53 0 85 -31t32 -86q0 -54 -33 -85.5t-84 -31.5q-48 0 -81.5 29t-33.5 88z" horiz-adv-x="1098" unicode="ӱ"/><glyph d="M12 1462h258l357 -733q48 -104 59 -139h10q6 26 30 83l329 789h250l-461 -1040q-85 -191 -156 -276.5t-164.5 -125.5t-226.5 -40q-116 0 -215 30v215q98 -39 205 -39q91 0 152.5 44.5t111.5 160.5zM355 1579v25q104 144 186 303h244v-21q-29 -49 -126 -148t-175 -159 h-129zM731 1579v25q43 57 99.5 147.5t87.5 155.5h243v-21q-29 -49 -126 -148t-175 -159h-129z" horiz-adv-x="1305" unicode="Ӳ"/><glyph d="M0 1106h256l225 -627q51 -134 68 -252h8q9 55 33 133.5t254 745.5h254l-473 -1253q-129 -345 -430 -345q-78 0 -152 17v186q53 -12 121 -12q170 0 239 197l41 104zM236 1241v25q104 144 186 303h244v-21q-29 -49 -126 -148t-175 -159h-129zM612 1241v25q43 57 99.5 147.5 t87.5 155.5h243v-21q-29 -49 -126 -148t-175 -159h-129z" horiz-adv-x="1098" unicode="ӳ"/><glyph d="M139 868v594h240v-538q0 -114 56.5 -170t185.5 -56q95 0 185 17.5t218 60.5v686h240v-1462h-240v584q-135 -48 -240.5 -69t-212.5 -21q-207 0 -319.5 97.5t-112.5 276.5zM389 1737q0 62 33.5 89.5t81.5 27.5q53 0 84.5 -31t31.5 -86q0 -53 -32 -85t-84 -32 q-48 0 -81.5 29t-33.5 88zM782 1737q0 62 33.5 89.5t81.5 27.5q53 0 85 -31t32 -86q0 -54 -33 -85.5t-84 -31.5q-48 0 -81.5 29t-33.5 88z" horiz-adv-x="1456" unicode="Ӵ"/><glyph d="M139 692v414h236v-404q0 -170 176 -170q85 0 166 23.5t174 75.5v475h235v-1106h-235v469q-97 -60 -187.5 -88.5t-197.5 -28.5q-173 0 -270 89.5t-97 250.5zM322 1399q0 62 33.5 89.5t81.5 27.5q53 0 84.5 -31t31.5 -86q0 -53 -32 -85t-84 -32q-48 0 -81.5 29t-33.5 88z M715 1399q0 62 33.5 89.5t81.5 27.5q53 0 85 -31t32 -86q0 -54 -33 -85.5t-84 -31.5q-48 0 -81.5 29t-33.5 88z" horiz-adv-x="1294" unicode="ӵ"/><glyph d="M193 0v1462h876v-205h-637v-1048h230v-612h-230v403h-239z" horiz-adv-x="1114" unicode="Ӷ"/><glyph d="M168 0v1106h715v-184h-480v-740h211v-571h-219v389h-227z" horiz-adv-x="928" unicode="ӷ"/><glyph d="M193 0v1462h239v-594h170q274 0 417.5 -110t143.5 -318q0 -217 -140.5 -328.5t-412.5 -111.5h-417zM432 199h164q160 0 242 57.5t82 183.5q0 119 -78.5 172.5t-266.5 53.5h-143v-467zM1368 0v1462h240v-1462h-240zM588 1737q0 62 33.5 89.5t81.5 27.5q53 0 84.5 -31 t31.5 -86q0 -53 -32 -85t-84 -32q-48 0 -81.5 29t-33.5 88zM981 1737q0 62 33.5 89.5t81.5 27.5q53 0 85 -31t32 -86q0 -54 -33 -85.5t-84 -31.5q-48 0 -81.5 29t-33.5 88z" horiz-adv-x="1800" unicode="Ӹ"/><glyph d="M168 0v1106h235v-442h224q232 0 343 -80t111 -240q0 -171 -115.5 -257.5t-338.5 -86.5h-459zM403 174h177q142 0 205 40t63 124q0 83 -61.5 116t-176.5 33h-207v-313zM1255 0v1106h236v-1106h-236zM516 1399q0 62 33.5 89.5t81.5 27.5q53 0 84.5 -31t31.5 -86 q0 -53 -32 -85t-84 -32q-48 0 -81.5 29t-33.5 88zM909 1399q0 62 33.5 89.5t81.5 27.5q53 0 85 -31t32 -86q0 -54 -33 -85.5t-84 -31.5q-48 0 -81.5 29t-33.5 88z" horiz-adv-x="1659" unicode="ӹ"/><glyph d="M47 623v200h146v639h874v-205h-635v-434h412v-200h-412v-623h-239v623h-146zM210 -231q55 -19 111 -19q109 0 109 135v342h221v-356q0 -154 -75 -234.5t-216 -80.5q-81 0 -150 24v189z" horiz-adv-x="1112" unicode="Ӻ"/><glyph d="M10 451v182h148v473h737v-193h-502v-280h340v-182h-340v-451h-235v451h-148zM172 -231q55 -19 111 -19q109 0 109 135v318h221v-332q0 -154 -75 -234.5t-216 -80.5q-81 0 -150 24v189z" horiz-adv-x="940" unicode="ӻ"/><glyph d="M4 0l485 758l-454 704h266l338 -553l338 553h258l-457 -708l492 -754h-275l-366 598l-369 -598h-256zM901 -231q55 -19 111 -19q109 0 109 135v342h221v-356q0 -154 -75 -234.5t-216 -80.5q-81 0 -150 24v189z" horiz-adv-x="1384" unicode="Ӽ"/><glyph d="M25 0l389 565l-371 541h268l252 -387l254 387h266l-372 -541l391 -565h-266l-273 414l-272 -414h-266zM743 -231q55 -19 111 -19q109 0 109 135v318h221v-332q0 -154 -75 -234.5t-216 -80.5q-81 0 -150 24v189z" horiz-adv-x="1212" unicode="ӽ"/><glyph d="M2 0l422 659h-305v203h303l-387 600h266l338 -555l338 555h258l-387 -600h305v-203h-313l430 -659h-275l-366 598l-369 -598h-258z" horiz-adv-x="1274" unicode="Ӿ"/><glyph d="M25 0l327 475h-243v180h245l-311 451h268l252 -387l254 387h266l-313 -451h250v-180h-248l330 -475h-266l-273 414l-272 -414h-266z" horiz-adv-x="1128" unicode="ӿ"/><glyph d="M111 438q0 211 150 320.5t439 109.5h160v594h240v-1462h-420q-282 0 -425.5 110.5t-143.5 327.5zM356 438q0 -125 84.5 -181t259.5 -56h160v467h-133q-200 0 -285.5 -55t-85.5 -175z" horiz-adv-x="1280" unicode="Ԁ"/><glyph d="M102 551q0 272 117.5 423.5t325.5 151.5q218 0 332 -161h12q-17 119 -17 188v403h236v-1556h-184l-41 145h-11q-113 -165 -331 -165q-207 0 -323 150t-116 421zM344 547q0 -184 65 -280.5t195 -96.5q145 0 211 81.5t68 264.5v33q0 209 -68 297t-213 88 q-124 0 -191 -100.5t-67 -286.5z" horiz-adv-x="1276" unicode="ԁ"/><glyph d="M111 418q0 217 149.5 333.5t427.5 116.5h129v594h240v-1097q4 -183 198 -183q195 0 195 224v442h238v-477q0 -185 -113 -288t-322 -103q-115 0 -202.5 41.5t-130.5 113.5q-103 -153 -345 -153q-230 0 -347 112t-117 324zM356 416q0 -234 236 -234q106 0 165.5 47.5 t59.5 130.5v306h-110q-186 0 -268.5 -61t-82.5 -189z" horiz-adv-x="1868" unicode="Ԃ"/><glyph d="M102 551q0 270 112.5 422.5t313.5 152.5q209 0 318 -161h12q-16 112 -16 188v403h235v-1159q0 -119 47 -170t152 -51q102 0 147 59t45 183v282h236v-321q0 -196 -106.5 -296.5t-317.5 -100.5q-121 0 -198.5 35.5t-141.5 132.5q-58 -80 -152 -125t-208 -45 q-230 0 -354 148.5t-124 422.5zM344 547q0 -189 59 -283t187 -94q134 0 197 80.5t65 265.5v33q0 210 -63.5 297.5t-200.5 87.5q-244 0 -244 -387z" horiz-adv-x="1862" unicode="ԃ"/><glyph d="M51 1335q201 148 477 148q220 0 350 -95.5t130 -261.5q0 -139 -85.5 -232t-238.5 -124v-8q174 -23 265 -110t93 -236q2 -126 50 -180t151 -54q105 0 153 56t48 180v430h235v-469q0 -196 -111.5 -297.5t-324.5 -101.5q-216 0 -329 109.5t-115 318.5q0 254 -402 254h-186 v180h182q183 0 279 63.5t96 179.5q0 97 -66.5 149t-185.5 52q-89 0 -171.5 -25.5t-174.5 -86.5z" horiz-adv-x="1860" unicode="Ԅ"/><glyph d="M68 1047q95 42 191 60.5t218 18.5q192 0 306 -78t114 -214q0 -187 -201 -244v-8q106 -20 168.5 -78.5t65.5 -159.5q4 -168 196 -168q101 0 147 59t46 183v282h233v-321q0 -399 -424 -399q-205 0 -317.5 81t-114.5 232q-3 103 -77 148.5t-211 45.5h-148v177h129 q150 0 220.5 35.5t70.5 109.5q0 135 -209 135q-167 0 -330 -72z" horiz-adv-x="1712" unicode="ԅ"/><glyph d="M51 1335q99 72 226 110t270 38q229 0 362 -96.5t133 -260.5q0 -137 -85.5 -229.5t-247.5 -126.5v-6q180 -23 274 -111.5t94 -234.5v-209h236v-612h-230v403h-241v418q0 130 -122.5 187t-363.5 57h-145v180h195q194 0 297.5 62.5t103.5 180.5q0 96 -70.5 148.5 t-197.5 52.5q-188 0 -369 -112z" horiz-adv-x="1358" unicode="Ԇ"/><glyph d="M78 1047q189 79 424 79q197 0 314.5 -78.5t117.5 -213.5q0 -187 -207 -244v-10q126 -33 183 -98.5t57 -170.5v-129h215v-571h-219v389h-224v313q0 88 -76 131t-235 43h-158v177h138q161 0 237 35.5t76 109.5q0 135 -225 135q-182 0 -342 -72z" horiz-adv-x="1212" unicode="ԇ"/><glyph d="M8 2v199q57 -25 111 -25q72 0 113.5 89.5t92.5 405t111 791.5h817v-1081q0 -105 47.5 -152t149.5 -47t149.5 57t47.5 179v430h235v-469q0 -194 -111 -296.5t-321 -102.5q-215 0 -325.5 99.5t-110.5 297.5v880h-379l-29 -223q-47 -372 -82 -567t-80 -295t-116.5 -147.5 t-180.5 -47.5q-73 0 -139 25z" horiz-adv-x="2062" unicode="Ԉ"/><glyph d="M8 4v186q37 -14 74 -14q97 0 156 213t94 717h721v-725q0 -105 45.5 -155t148.5 -50q96 0 142.5 59t46.5 183v282h233v-321q0 -399 -420 -399q-213 0 -322.5 99.5t-109.5 297.5v543h-282q-28 -356 -75.5 -555.5t-123.5 -290t-199 -90.5q-82 0 -129 20z" horiz-adv-x="1829" unicode="ԉ"/><glyph d="M193 0v1462h239v-598h633v598h240v-1077q0 -106 45 -154.5t145 -48.5q102 0 147.5 57t45.5 179v430h235v-469q0 -195 -110 -297t-318 -102q-426 0 -430 397v282h-633v-659h-239z" horiz-adv-x="2103" unicode="Ԋ"/><glyph d="M168 0v1106h235v-444h498v444h236v-725q0 -105 47 -155t147 -50q94 0 139.5 59t45.5 183v282h233v-321q0 -399 -418 -399q-211 0 -319.5 101t-110.5 296v100h-498v-477h-235z" horiz-adv-x="1909" unicode="ԋ"/><glyph d="M121 733q0 229 88.5 398.5t257 260.5t399.5 91q264 0 471 -99l-86 -198q-200 92 -399 92q-228 0 -354.5 -144.5t-126.5 -404.5q0 -264 123 -405.5t348 -141.5q185 0 284 100t99 292v8h-379v204h631v-104q0 -702 -641 -702q-341 0 -528 199t-187 554z" horiz-adv-x="1593" unicode="Ԍ"/><glyph d="M102 549q0 277 163.5 427t455.5 150q226 0 405 -82l-75 -182q-74 34 -164.5 54t-167.5 20q-185 0 -280 -98t-95 -291q0 -185 85 -282t253 -97q150 0 230.5 69t80.5 197h-317v184h557v-79q0 -279 -138 -419t-409 -140q-279 0 -431.5 148.5t-152.5 420.5z" horiz-adv-x="1333" unicode="ԍ"/><glyph d="M29 1255v207h1093v-207h-432v-870q0 -106 49.5 -154.5t149.5 -48.5t148 57.5t48 178.5v430h238v-469q0 -196 -113.5 -297.5t-320.5 -101.5q-215 0 -326.5 100t-111.5 297v878h-422z" horiz-adv-x="1503" unicode="Ԏ"/><glyph d="M43 922v184h948v-184h-356v-539q0 -106 47 -156.5t149 -50.5q189 0 189 242v282h233v-321q0 -197 -105.5 -298t-316.5 -101t-321.5 100t-110.5 297v545h-356z" horiz-adv-x="1413" unicode="ԏ"/><glyph d="M98 406q0 147 102 241.5t289 114.5v8q-165 26 -255.5 116.5t-90.5 231.5q0 106 63 189t181.5 129.5t274.5 46.5q154 0 275 -35t234 -111l-114 -174q-98 63 -193.5 91t-197.5 28q-137 0 -210 -50.5t-73 -146.5q0 -231 426 -231h170v-192h-174q-229 0 -346 -61t-117 -179 q0 -242 360 -242q265 0 461 94v-217q-184 -77 -475 -77q-279 0 -434.5 114t-155.5 312z" horiz-adv-x="1260" unicode="Ԑ"/><glyph d="M84 303q0 105 61.5 170.5t194.5 97.5v11q-209 54 -209 254q0 135 121.5 212.5t331.5 77.5q218 0 397 -79l-72 -175q-165 72 -323 72q-238 0 -238 -133q0 -76 72.5 -111.5t224.5 -35.5h131v-177h-158q-301 0 -301 -168q0 -153 275 -153q199 0 387 86v-197 q-152 -75 -397 -75q-242 0 -370 84.5t-128 238.5z" horiz-adv-x="1055" unicode="ԑ"/><glyph d="M8 2v199q57 -25 111 -25q72 0 112.5 86.5t89 382.5t115.5 817h854v-1462h-239v1257h-416q-79 -640 -126.5 -871t-133.5 -321.5t-228 -87.5q-73 0 -139 25zM1069 -231q55 -19 111 -19q109 0 109 135v342h221v-356q0 -154 -75 -234.5t-216 -80.5q-81 0 -150 24v189z" horiz-adv-x="1554" unicode="Ԓ"/><glyph d="M8 4v184q37 -14 74 -14q102 0 160.5 229.5t91.5 702.5h743v-1106h-237v922h-305q-28 -356 -75.5 -556t-124 -292t-198.5 -92q-77 0 -129 22zM856 -231q55 -19 111 -19q109 0 109 135v318h221v-332q0 -154 -75 -234.5t-216 -80.5q-81 0 -150 24v189z" horiz-adv-x="1325" unicode="ԓ"/><glyph d="M0 0l547 1468h260l547 -1468h-254l-146 406h-559l-143 -406h-252zM465 612h426l-137 398q-15 40 -41.5 126t-36.5 126q-27 -123 -79 -269zM442 -352q0 104 64 165.5t170 61.5q108 0 175 -63.5t67 -161.5q0 -104 -67.5 -166t-174.5 -62q-106 0 -170 61t-64 165zM569 -352 q0 -50 27 -78.5t80 -28.5q48 0 77 28.5t29 78.5q0 51 -30 78.5t-76 27.5q-47 0 -77 -27.5t-30 -78.5z" horiz-adv-x="1354" unicode="Ḁ"/><glyph d="M90 317q0 171 127 258t387 95l191 6v59q0 106 -49.5 158.5t-153.5 52.5q-85 0 -163 -25t-150 -59l-76 168q90 47 197 71.5t202 24.5q211 0 318.5 -92t107.5 -289v-745h-168l-47 154h-8q-80 -101 -161 -137.5t-208 -36.5q-163 0 -254.5 88t-91.5 249zM334 315 q0 -74 44 -114.5t132 -40.5q128 0 205.5 71.5t77.5 200.5v96l-142 -6q-166 -6 -241.5 -55.5t-75.5 -151.5zM329 -352q0 104 64 165.5t170 61.5q108 0 175 -63.5t67 -161.5q0 -104 -67.5 -166t-174.5 -62q-106 0 -170 61t-64 165zM456 -352q0 -50 27 -78.5t80 -28.5 q48 0 77 28.5t29 78.5q0 51 -30 78.5t-76 27.5q-47 0 -77 -27.5t-30 -78.5z" horiz-adv-x="1188" unicode="ḁ"/><glyph d="M193 0v1462h337l406 -1163h6l418 1163h338v-1462h-230v723q0 109 5.5 284t9.5 212h-8l-439 -1219h-211l-424 1221h-8q17 -272 17 -510v-711h-217zM792 1581v25q57 70 117.5 156t95.5 147h273v-21q-52 -61 -155.5 -157.5t-174.5 -149.5h-156z" horiz-adv-x="1890" unicode="Ḿ"/><glyph d="M168 0v1106h184l33 -145h12q46 79 133.5 122t192.5 43q255 0 338 -174h16q49 82 138 128t204 46q198 0 288.5 -100t90.5 -305v-721h-235v682q0 127 -48.5 189.5t-150.5 62.5q-137 0 -200.5 -85.5t-63.5 -262.5v-586h-236v682q0 127 -48 189.5t-150 62.5 q-136 0 -199.5 -88.5t-63.5 -294.5v-551h-235zM839 1241v25q57 70 117.5 156t95.5 147h273v-21q-52 -61 -155.5 -157.5t-174.5 -149.5h-156z" horiz-adv-x="1958" unicode="ḿ"/><glyph d="M12 1462h244l209 -852q49 -205 70 -362q11 85 33 190t40 170l238 854h237l244 -858q35 -119 74 -356q15 143 72 364l208 850h242l-381 -1462h-260l-248 872q-16 57 -40 164.5t-29 149.5q-10 -64 -32.5 -166t-37.5 -152l-242 -868h-260l-189 732zM626 1886v21h273 q38 -70 103.5 -161t109.5 -142v-25h-158q-69 52 -174.5 150.5t-153.5 156.5z" horiz-adv-x="1937" unicode="Ẁ"/><glyph d="M20 1106h240l141 -545q48 -202 68 -346h6q10 73 30.5 167.5t35.5 141.5l168 582h258l163 -582q15 -49 37.5 -150t26.5 -157h8q15 123 70 344l143 545h236l-312 -1106h-264l-143 516q-26 82 -94 381h-9q-58 -270 -92 -383l-147 -514h-260zM487 1548v21h273 q38 -70 103.5 -161t109.5 -142v-25h-158q-69 52 -174.5 150.5t-153.5 156.5z" horiz-adv-x="1673" unicode="ẁ"/><glyph d="M12 1462h244l209 -852q49 -205 70 -362q11 85 33 190t40 170l238 854h237l244 -858q35 -119 74 -356q15 143 72 364l208 850h242l-381 -1462h-260l-248 872q-16 57 -40 164.5t-29 149.5q-10 -64 -32.5 -166t-37.5 -152l-242 -868h-260l-189 732zM798 1579v25 q57 70 117.5 156t95.5 147h273v-21q-52 -61 -155.5 -157.5t-174.5 -149.5h-156z" horiz-adv-x="1937" unicode="Ẃ"/><glyph d="M20 1106h240l141 -545q48 -202 68 -346h6q10 73 30.5 167.5t35.5 141.5l168 582h258l163 -582q15 -49 37.5 -150t26.5 -157h8q15 123 70 344l143 545h236l-312 -1106h-264l-143 516q-26 82 -94 381h-9q-58 -270 -92 -383l-147 -514h-260zM681 1241v25q57 70 117.5 156 t95.5 147h273v-21q-52 -61 -155.5 -157.5t-174.5 -149.5h-156z" horiz-adv-x="1673" unicode="ẃ"/><glyph d="M12 1462h244l209 -852q49 -205 70 -362q11 85 33 190t40 170l238 854h237l244 -858q35 -119 74 -356q15 143 72 364l208 850h242l-381 -1462h-260l-248 872q-16 57 -40 164.5t-29 149.5q-10 -64 -32.5 -166t-37.5 -152l-242 -868h-260l-189 732zM653 1737q0 62 33.5 89.5 t81.5 27.5q53 0 84.5 -31t31.5 -86q0 -53 -32 -85t-84 -32q-48 0 -81.5 29t-33.5 88zM1046 1737q0 62 33.5 89.5t81.5 27.5q53 0 85 -31t32 -86q0 -54 -33 -85.5t-84 -31.5q-48 0 -81.5 29t-33.5 88z" horiz-adv-x="1937" unicode="Ẅ"/><glyph d="M20 1106h240l141 -545q48 -202 68 -346h6q10 73 30.5 167.5t35.5 141.5l168 582h258l163 -582q15 -49 37.5 -150t26.5 -157h8q15 123 70 344l143 545h236l-312 -1106h-264l-143 516q-26 82 -94 381h-9q-58 -270 -92 -383l-147 -514h-260zM522 1399q0 62 33.5 89.5 t81.5 27.5q53 0 84.5 -31t31.5 -86q0 -53 -32 -85t-84 -32q-48 0 -81.5 29t-33.5 88zM915 1399q0 62 33.5 89.5t81.5 27.5q53 0 85 -31t32 -86q0 -54 -33 -85.5t-84 -31.5q-48 0 -81.5 29t-33.5 88z" horiz-adv-x="1673" unicode="ẅ"/><glyph d="M0 0l547 1468h260l547 -1468h-254l-146 406h-559l-143 -406h-252zM465 612h426l-137 398q-15 40 -41.5 126t-36.5 126q-27 -123 -79 -269zM545 -262q0 63 34.5 97t98.5 34t97.5 -34.5t33.5 -96.5q0 -59 -34 -94t-97 -35q-64 0 -98.5 34.5t-34.5 94.5z" horiz-adv-x="1354" unicode="Ạ"/><glyph d="M90 317q0 171 127 258t387 95l191 6v59q0 106 -49.5 158.5t-153.5 52.5q-85 0 -163 -25t-150 -59l-76 168q90 47 197 71.5t202 24.5q211 0 318.5 -92t107.5 -289v-745h-168l-47 154h-8q-80 -101 -161 -137.5t-208 -36.5q-163 0 -254.5 88t-91.5 249zM334 315 q0 -74 44 -114.5t132 -40.5q128 0 205.5 71.5t77.5 200.5v96l-142 -6q-166 -6 -241.5 -55.5t-75.5 -151.5zM426 -262q0 63 34.5 97t98.5 34t97.5 -34.5t33.5 -96.5q0 -59 -34 -94t-97 -35q-64 0 -98.5 34.5t-34.5 94.5z" horiz-adv-x="1188" unicode="ạ"/><glyph d="M0 0l547 1468h260l547 -1468h-254l-146 406h-559l-143 -406h-252zM465 612h426l-137 398q-15 40 -41.5 126t-36.5 126q-27 -123 -79 -269zM510 1876v135q68 17 141 17q131 0 199.5 -50t68.5 -149q0 -147 -164 -186l-10 -93h-139l-19 162q75 13 111.5 37t36.5 68 q0 73 -109 73q-60 0 -116 -14z" horiz-adv-x="1354" unicode="Ả"/><glyph d="M90 317q0 171 127 258t387 95l191 6v59q0 106 -49.5 158.5t-153.5 52.5q-85 0 -163 -25t-150 -59l-76 168q90 47 197 71.5t202 24.5q211 0 318.5 -92t107.5 -289v-745h-168l-47 154h-8q-80 -101 -161 -137.5t-208 -36.5q-163 0 -254.5 88t-91.5 249zM334 315 q0 -74 44 -114.5t132 -40.5q128 0 205.5 71.5t77.5 200.5v96l-142 -6q-166 -6 -241.5 -55.5t-75.5 -151.5zM424 1538v135q68 17 141 17q131 0 199.5 -50t68.5 -149q0 -147 -164 -186l-10 -93h-139l-19 162q75 13 111.5 37t36.5 68q0 73 -109 73q-60 0 -116 -14z" horiz-adv-x="1188" unicode="ả"/><glyph d="M0 0l547 1468h260l547 -1468h-254l-146 406h-559l-143 -406h-252zM465 612h426l-137 398q-15 40 -41.5 126t-36.5 126q-27 -123 -79 -269zM336 1579v25q156 181 217 270h246q88 -128 215 -270v-25h-127q-112 75 -211 166q-114 -101 -211 -166h-129zM930 1774v24 q83 99 133 203h207v-21q-69 -92 -215 -206h-125z" horiz-adv-x="1354" unicode="Ấ"/><glyph d="M90 317q0 171 127 258t387 95l191 6v59q0 106 -49.5 158.5t-153.5 52.5q-85 0 -163 -25t-150 -59l-76 168q90 47 197 71.5t202 24.5q211 0 318.5 -92t107.5 -289v-745h-168l-47 154h-8q-80 -101 -161 -137.5t-208 -36.5q-163 0 -254.5 88t-91.5 249zM334 315 q0 -74 44 -114.5t132 -40.5q128 0 205.5 71.5t77.5 200.5v96l-142 -6q-166 -6 -241.5 -55.5t-75.5 -151.5zM250 1241v25q156 181 217 270h246q88 -128 215 -270v-25h-127q-112 75 -211 166q-114 -101 -211 -166h-129zM844 1436v24q83 99 133 203h207v-21q-69 -92 -215 -206 h-125z" horiz-adv-x="1188" unicode="ấ"/><glyph d="M0 0l547 1468h260l547 -1468h-254l-146 406h-559l-143 -406h-252zM465 612h426l-137 398q-15 40 -41.5 126t-36.5 126q-27 -123 -79 -269zM82 1980v21h207q53 -110 131 -203v-24h-123q-139 105 -215 206zM336 1579v25q112 130 150.5 179.5t66.5 90.5h246 q88 -128 215 -270v-25h-127q-97 65 -211 166q-106 -96 -211 -166h-129z" horiz-adv-x="1354" unicode="Ầ"/></font>
</defs>
</svg>
