<svg xmlns="http://www.w3.org/2000/svg"><metadata>This is a custom SVG webfont generated by Font Squirrel. Copyright : Digitized data copyright 20102011 Google Corporation Foundry : Ascender Corporation Foundry URL : httpwwwascendercorpcom</metadata><defs><font id="OpenSansSemiboldItalic" horiz-adv-x="1128"><font-face ascent="1638" descent="-410" units-per-em="2048"/><glyph d="M-225 -279q64 -20 114 -20q133 0 177 205l217 1022h-179l21 106l194 76l21 92q44 198 134.5 281.5t256.5 83.5q115 0 211 -43l-61 -176q-74 28 -136 28q-69 0 -110.5 -43t-63.5 -141l-18 -86h438l23 96q44 197 133 281t256 84q117 0 213 -43l-62 -176q-74 28 -135 28 q-71 0 -111.5 -43t-62.5 -141l-18 -86h229l-39 -178h-227l-223 -1053q-43 -192 -133.5 -279.5t-235.5 -87.5q-95 0 -149 23v190q60 -20 114 -20q136 0 176 205l215 1022h-438l-223 -1053q-40 -189 -131 -278t-238 -89q-90 0 -149 23v190z" horiz-adv-x="1376" unicode="ﬀ"/><glyph d="M-225 -279q64 -20 114 -20q134 0 177 205l217 1022h-179l21 106l194 76l21 92q44 198 134.5 281.5t256.5 83.5q115 0 211 -43l-61 -176q-74 28 -136 28q-69 0 -110.5 -43t-63.5 -141l-18 -86h229l-37 -178h-229l-223 -1053q-40 -189 -131 -278t-238 -89q-90 0 -149 23 v190zM739 0l236 1106h235l-235 -1106h-236zM1022 1378q0 68 39 110t110 42q53 0 86 -26.5t33 -80.5q0 -71 -40 -112t-105 -41q-53 0 -88 26t-35 82z" horiz-adv-x="1257" unicode="ﬁ"/><glyph d="M-225 -279q64 -20 114 -20q134 0 177 205l217 1022h-179l21 106l194 76l21 92q44 198 134.5 281.5t256.5 83.5q115 0 211 -43l-61 -176q-74 28 -136 28q-69 0 -110.5 -43t-63.5 -141l-18 -86h229l-37 -178h-229l-223 -1053q-40 -189 -131 -278t-238 -89q-90 0 -149 23 v190zM739 0l330 1556h235l-331 -1556h-234z" horiz-adv-x="1257" unicode="ﬂ"/><glyph d="M-225 -279q64 -20 114 -20q133 0 177 205l217 1022h-179l21 106l194 76l21 92q44 198 134.5 281.5t256.5 83.5q115 0 211 -43l-61 -176q-74 28 -136 28q-69 0 -110.5 -43t-63.5 -141l-18 -86h438l23 96q44 197 133 281t256 84q117 0 213 -43l-62 -176q-74 28 -135 28 q-71 0 -111.5 -43t-62.5 -141l-18 -86h229l-39 -178h-227l-223 -1053q-43 -192 -133.5 -279.5t-235.5 -87.5q-95 0 -149 23v190q60 -20 114 -20q136 0 176 205l215 1022h-438l-223 -1053q-40 -189 -131 -278t-238 -89q-90 0 -149 23v190zM1415 0l236 1106h233l-235 -1106 h-234zM1698 1378q0 68 39 110t108 42q54 0 86.5 -26.5t32.5 -80.5q0 -71 -39.5 -112t-105.5 -41q-51 0 -86 26t-35 82z" horiz-adv-x="1931" unicode="ﬃ"/><glyph d="M-225 -279q64 -20 114 -20q133 0 177 205l217 1022h-179l21 106l194 76l21 92q44 198 134.5 281.5t256.5 83.5q115 0 211 -43l-61 -176q-74 28 -136 28q-69 0 -110.5 -43t-63.5 -141l-18 -86h438l23 96q44 197 133 281t256 84q117 0 213 -43l-62 -176q-74 28 -135 28 q-71 0 -111.5 -43t-62.5 -141l-18 -86h229l-39 -178h-227l-223 -1053q-43 -192 -133.5 -279.5t-235.5 -87.5q-95 0 -149 23v190q60 -20 114 -20q136 0 176 205l215 1022h-438l-223 -1053q-40 -189 -131 -278t-238 -89q-90 0 -149 23v190zM1413 0l332 1556h233l-329 -1556 h-236z" horiz-adv-x="1931" unicode="ﬄ"/><glyph horiz-adv-x="532"/><glyph horiz-adv-x="532"/><glyph horiz-adv-x="532"/><glyph d="M33 96q0 80 45.5 130t130.5 50q57 0 91 -32.5t34 -93.5q0 -79 -47 -128t-123 -49q-62 0 -96.5 33.5t-34.5 89.5zM160 444l168 1018h272l-264 -1018h-176z" horiz-adv-x="557" unicode="!"/><glyph d="M213 934l72 528h231l-151 -528h-152zM588 934l74 528h231l-152 -528h-153z" horiz-adv-x="858" unicode="&quot;"/><glyph d="M51 418l17 168h280l84 286h-264l16 168h295l121 422h178l-121 -422h252l121 422h174l-121 -422h252l-14 -168h-285l-84 -286h271l-15 -168h-303l-121 -418h-180l123 418h-248l-121 -418h-174l117 418h-250zM526 586h250l82 286h-250z" horiz-adv-x="1323" unicode="#"/><glyph d="M61 172v209q78 -42 179.5 -70t193.5 -30l84 387q-156 56 -223.5 138.5t-67.5 199.5q0 167 118.5 267.5t324.5 117.5l37 163h135l-35 -165q161 -16 289 -82l-86 -185q-134 66 -244 74l-80 -371q128 -51 186.5 -95t86.5 -101t28 -135q0 -172 -119.5 -277t-337.5 -125 l-45 -211h-135l45 211q-197 13 -334 80zM451 1016q0 -98 110 -139l68 319q-89 -11 -133.5 -57.5t-44.5 -122.5zM571 285q86 11 136.5 60t50.5 126q0 101 -115 145z" unicode="$"/><glyph d="M141 872q0 166 53 313.5t142.5 222.5t208.5 75q127 0 193.5 -76t66.5 -221q0 -160 -55.5 -313.5t-146.5 -230.5t-206 -77q-124 0 -190 79t-66 228zM231 0l1086 1462h194l-1085 -1462h-195zM334 866q0 -135 80 -135q52 0 95.5 58t73 175.5t29.5 219.5q0 131 -82 131 q-55 0 -99 -61t-70.5 -173t-26.5 -215zM940 279q0 171 53 320t142.5 223.5t207.5 74.5q127 0 195 -75t68 -218q0 -161 -55.5 -315.5t-146.5 -231.5t-204 -77q-127 0 -193.5 76.5t-66.5 222.5zM1133 281q0 -134 81 -134q52 0 96 58.5t73.5 174.5t29.5 220q0 131 -84 131 q-52 0 -95.5 -57.5t-72 -171t-28.5 -221.5z" horiz-adv-x="1688" unicode="%"/><glyph d="M66 350q0 147 85.5 254t286.5 205q-88 151 -88 283q0 180 112.5 286.5t297.5 106.5q160 0 252 -81t92 -218q0 -129 -89.5 -230t-293.5 -192l235 -326q109 112 181 295h233q-113 -270 -297 -454l205 -279h-277l-94 131q-106 -80 -211 -115.5t-229 -35.5 q-190 0 -295.5 97.5t-105.5 272.5zM305 371q0 -86 56 -140.5t147 -54.5q77 0 147 27t144 82l-264 381q-133 -74 -181.5 -141.5t-48.5 -153.5zM567 1102q0 -109 62 -201q147 75 199.5 133.5t52.5 126.5q0 66 -36 101.5t-97 35.5q-87 0 -134 -54t-47 -142z" horiz-adv-x="1411" unicode="&amp;"/><glyph d="M213 934l72 528h231l-151 -528h-152z" horiz-adv-x="483" unicode="'"/><glyph d="M78 276q0 343 124.5 632.5t379.5 553.5h209q-498 -548 -498 -1190q0 -329 115 -596h-183q-147 261 -147 600z" horiz-adv-x="639" unicode="("/><glyph d="M-154 -324q498 548 498 1190q0 327 -115 596h183q147 -265 147 -602q0 -342 -123 -629.5t-381 -554.5h-209z" horiz-adv-x="639" unicode=")"/><glyph d="M193 1167l71 195l354 -178l37 383l213 -43l-116 -367l403 23l-12 -205l-367 45l170 -361l-205 -61l-102 371l-227 -312l-162 144l293 266z" horiz-adv-x="1122" unicode="*"/><glyph d="M117 631v180h379v381h180v-381h377v-180h-377v-375h-180v375h-379z" unicode="+"/><glyph d="M-102 -264q105 238 200 502h236l8 -23q-125 -260 -266 -479h-178z" horiz-adv-x="530" unicode=","/><glyph d="M47 446l45 203h502l-45 -203h-502z" horiz-adv-x="649" unicode="-"/><glyph d="M33 94q0 83 47 132.5t131 49.5q56 0 89.5 -31.5t33.5 -92.5q0 -78 -47.5 -129.5t-124.5 -51.5q-66 0 -97.5 35.5t-31.5 87.5z" horiz-adv-x="551" unicode="."/><glyph d="M-92 0l811 1462h233l-811 -1462h-233z" horiz-adv-x="788" unicode="/"/><glyph d="M92 471q0 284 83 526t222.5 365t321.5 123q187 0 284 -118.5t97 -354.5q0 -306 -79 -546.5t-219 -363t-325 -122.5q-194 0 -289.5 127.5t-95.5 363.5zM330 469q0 -143 39 -218t129 -75q100 0 182.5 113.5t132 316.5t49.5 414q0 268 -162 268q-97 0 -180 -112 t-136.5 -312.5t-53.5 -394.5z" unicode="0"/><glyph d="M242 1145l508 317h198l-311 -1462h-238l189 870q28 150 82 324q-57 -55 -135 -102l-187 -117z" unicode="1"/><glyph d="M-18 0l36 180l471 422q176 159 238.5 231t90.5 133.5t28 131.5q0 85 -49.5 134.5t-139.5 49.5q-70 0 -139 -30t-170 -109l-115 160q120 97 231 138.5t228 41.5q181 0 288 -93t107 -251q0 -108 -39 -201t-123 -190.5t-284 -268.5l-311 -264v-8h622l-41 -207h-929z" unicode="2"/><glyph d="M31 59v215q84 -49 185.5 -75.5t195.5 -26.5q157 0 245 71.5t88 196.5q0 219 -278 219h-133l37 183h106q164 0 267.5 74.5t103.5 199.5q0 79 -49.5 124.5t-139.5 45.5q-72 0 -146.5 -25.5t-162.5 -84.5l-104 161q120 81 225.5 113.5t226.5 32.5q183 0 286 -88.5 t103 -241.5q0 -158 -99 -264t-269 -137v-7q127 -24 196.5 -106t69.5 -205q0 -133 -68 -236.5t-196.5 -160.5t-304.5 -57q-225 0 -385 79z" unicode="3"/><glyph d="M-4 317l37 197l803 952h254l-201 -952h201l-43 -197h-201l-68 -317h-229l69 317h-622zM262 514h397l68 309q31 136 100 377h-8q-51 -86 -135 -186z" unicode="4"/><glyph d="M53 59v217q167 -100 342 -100q173 0 270 83t97 230q0 105 -62 168.5t-188 63.5q-95 0 -225 -35l-88 68l200 708h713l-45 -209h-506l-106 -364q93 18 155 18q181 0 288.5 -103.5t107.5 -285.5q0 -161 -70 -283t-204 -188.5t-324 -66.5q-214 0 -355 79z" unicode="5"/><glyph d="M111 446q0 205 60.5 406t165 343t251 215t342.5 73q117 0 203 -25l-43 -194q-72 22 -181 22q-205 0 -337 -129.5t-197 -392.5h6q125 170 326 170q156 0 243.5 -99t87.5 -272q0 -162 -68.5 -301t-185.5 -210.5t-270 -71.5q-194 0 -298.5 120t-104.5 346zM340 418 q0 -110 49.5 -177t140.5 -67q81 0 143 48.5t96 134.5t34 188q0 200 -178 200q-51 0 -95.5 -19t-79 -48t-58.5 -64.5t-39 -82t-13 -113.5z" unicode="6"/><glyph d="M125 0l754 1257h-674l43 205h932l-33 -168l-758 -1294h-264z" unicode="7"/><glyph d="M76 348q0 297 368 432q-91 70 -130.5 145t-39.5 162q0 179 127 288.5t330 109.5q179 0 283 -89t104 -239q0 -132 -79 -229.5t-248 -163.5q120 -78 172.5 -165.5t52.5 -201.5q0 -121 -61.5 -216.5t-175.5 -148t-271 -52.5q-203 0 -317.5 100t-114.5 268zM311 369 q0 -93 59 -149t158 -56q115 0 184.5 64t69.5 167q0 91 -48.5 157.5t-139.5 119.5q-149 -54 -216 -126.5t-67 -176.5zM504 1096q0 -83 39 -137t104 -93q115 43 177.5 105t62.5 157q0 81 -48 126.5t-128 45.5q-93 0 -150 -56t-57 -148z" unicode="8"/><glyph d="M92 12v207q121 -43 236 -43q188 0 306 123t177 389h-6q-113 -160 -305 -160q-165 0 -255.5 102t-90.5 288q0 156 67 289t186.5 204.5t274.5 71.5q192 0 294.5 -119.5t102.5 -345.5q0 -205 -58 -414.5t-152.5 -349t-226 -207t-310.5 -67.5q-133 0 -240 32zM387 932 q0 -105 46 -160t134 -55q117 0 198 94t81 240q0 108 -48 172.5t-134 64.5q-82 0 -145.5 -47t-97.5 -130t-34 -179z" unicode="9"/><glyph d="M33 94q0 83 47 132.5t131 49.5q56 0 89.5 -31.5t33.5 -92.5q0 -78 -47.5 -129.5t-124.5 -51.5q-66 0 -97.5 35.5t-31.5 87.5zM205 948q0 83 47 132.5t131 49.5q56 0 89.5 -31.5t33.5 -92.5q0 -79 -48.5 -130t-125.5 -51q-66 0 -96.5 35.5t-30.5 87.5z" horiz-adv-x="551" unicode=":"/><glyph d="M-100 -264q95 214 198 502h236l8 -23q-125 -260 -266 -479h-176zM205 948q0 83 47 132.5t131 49.5q56 0 89.5 -31.5t33.5 -92.5q0 -79 -48.5 -130t-125.5 -51q-66 0 -96.5 35.5t-30.5 87.5z" horiz-adv-x="551" unicode=";"/><glyph d="M115 651v121l936 488v-195l-697 -344l697 -303v-197z" unicode="&lt;"/><glyph d="M117 430v180h936v-180h-936zM117 831v179h936v-179h-936z" unicode="="/><glyph d="M115 221v197l694 303l-694 344v195l936 -488v-121z" unicode="&gt;"/><glyph d="M162 94q0 83 47 132.5t131 49.5q56 0 89.5 -31.5t33.5 -92.5q0 -79 -49 -129t-125 -50q-66 0 -96.5 34.5t-30.5 86.5zM186 1370q207 113 410 113q171 0 269 -85.5t98 -242.5q0 -120 -63.5 -217.5t-231.5 -216.5q-104 -74 -150 -133t-61 -144h-197q18 133 71.5 220.5 t176.5 177.5q107 77 146.5 117t58 80.5t18.5 88.5q0 70 -42.5 114t-123.5 44q-77 0 -150 -27.5t-151 -64.5z" horiz-adv-x="907" unicode="?"/><glyph d="M100 502q0 270 122.5 489t343 344t493.5 125q200 0 346 -74.5t223.5 -214.5t77.5 -325q0 -176 -59.5 -322.5t-166.5 -229.5t-239 -83q-98 0 -150.5 46t-64.5 120h-6q-101 -166 -277 -166q-123 0 -189.5 78.5t-66.5 218.5q0 151 67.5 279.5t188 203t263.5 74.5 q52 0 94.5 -5t79.5 -13t129 -39l-101 -392q-30 -114 -30 -159q0 -92 79 -92q72 0 134 66.5t97.5 174.5t35.5 230q0 228 -128.5 347.5t-363.5 119.5q-214 0 -385 -99.5t-266.5 -281.5t-95.5 -406q0 -259 140.5 -401t391.5 -142q200 0 430 86v-155q-219 -90 -454 -90 q-210 0 -367 83.5t-241.5 239.5t-84.5 365zM676 522q0 -157 112 -157q82 0 141.5 72t100.5 220l64 240q-53 16 -105 16q-86 0 -158.5 -53.5t-113.5 -144t-41 -193.5z" horiz-adv-x="1743" unicode="@"/><glyph d="M-121 0l783 1464h274l166 -1464h-234l-41 406h-485l-209 -406h-254zM446 614h365q-40 416 -45.5 503.5t-5.5 139.5q-55 -139 -142 -307z" horiz-adv-x="1210" unicode="A"/><glyph d="M70 0l309 1462h399q222 0 335.5 -84t113.5 -248q0 -146 -86.5 -243t-239.5 -127v-8q108 -28 167.5 -103.5t59.5 -183.5q0 -217 -150 -341t-417 -124h-491zM348 201h223q147 0 230.5 68t83.5 194q0 98 -60 149.5t-176 51.5h-200zM489 858h199q139 0 215 60.5t76 171.5 q0 172 -223 172h-181z" horiz-adv-x="1247" unicode="B"/><glyph d="M135 545q0 260 105.5 483t281.5 339t402 116q217 0 389 -92l-94 -195q-63 34 -134 58t-161 24q-154 0 -275 -89t-193.5 -259.5t-72.5 -374.5q0 -180 82.5 -275.5t243.5 -95.5q141 0 329 68v-205q-180 -67 -374 -67q-248 0 -388.5 148.5t-140.5 416.5z" horiz-adv-x="1225" unicode="C"/><glyph d="M70 0l309 1462h369q271 0 417 -145t146 -424q0 -271 -100 -473t-291 -311t-449 -109h-401zM348 201h135q177 0 309 86t202.5 242t70.5 356q0 184 -88 280.5t-256 96.5h-146z" horiz-adv-x="1374" unicode="D"/><glyph d="M70 0l309 1462h776l-43 -205h-539l-84 -395h502l-41 -203h-504l-96 -456h539l-43 -203h-776z" horiz-adv-x="1077" unicode="E"/><glyph d="M70 0l309 1462h774l-43 -205h-537l-96 -454h502l-45 -203h-500l-127 -600h-237z" horiz-adv-x="1026" unicode="F"/><glyph d="M135 539q0 264 102.5 483t290 340t426.5 121q111 0 213 -20.5t205 -69.5l-90 -203q-174 86 -334 86q-158 0 -287 -90.5t-203.5 -258t-74.5 -372.5q0 -183 89 -277t253 -94q109 0 215 33l80 371h-277l43 205h512l-157 -736q-112 -40 -218.5 -58.5t-238.5 -18.5 q-261 0 -405 146t-144 413z" horiz-adv-x="1399" unicode="G"/><glyph d="M70 0l309 1462h237l-127 -598h566l127 598h237l-309 -1462h-238l140 659h-566l-139 -659h-237z" horiz-adv-x="1411" unicode="H"/><glyph d="M70 0l311 1462h235l-311 -1462h-235z" horiz-adv-x="608" unicode="I"/><glyph d="M-322 -383l5 201q84 -21 153 -21q201 0 254 250l299 1415h238l-305 -1446q-46 -217 -161.5 -320.5t-312.5 -103.5q-104 0 -170 25z" horiz-adv-x="612" unicode="J"/><glyph d="M70 0l309 1462h237l-151 -706l141 166l492 540h284l-616 -669l321 -793h-262l-252 655l-149 -100l-117 -555h-237z" horiz-adv-x="1198" unicode="K"/><glyph d="M70 0l309 1462h237l-266 -1257h539l-43 -205h-776z" horiz-adv-x="1016" unicode="L"/><glyph d="M68 0l309 1462h323l109 -1149h6l606 1149h344l-305 -1462h-227l182 872q39 186 86 342h-6l-643 -1214h-205l-115 1214h-6q-9 -118 -55 -340l-184 -874h-219z" horiz-adv-x="1757" unicode="M"/><glyph d="M68 0l309 1462h268l399 -1149h7q6 54 31 192.5t40 203.5l160 753h219l-309 -1462h-260l-410 1163h-6l-10 -69q-24 -149 -35.5 -212.5t-183.5 -881.5h-219z" horiz-adv-x="1491" unicode="N"/><glyph d="M135 543q0 267 98.5 487.5t269.5 337.5t388 117q251 0 390.5 -149t139.5 -414q0 -279 -95 -497t-261.5 -331.5t-386.5 -113.5q-259 0 -401 149.5t-142 413.5zM383 545q0 -173 81.5 -267t227.5 -94q138 0 248.5 95.5t172 265t61.5 375.5q0 170 -79 265t-223 95 q-138 0 -250 -96t-175.5 -266.5t-63.5 -372.5z" horiz-adv-x="1485" unicode="O"/><glyph d="M70 0l309 1462h334q229 0 345 -100.5t116 -300.5q0 -248 -169.5 -381t-472.5 -133h-110l-115 -547h-237zM465 748h94q178 0 275.5 79.5t97.5 225.5q0 109 -58.5 159t-179.5 50h-119z" horiz-adv-x="1174" unicode="P"/><glyph d="M135 543q0 267 98.5 487.5t269.5 337.5t388 117q251 0 390.5 -149t139.5 -414q0 -322 -130 -563t-355 -332l264 -375h-289l-202 328h-31q-259 0 -401 149.5t-142 413.5zM383 545q0 -173 81.5 -267t227.5 -94q138 0 248.5 94t172 263.5t61.5 378.5q0 170 -79 265t-223 95 q-138 0 -250 -96t-175.5 -266.5t-63.5 -372.5z" horiz-adv-x="1485" unicode="Q"/><glyph d="M70 0l309 1462h338q223 0 342 -94.5t119 -290.5q0 -165 -86.5 -278.5t-257.5 -165.5l249 -633h-260l-207 584h-186l-123 -584h-237zM473 782h123q170 0 254 75t84 206q0 105 -59 151t-183 46h-119z" horiz-adv-x="1206" unicode="R"/><glyph d="M39 55v224q173 -97 350 -97q137 0 216 58.5t79 162.5q0 69 -41 122.5t-172 136.5q-105 67 -155 122t-76.5 120.5t-26.5 144.5q0 128 61.5 227t174 153t253.5 54q205 0 381 -92l-86 -191q-161 78 -295 78q-109 0 -175 -58.5t-66 -152.5q0 -47 15 -82.5t46.5 -66 t134.5 -95.5q155 -97 214 -187.5t59 -207.5q0 -210 -144.5 -329t-398.5 -119q-210 0 -348 75z" horiz-adv-x="1057" unicode="S"/><glyph d="M176 1257l45 205h998l-43 -205h-381l-267 -1257h-237l264 1257h-379z" horiz-adv-x="1053" unicode="T"/><glyph d="M152 391q0 83 20 170l193 901h237l-192 -905q-21 -88 -21 -158q0 -102 59.5 -158.5t180.5 -56.5q145 0 230 80.5t124 261.5l199 936h237l-202 -956q-56 -267 -208 -396.5t-403 -129.5q-217 0 -335.5 106t-118.5 305z" horiz-adv-x="1399" unicode="U"/><glyph d="M186 1462h232l74 -905q9 -103 11 -233l-1 -76h4q70 178 137 309l455 905h254l-764 -1462h-258z" horiz-adv-x="1165" unicode="V"/><glyph d="M203 1462h229l19 -850q0 -136 -13 -346h6q83 221 142 355l387 841h225l31 -839l3 -169l-3 -188h8q28 88 70 197.5t61 152.5l358 846h246l-655 -1462h-258l-37 842l-6 185l4 106h-6q-47 -144 -117 -291l-385 -842h-256z" horiz-adv-x="1788" unicode="W"/><glyph d="M-111 0l586 770l-250 692h246l178 -540l402 540h266l-551 -710l274 -752h-256l-192 592l-438 -592h-265z" horiz-adv-x="1151" unicode="X"/><glyph d="M186 1462h242l154 -669l432 669h266l-623 -913l-114 -549h-238l119 553z" horiz-adv-x="1092" unicode="Y"/><glyph d="M-39 0l33 168l850 1087h-598l43 207h897l-35 -172l-852 -1085h645l-43 -205h-940z" horiz-adv-x="1092" unicode="Z"/><glyph d="M-27 -324l381 1786h430l-39 -176h-221l-303 -1433h221l-39 -177h-430z" horiz-adv-x="631" unicode="["/><glyph d="M221 1462h207l219 -1462h-209z" horiz-adv-x="788" unicode="\"/><glyph d="M-143 -324l37 177h219l305 1433h-221l39 176h430l-381 -1786h-428z" horiz-adv-x="631" unicode="]"/><glyph d="M37 537l608 933h127l272 -933h-184l-188 690l-434 -690h-201z" horiz-adv-x="1069" unicode="^"/><glyph d="M-188 -324l30 140h817l-30 -140h-817z" horiz-adv-x="813" unicode="_"/><glyph d="M541 1548v21h245q47 -154 132 -303v-25h-144q-65 63 -132 151.5t-101 155.5z" horiz-adv-x="1135" unicode="`"/><glyph d="M94 367q0 202 69.5 378t191.5 278.5t268 102.5q97 0 167 -45.5t109 -132.5h10l62 158h180l-236 -1106h-182l21 176h-6q-158 -196 -349 -196q-141 0 -223 101.5t-82 285.5zM332 373q0 -102 40.5 -152.5t112.5 -50.5q82 0 161 77.5t130 207.5t51 284q0 88 -47 141.5 t-123 53.5q-85 0 -160 -77t-120 -209.5t-45 -274.5z" horiz-adv-x="1186" unicode="a"/><glyph d="M47 0l330 1556h235l-71 -333q-13 -63 -38 -156.5t-40 -140.5h8q90 113 165 156.5t161 43.5q145 0 226 -103.5t81 -285.5q0 -202 -69.5 -379.5t-190.5 -277.5t-266 -100q-98 0 -168.5 45t-110.5 131h-10l-64 -156h-178zM369 373q0 -96 46.5 -149.5t131.5 -53.5t159 78.5 t117 210t43 274.5q0 201 -155 201q-81 0 -162 -80t-130.5 -210.5t-49.5 -270.5z" horiz-adv-x="1200" unicode="b"/><glyph d="M94 389q0 207 73.5 376.5t206.5 265t302 95.5q164 0 297 -61l-70 -184q-122 53 -221 53q-150 0 -250 -153.5t-100 -379.5q0 -111 56 -171t155 -60q74 0 138.5 22t129.5 54v-195q-140 -71 -305 -71q-196 0 -304 106t-108 303z" horiz-adv-x="954" unicode="c"/><glyph d="M94 369q0 205 71.5 383t191.5 276t266 98q179 0 268 -178h8q13 146 37 250l76 358h233l-330 -1556h-184l19 176h-7q-88 -106 -170 -151t-174 -45q-143 0 -224 101.5t-81 287.5zM332 373q0 -203 157 -203q82 0 162.5 82t129 214t48.5 267q0 91 -43.5 146t-132.5 55 q-85 0 -159 -77t-118 -211t-44 -273z" horiz-adv-x="1198" unicode="d"/><glyph d="M94 401q0 198 77.5 368.5t210 263.5t296.5 93q161 0 250.5 -72.5t89.5 -205.5q0 -182 -166.5 -284.5t-474.5 -102.5h-43l-2 -31v-29q0 -111 56.5 -174t168.5 -63q72 0 143 19t168 65v-187q-96 -44 -176.5 -62.5t-179.5 -18.5q-197 0 -307.5 111t-110.5 310zM362 633h29 q188 0 294 53.5t106 151.5q0 51 -32 79.5t-95 28.5q-96 0 -180.5 -86t-121.5 -227z" horiz-adv-x="1075" unicode="e"/><glyph d="M-225 -279q64 -20 114 -20q134 0 177 205l217 1022h-179l21 106l194 76l21 92q44 198 134.5 281.5t256.5 83.5q115 0 211 -43l-61 -176q-74 28 -136 28q-69 0 -110.5 -43t-63.5 -141l-18 -86h229l-37 -178h-229l-223 -1053q-40 -189 -131 -278t-238 -89q-90 0 -149 23 v190z" horiz-adv-x="702" unicode="f"/><glyph d="M-121 -211q0 103 69.5 178t223.5 127q-76 45 -76 127q0 69 46.5 119.5t146.5 97.5q-135 81 -135 252q0 196 122.5 316t323.5 120q80 0 160 -20h383l-31 -137l-192 -33q28 -58 28 -137q0 -193 -119 -306.5t-319 -113.5q-52 0 -92 8q-111 -40 -111 -104q0 -38 31.5 -52 t91.5 -22l127 -16q176 -22 252 -87.5t76 -187.5q0 -196 -151 -303t-429 -107q-203 0 -314.5 75t-111.5 206zM92 -184q0 -65 55.5 -103.5t169.5 -38.5q163 0 255 54t92 155q0 51 -45 80t-158 41l-137 14q-112 -18 -172 -71t-60 -131zM377 680q0 -71 35.5 -109.5t101.5 -38.5 q65 0 112.5 39t74 107t26.5 149q0 142 -133 142q-65 0 -114 -38.5t-76 -105t-27 -145.5z" horiz-adv-x="1067" unicode="g"/><glyph d="M47 0l330 1556h235l-57 -262q-27 -126 -73 -293l-19 -75h8q84 106 168.5 153t177.5 47q136 0 208.5 -77.5t72.5 -221.5q0 -76 -23 -174l-139 -653h-234l142 672q18 90 18 127q0 135 -129 135q-112 0 -209.5 -125t-142.5 -342l-98 -467h-236z" horiz-adv-x="1208" unicode="h"/><glyph d="M47 0l236 1106h235l-235 -1106h-236zM330 1378q0 68 39 110t110 42q53 0 86 -26.5t33 -80.5q0 -71 -40 -112t-105 -41q-53 0 -88 26t-35 82z" horiz-adv-x="563" unicode="i"/><glyph d="M-262 -279q64 -20 117 -20q131 0 170 186l260 1219h233l-266 -1247q-38 -181 -127.5 -266t-237.5 -85q-90 0 -149 23v190zM332 1378q0 68 38 110t109 42q54 0 86.5 -26.5t32.5 -80.5q0 -71 -40 -112t-105 -41q-53 0 -87 25.5t-34 82.5z" horiz-adv-x="563" unicode="j"/><glyph d="M47 0l330 1556h235q-135 -627 -159.5 -729.5t-59.5 -226.5h4l490 506h272l-483 -485l291 -621h-262l-209 471l-136 -96l-77 -375h-236z" horiz-adv-x="1081" unicode="k"/><glyph d="M47 0l330 1556h235l-331 -1556h-234z" horiz-adv-x="563" unicode="l"/><glyph d="M47 0l236 1106h184l-21 -205h9q148 225 352 225q220 0 254 -235h8q75 116 170.5 175.5t198.5 59.5q133 0 202.5 -76.5t69.5 -215.5q0 -64 -22 -181l-140 -653h-235l143 672q19 95 19 133q0 129 -121 129q-108 0 -201.5 -124t-136.5 -329l-101 -481h-235l143 672 q17 82 17 127q0 135 -117 135q-110 0 -203.5 -127t-138.5 -338l-98 -469h-236z" horiz-adv-x="1819" unicode="m"/><glyph d="M47 0l236 1106h184l-21 -205h9q83 118 171 171.5t191 53.5q134 0 207.5 -76t73.5 -216q0 -69 -23 -181l-137 -653h-236l142 672q18 90 18 131q0 131 -129 131q-72 0 -142 -57t-126 -164.5t-84 -243.5l-98 -469h-236z" horiz-adv-x="1208" unicode="n"/><glyph d="M94 408q0 199 71.5 365t200.5 258.5t298 92.5q195 0 305 -116t110 -316q0 -202 -73 -367.5t-200.5 -254t-293.5 -88.5q-192 0 -305 114.5t-113 311.5zM332 403q0 -111 49.5 -170t146.5 -59q90 0 162 68t112 190.5t40 269.5q0 107 -49 167.5t-140 60.5q-93 0 -166.5 -71.5 t-114 -194t-40.5 -261.5z" horiz-adv-x="1174" unicode="o"/><glyph d="M-55 -492l338 1598h184l-21 -188h9q157 208 344 208q143 0 224 -103t81 -286q0 -204 -70 -381.5t-190.5 -276.5t-265.5 -99q-181 0 -269 176h-10q-7 -97 -25 -185l-96 -463h-233zM369 373q0 -96 46.5 -149.5t131.5 -53.5t159 78.5t117 210t43 274.5q0 201 -155 201 q-81 0 -161 -79.5t-130.5 -210.5t-50.5 -271z" horiz-adv-x="1200" unicode="p"/><glyph d="M94 367q0 208 73 387t192.5 275.5t265.5 96.5q183 0 274 -178h10l64 158h178l-340 -1598h-233l75 349q12 56 43.5 180t38.5 141h-8q-84 -108 -164 -153t-170 -45q-139 0 -219 102.5t-80 284.5zM332 373q0 -203 160 -203q80 0 159 81t127.5 213t48.5 269q0 94 -45.5 147.5 t-126.5 53.5q-86 0 -160 -77.5t-118.5 -209.5t-44.5 -274z" horiz-adv-x="1198" unicode="q"/><glyph d="M47 0l236 1106h184l-21 -205h9q83 120 166 172.5t176 52.5q62 0 108 -12l-51 -219q-54 14 -102 14q-126 0 -225 -113t-138 -296l-106 -500h-236z" horiz-adv-x="836" unicode="r"/><glyph d="M14 47v203q153 -90 312 -90q97 0 157 40t60 109q0 51 -34.5 87.5t-141.5 97.5q-125 67 -176.5 136.5t-51.5 164.5q0 155 107 243t289 88q196 0 346 -84l-76 -176q-140 76 -266 76q-73 0 -118.5 -33t-45.5 -92q0 -45 33 -80t135 -90q105 -59 149 -101t67 -91.5t23 -114.5 q0 -173 -118 -266.5t-328 -93.5q-190 0 -322 67z" horiz-adv-x="922" unicode="s"/><glyph d="M92 928l21 110l190 82l129 232h146l-52 -246h279l-39 -178h-277l-122 -572q-13 -55 -13 -92q0 -43 25 -68.5t76 -25.5q68 0 151 31v-178q-35 -17 -95 -30t-120 -13q-274 0 -274 247q0 57 16 131l121 570h-162z" horiz-adv-x="752" unicode="t"/><glyph d="M111 274q0 63 12 124.5t24 123.5l123 584h236l-129 -610q-31 -141 -31 -193q0 -133 127 -133q72 0 143 57t126 162.5t85 247.5l99 469h233l-233 -1106h-185l21 205h-8q-82 -116 -171 -170.5t-192 -54.5q-134 0 -207 76t-73 218z" horiz-adv-x="1208" unicode="u"/><glyph d="M100 1106h232l55 -598q14 -159 14 -297h7q28 74 70 165t65 132l311 598h250l-598 -1106h-275z" horiz-adv-x="997" unicode="v"/><glyph d="M121 1106h221l13 -646q-2 -87 -11 -245h6q66 176 109 272l278 619h254l19 -604l1 -53l-3 -234h6q17 50 57 158.5t63.5 163.5t251.5 569h244l-518 -1106h-268l-19 627l-1 70l3 200q-25 -62 -51.5 -125t-345.5 -772h-262z" horiz-adv-x="1540" unicode="w"/><glyph d="M-86 0l475 569l-231 537h245l144 -373l287 373h274l-461 -549l248 -557h-246l-160 387l-305 -387h-270z" horiz-adv-x="1032" unicode="x"/><glyph d="M-170 -285q75 -16 125 -16q74 0 134 43.5t124 155.5l51 92l-164 1116h232l63 -531q9 -62 16 -174.5t7 -181.5h6q86 215 135 313l293 574h254l-688 -1280q-90 -165 -196 -241.5t-249 -76.5q-76 0 -143 19v188z" horiz-adv-x="1004" unicode="y"/><glyph d="M-39 0l29 147l635 781h-439l39 178h705l-37 -170l-623 -758h486l-37 -178h-758z" horiz-adv-x="920" unicode="z"/><glyph d="M8 485l39 187q120 0 191.5 42.5t93.5 143.5l59 275q28 134 73 201.5t120 97.5t198 30h60l-41 -184q-96 0 -139.5 -34t-61.5 -116l-70 -309q-24 -108 -87 -170.5t-179 -79.5v-6q160 -45 160 -215q0 -38 -16 -121l-43 -194q-11 -48 -11 -74q0 -51 32.5 -74.5t109.5 -23.5 v-185h-39q-316 0 -316 236q0 61 17 133l45 201q14 65 14 98q0 141 -209 141z" horiz-adv-x="721" unicode="{"/><glyph d="M498 -481v2033h178v-2033h-178z" unicode="|"/><glyph d="M-88 -141q106 2 152.5 36.5t64.5 114.5l70 309q24 109 87 170t179 78v6q-158 48 -158 215q0 55 17 121l43 197q10 44 10 74q0 58 -43 78t-121 20l35 184h22q318 0 318 -235q0 -61 -17 -133l-45 -203q-14 -65 -14 -98q0 -142 209 -142l-39 -186q-121 0 -192 -42t-93 -142 l-63 -306q-34 -165 -123.5 -232t-269.5 -67h-29v183z" horiz-adv-x="721" unicode="}"/><glyph d="M111 571v191q100 108 249 108q64 0 118.5 -12t146.5 -51q70 -30 115 -42.5t94 -12.5q50 0 112.5 31t120.5 89v-190q-103 -111 -250 -111q-63 0 -124 16.5t-138 49.5q-76 32 -119.5 43.5t-91.5 11.5q-51 0 -112 -31t-121 -90z" unicode="~"/><glyph d="M-45 -373l266 1018h174l-166 -1018h-274zM221 936q0 82 49 132t127 50q65 0 95 -35.5t30 -89.5q0 -80 -47 -130t-127 -50q-59 0 -93 31.5t-34 91.5z" horiz-adv-x="557" unicode="¡"/><glyph d="M195 586q0 190 63.5 351t178 260.5t261.5 121.5l35 164h156l-37 -164q124 -12 221 -57l-69 -185q-125 53 -222 53q-99 0 -180 -71.5t-125.5 -194.5t-44.5 -266q0 -111 56 -171t155 -60q74 0 138.5 21.5t129.5 53.5v-194q-133 -69 -293 -74l-40 -194h-156l45 213 q-132 34 -202 134.5t-70 258.5z" unicode="¢"/><glyph d="M-18 0l38 193q200 45 250 276l35 164h-196l36 172h197l61 299q38 185 153 282t300 97q188 0 352 -86l-88 -183q-143 74 -258 74q-185 0 -227 -205l-57 -278h333l-34 -172h-336l-33 -152q-21 -98 -68.5 -165t-130.5 -109h690l-45 -207h-972z" unicode="£"/><glyph d="M141 1057l119 119l127 -127q102 61 207 61q108 0 207 -63l127 129l121 -117l-129 -129q61 -99 61 -207q0 -114 -61 -209l127 -125l-119 -119l-127 127q-95 -59 -207 -59q-120 0 -207 59l-127 -125l-117 119l127 125q-61 95 -61 207q0 110 61 205zM377 723 q0 -91 62.5 -154t154.5 -63q91 0 156 62t65 155t-65 156t-156 63q-92 0 -154.5 -64t-62.5 -155z" unicode="¤"/><glyph d="M106 244l33 155h273l30 148h-272l35 155h211l-199 760h232l145 -669l432 669h248l-518 -760h217l-35 -155h-274l-31 -148h274l-33 -155h-272l-53 -244h-221l51 244h-273z" unicode="¥"/><glyph d="M498 315h178v-796h-178v796zM498 758v794h178v-794h-178z" unicode="¦"/><glyph d="M39 53v187q152 -93 319 -93q116 0 174 40.5t58 111.5q0 43 -39 79.5t-141 84.5q-130 60 -189 131.5t-59 169.5q0 188 219 307q-47 32 -78 82t-31 115q0 138 111.5 220.5t296.5 82.5q178 0 332 -78l-68 -158q-62 29 -129.5 50.5t-144.5 21.5q-86 0 -134.5 -34.5 t-48.5 -94.5q0 -43 36.5 -76.5t148.5 -83.5q127 -56 186.5 -127.5t59.5 -167.5q0 -92 -52.5 -171t-160.5 -140q102 -76 102 -193q0 -157 -123 -245t-330 -88q-188 0 -315 67zM358 793q0 -61 46.5 -104.5t173.5 -100.5q62 36 99.5 90.5t37.5 114.5t-49.5 104.5t-155.5 89.5 q-69 -26 -110.5 -79t-41.5 -115z" horiz-adv-x="995" unicode="§"/><glyph d="M426 1380q0 60 35 98t98 38q48 0 76.5 -23.5t28.5 -71.5q0 -65 -35.5 -102t-93.5 -37q-47 0 -78 23.5t-31 74.5zM809 1380q0 60 35 98t98 38q48 0 76.5 -23.5t28.5 -71.5q0 -65 -35.5 -102t-93.5 -37q-47 0 -78 23.5t-31 74.5z" horiz-adv-x="1135" unicode="¨"/><glyph d="M131 731q0 200 100 375t275 276t377 101q199 0 373.5 -99t276 -275.5t101.5 -377.5q0 -199 -98.5 -373t-272.5 -276t-380 -102q-207 0 -382 103.5t-272.5 276.5t-97.5 371zM254 731q0 -168 83 -312.5t229 -230.5t317 -86q173 0 319.5 87t227.5 231.5t81 310.5 q0 165 -82 310.5t-227.5 232t-318.5 86.5q-168 0 -314.5 -84.5t-230.5 -231t-84 -313.5zM502 727q0 216 113.5 340.5t312.5 124.5q138 0 266 -66l-68 -147q-106 55 -196 55q-113 0 -175.5 -76t-62.5 -231q0 -301 238 -301q47 0 112 16t109 35v-158q-117 -51 -240 -51 q-197 0 -303 123.5t-106 335.5z" horiz-adv-x="1704" unicode="©"/><glyph d="M160 1016q0 128 47 238.5t122.5 167.5t168.5 57q113 0 166 -103h6l39 90h118l-147 -684h-123l10 105h-4q-50 -62 -98 -89.5t-109 -27.5q-91 0 -143.5 66t-52.5 180zM319 1022q0 -125 93 -125q50 0 97.5 48t77 127.5t29.5 158.5q0 119 -102 119q-82 0 -138.5 -97.5 t-56.5 -230.5z" horiz-adv-x="729" unicode="ª"/><glyph d="M80 553v22l395 420l135 -118l-288 -332l153 -369l-178 -76zM520 530v25l385 434l137 -112l-280 -351l147 -350l-180 -76z" horiz-adv-x="1055" unicode="«"/><glyph d="M117 631v180h936v-555h-179v375h-757z" unicode="¬"/><glyph d="M47 446l45 203h502l-45 -203h-502z" horiz-adv-x="649" unicode="­"/><glyph d="M131 731q0 200 100 375t275 276t377 101q199 0 373.5 -99t276 -275.5t101.5 -377.5q0 -199 -98.5 -373t-272.5 -276t-380 -102q-207 0 -382 103.5t-272.5 276.5t-97.5 371zM254 731q0 -168 83 -312.5t229 -230.5t317 -86q173 0 319.5 87t227.5 231.5t81 310.5 q0 165 -82 310.5t-227.5 232t-318.5 86.5q-168 0 -314.5 -84.5t-230.5 -231t-84 -313.5zM608 291v878h269q337 0 337 -262q0 -83 -45.5 -145t-130.5 -98l211 -373h-200l-172 325h-91v-325h-178zM786 760h72q84 0 129 36t45 99q0 73 -45.5 101t-128.5 28h-72v-264z" horiz-adv-x="1704" unicode="®"/><glyph d="M111 1556l39 166h911l-41 -166h-909z" horiz-adv-x="903" unicode="¯"/><glyph d="M188 1153q0 136 97 233t233 97t232 -97t96 -233q0 -137 -96 -231.5t-232 -94.5q-88 0 -165 44t-121 119t-44 163zM340 1153q0 -70 52 -122t126 -52q72 0 124 52t52 122q0 74 -51.5 126t-124.5 52q-74 0 -126 -51.5t-52 -126.5z" horiz-adv-x="877" unicode="°"/><glyph d="M117 0v180h936v-180h-936zM117 657v181h379v381h180v-381h377v-181h-377v-374h-180v374h-379z" unicode="±"/><glyph d="M78 586l28 135l269 223q111 95 148.5 136t55 77t17.5 74q0 46 -28 72t-76 26q-91 0 -191 -80l-80 123q68 54 142.5 81.5t168.5 27.5q115 0 183.5 -60t68.5 -155q0 -69 -23.5 -124.5t-74 -110.5t-168.5 -146l-174 -142h371l-33 -157h-604z" horiz-adv-x="745" unicode="²"/><glyph d="M104 625v159q126 -71 248 -71q90 0 139.5 37t49.5 106q0 113 -146 113h-108l28 133h93q89 0 142.5 34t53.5 99q0 100 -117 100q-92 0 -188 -65l-68 121q126 90 291 90q124 0 193 -55.5t69 -153.5q0 -90 -54.5 -149t-158.5 -85v-4q78 -18 115 -67t37 -115 q0 -129 -99.5 -206t-269.5 -77q-138 0 -250 56z" horiz-adv-x="745" unicode="³"/><glyph d="M508 1241v25q97 108 225 303h264v-19q-54 -66 -158 -161.5t-175 -147.5h-156z" horiz-adv-x="1135" unicode="´"/><glyph d="M-55 -492l338 1598h235l-141 -670q-19 -84 -19 -129q0 -65 33 -101t96 -36q113 0 209.5 125.5t141.5 337.5l102 473h231l-235 -1106h-184l22 190h-10q-75 -111 -153 -160.5t-165 -49.5q-108 0 -155 81h-8q-9 -73 -39 -235l-66 -318h-233z" horiz-adv-x="1221" unicode="µ"/><glyph d="M172 1042q0 260 109 387t342 127h581v-1816h-139v1638h-188v-1638h-140v819q-62 -18 -145 -18q-216 0 -318 125t-102 376z" horiz-adv-x="1341" unicode="¶"/><glyph d="M150 692q0 83 47 132.5t131 49.5q56 0 89.5 -31.5t33.5 -92.5q0 -78 -47.5 -129.5t-124.5 -51.5q-66 0 -97.5 35.5t-31.5 87.5z" horiz-adv-x="551" unicode="·"/><glyph d="M-188 -342q47 -14 96 -14q137 0 137 96q0 40 -35 61.5t-104 30.5l98 168h146l-50 -96q72 -25 104 -67t32 -101q0 -106 -82 -167t-224 -61q-64 0 -118 15v135z" horiz-adv-x="420" unicode="¸"/><glyph d="M193 1247l339 215h162l-186 -876h-191l99 461q17 79 57 217q-21 -20 -49.5 -43t-153.5 -103z" horiz-adv-x="745" unicode="¹"/><glyph d="M164 1047q0 122 44 221.5t125.5 155t188.5 55.5q124 0 189 -71.5t65 -201.5q0 -126 -42 -225t-121 -155t-189 -56q-122 0 -191 73t-69 204zM326 1042q0 -141 112 -141q77 0 127.5 87.5t50.5 219.5q0 138 -106 138q-81 0 -132.5 -87.5t-51.5 -216.5z" horiz-adv-x="721" unicode="º"/><glyph d="M10 211l281 348l-146 352l179 76l211 -432v-25l-385 -432zM444 211l287 330l-153 370l180 76l217 -455v-22l-397 -418z" horiz-adv-x="1055" unicode="»"/><glyph d="M149 0l1085 1462h195l-1083 -1462h-197zM151 1247l339 215h162l-186 -876h-191l99 461q17 79 57 217q-21 -20 -49.5 -43t-153.5 -103zM775 177l26 137l477 569h197l-121 -563h123l-29 -143h-122l-39 -176h-183l39 176h-368zM973 320h199l52 221l34 129q-32 -51 -98 -131z" horiz-adv-x="1661" unicode="¼"/><glyph d="M121 0l1085 1462h195l-1083 -1462h-197zM122 1247l339 215h162l-186 -876h-191l99 461q17 79 57 217q-21 -20 -49.5 -43t-153.5 -103zM860 1l28 135l269 223q111 95 148.5 136t55 77t17.5 74q0 46 -28 72t-76 26q-91 0 -191 -80l-80 123q68 54 142.5 81.5t168.5 27.5 q115 0 183.5 -60t68.5 -155q0 -69 -23.5 -124.5t-74 -110.5t-168.5 -146l-174 -142h371l-33 -157h-604z" horiz-adv-x="1661" unicode="½"/><glyph d="M291 0l1085 1462h195l-1083 -1462h-197zM881 177l26 137l477 569h197l-121 -563h123l-29 -143h-122l-39 -176h-183l39 176h-368zM1079 320h199l52 221l34 129q-32 -51 -98 -131zM108 625v159q126 -71 248 -71q90 0 139.5 37t49.5 106q0 113 -146 113h-108l28 133h93 q89 0 142.5 34t53.5 99q0 100 -117 100q-92 0 -188 -65l-68 121q126 90 291 90q124 0 193 -55.5t69 -153.5q0 -90 -54.5 -149t-158.5 -85v-4q78 -18 115 -67t37 -115q0 -129 -99.5 -206t-269.5 -77q-138 0 -250 56z" horiz-adv-x="1683" unicode="¾"/><glyph d="M-35 -68q0 120 64 219t231 216q93 64 141 122.5t70 153.5h197q-25 -146 -79.5 -231t-170.5 -168q-107 -79 -145.5 -118t-57 -79t-18.5 -88q0 -71 42 -114.5t123 -43.5q76 0 149.5 27.5t152.5 65.5l75 -177q-205 -112 -409 -112q-174 0 -269.5 85.5t-95.5 241.5zM465 934 q0 78 46.5 129t125.5 51q66 0 97.5 -34t31.5 -87q0 -85 -48 -134.5t-130 -49.5q-56 0 -89.5 32.5t-33.5 92.5z" horiz-adv-x="907" unicode="¿"/><glyph d="M-121 0l783 1464h274l166 -1464h-234l-41 406h-485l-209 -406h-254zM446 614h365q-40 416 -45.5 503.5t-5.5 139.5q-55 -139 -142 -307zM538 1886v21h245q47 -154 132 -303v-25h-144q-65 63 -132 151.5t-101 155.5z" horiz-adv-x="1210" unicode="À"/><glyph d="M-121 0l783 1464h274l166 -1464h-234l-41 406h-485l-209 -406h-254zM446 614h365q-40 416 -45.5 503.5t-5.5 139.5q-55 -139 -142 -307zM707 1579v25q97 108 225 303h264v-19q-54 -66 -158 -161.5t-175 -147.5h-156z" horiz-adv-x="1210" unicode="Á"/><glyph d="M-121 0l783 1464h274l166 -1464h-234l-41 406h-485l-209 -406h-254zM446 614h365q-40 416 -45.5 503.5t-5.5 139.5q-55 -139 -142 -307zM444 1579v25q138 128 201 195.5t90 107.5h248q38 -99 174 -303v-25h-152q-76 63 -161 178q-131 -110 -236 -178h-164z" horiz-adv-x="1210" unicode="Â"/><glyph d="M-121 0l783 1464h274l166 -1464h-234l-41 406h-485l-209 -406h-254zM446 614h365q-40 416 -45.5 503.5t-5.5 139.5q-55 -139 -142 -307zM441 1577q57 285 256 285q46 0 85 -17.5t72.5 -38t63.5 -38t59 -17.5q40 0 65 26.5t48 86.5h137q-66 -285 -260 -285q-45 0 -82.5 17 t-71.5 37.5t-65.5 37.5t-63.5 17q-38 0 -63 -27.5t-43 -83.5h-137z" horiz-adv-x="1210" unicode="Ã"/><glyph d="M-121 0l783 1464h274l166 -1464h-234l-41 406h-485l-209 -406h-254zM446 614h365q-40 416 -45.5 503.5t-5.5 139.5q-55 -139 -142 -307zM518 1718q0 60 35 98t98 38q48 0 76.5 -23.5t28.5 -71.5q0 -65 -35.5 -102t-93.5 -37q-47 0 -78 23.5t-31 74.5zM901 1718 q0 60 35 98t98 38q48 0 76.5 -23.5t28.5 -71.5q0 -65 -35.5 -102t-93.5 -37q-47 0 -78 23.5t-31 74.5z" horiz-adv-x="1210" unicode="Ä"/><glyph d="M-121 0l783 1464h274l166 -1464h-234l-41 406h-485l-209 -406h-254zM446 614h365q-40 416 -45.5 503.5t-5.5 139.5q-55 -139 -142 -307zM568 1573q0 103 65 164.5t168 61.5q104 0 171 -60.5t67 -163.5q0 -104 -66 -165.5t-172 -61.5t-169.5 61t-63.5 164zM697 1573 q0 -49 26.5 -76.5t77.5 -27.5q47 0 77 27.5t30 76.5q0 50 -30 78.5t-77 28.5q-45 0 -74.5 -28.5t-29.5 -78.5z" horiz-adv-x="1210" unicode="Å"/><glyph d="M-121 0l930 1462h1020l-43 -205h-539l-84 -395h504l-43 -200h-502l-98 -459h539l-43 -203h-777l86 406h-432l-256 -406h-262zM528 614h344l138 643h-82z" horiz-adv-x="1753" unicode="Æ"/><glyph d="M135 545q0 260 105.5 483t281.5 339t402 116q217 0 389 -92l-94 -195q-63 34 -134 58t-161 24q-154 0 -275 -89t-193.5 -259.5t-72.5 -374.5q0 -180 82.5 -275.5t243.5 -95.5q141 0 329 68v-205q-180 -67 -374 -67q-248 0 -388.5 148.5t-140.5 416.5zM367 -342 q47 -14 96 -14q137 0 137 96q0 40 -35 61.5t-104 30.5l98 168h146l-50 -96q72 -25 104 -67t32 -101q0 -106 -82 -167t-224 -61q-64 0 -118 15v135z" horiz-adv-x="1225" unicode="Ç"/><glyph d="M70 0l309 1462h776l-43 -205h-539l-84 -395h502l-41 -203h-504l-96 -456h539l-43 -203h-776zM526 1886v21h245q47 -154 132 -303v-25h-144q-65 63 -132 151.5t-101 155.5z" horiz-adv-x="1077" unicode="È"/><glyph d="M70 0l309 1462h776l-43 -205h-539l-84 -395h502l-41 -203h-504l-96 -456h539l-43 -203h-776zM633 1579v25q97 108 225 303h264v-19q-54 -66 -158 -161.5t-175 -147.5h-156z" horiz-adv-x="1077" unicode="É"/><glyph d="M70 0l309 1462h776l-43 -205h-539l-84 -395h502l-41 -203h-504l-96 -456h539l-43 -203h-776zM417 1579v25q138 128 201 195.5t90 107.5h248q38 -99 174 -303v-25h-152q-76 63 -161 178q-131 -110 -236 -178h-164z" horiz-adv-x="1077" unicode="Ê"/><glyph d="M70 0l309 1462h776l-43 -205h-539l-84 -395h502l-41 -203h-504l-96 -456h539l-43 -203h-776zM479 1718q0 60 35 98t98 38q48 0 76.5 -23.5t28.5 -71.5q0 -65 -35.5 -102t-93.5 -37q-47 0 -78 23.5t-31 74.5zM862 1718q0 60 35 98t98 38q48 0 76.5 -23.5t28.5 -71.5 q0 -65 -35.5 -102t-93.5 -37q-47 0 -78 23.5t-31 74.5z" horiz-adv-x="1077" unicode="Ë"/><glyph d="M70 0l311 1462h235l-311 -1462h-235zM253 1886v21h245q47 -154 132 -303v-25h-144q-65 63 -132 151.5t-101 155.5z" horiz-adv-x="608" unicode="Ì"/><glyph d="M70 0l311 1462h235l-311 -1462h-235zM415 1579v25q97 108 225 303h264v-19q-54 -66 -158 -161.5t-175 -147.5h-156z" horiz-adv-x="608" unicode="Í"/><glyph d="M70 0l311 1462h235l-311 -1462h-235zM160 1579v25q138 128 201 195.5t90 107.5h248q38 -99 174 -303v-25h-152q-76 63 -161 178q-131 -110 -236 -178h-164z" horiz-adv-x="608" unicode="Î"/><glyph d="M70 0l311 1462h235l-311 -1462h-235zM243 1718q0 60 35 98t98 38q48 0 76.5 -23.5t28.5 -71.5q0 -65 -35.5 -102t-93.5 -37q-47 0 -78 23.5t-31 74.5zM626 1718q0 60 35 98t98 38q48 0 76.5 -23.5t28.5 -71.5q0 -65 -35.5 -102t-93.5 -37q-47 0 -78 23.5t-31 74.5z" horiz-adv-x="608" unicode="Ï"/><glyph d="M53 623l45 200h144l137 639h369q271 0 417 -145t146 -424q0 -271 -100 -473t-291 -311t-449 -109h-401l129 623h-146zM348 201h135q177 0 309 86t202.5 242t70.5 356q0 184 -88 280.5t-256 96.5h-146l-94 -439h285l-45 -200h-283z" horiz-adv-x="1374" unicode="Ð"/><glyph d="M68 0l309 1462h268l399 -1149h7q6 54 31 192.5t40 203.5l160 753h219l-309 -1462h-260l-410 1163h-6l-10 -69q-24 -149 -35.5 -212.5t-183.5 -881.5h-219zM582 1577q57 285 256 285q46 0 85 -17.5t72.5 -38t63.5 -38t59 -17.5q40 0 65 26.5t48 86.5h137 q-66 -285 -260 -285q-45 0 -82.5 17t-71.5 37.5t-65.5 37.5t-63.5 17q-38 0 -63 -27.5t-43 -83.5h-137z" horiz-adv-x="1491" unicode="Ñ"/><glyph d="M135 543q0 267 98.5 487.5t269.5 337.5t388 117q251 0 390.5 -149t139.5 -414q0 -279 -95 -497t-261.5 -331.5t-386.5 -113.5q-259 0 -401 149.5t-142 413.5zM383 545q0 -173 81.5 -267t227.5 -94q138 0 248.5 95.5t172 265t61.5 375.5q0 170 -79 265t-223 95 q-138 0 -250 -96t-175.5 -266.5t-63.5 -372.5zM652 1886v21h245q47 -154 132 -303v-25h-144q-65 63 -132 151.5t-101 155.5z" horiz-adv-x="1485" unicode="Ò"/><glyph d="M135 543q0 267 98.5 487.5t269.5 337.5t388 117q251 0 390.5 -149t139.5 -414q0 -279 -95 -497t-261.5 -331.5t-386.5 -113.5q-259 0 -401 149.5t-142 413.5zM383 545q0 -173 81.5 -267t227.5 -94q138 0 248.5 95.5t172 265t61.5 375.5q0 170 -79 265t-223 95 q-138 0 -250 -96t-175.5 -266.5t-63.5 -372.5zM787 1579v25q97 108 225 303h264v-19q-54 -66 -158 -161.5t-175 -147.5h-156z" horiz-adv-x="1485" unicode="Ó"/><glyph d="M135 543q0 267 98.5 487.5t269.5 337.5t388 117q251 0 390.5 -149t139.5 -414q0 -279 -95 -497t-261.5 -331.5t-386.5 -113.5q-259 0 -401 149.5t-142 413.5zM383 545q0 -173 81.5 -267t227.5 -94q138 0 248.5 95.5t172 265t61.5 375.5q0 170 -79 265t-223 95 q-138 0 -250 -96t-175.5 -266.5t-63.5 -372.5zM555 1579v25q138 128 201 195.5t90 107.5h248q38 -99 174 -303v-25h-152q-76 63 -161 178q-131 -110 -236 -178h-164z" horiz-adv-x="1485" unicode="Ô"/><glyph d="M135 543q0 267 98.5 487.5t269.5 337.5t388 117q251 0 390.5 -149t139.5 -414q0 -279 -95 -497t-261.5 -331.5t-386.5 -113.5q-259 0 -401 149.5t-142 413.5zM383 545q0 -173 81.5 -267t227.5 -94q138 0 248.5 95.5t172 265t61.5 375.5q0 170 -79 265t-223 95 q-138 0 -250 -96t-175.5 -266.5t-63.5 -372.5zM543 1577q57 285 256 285q46 0 85 -17.5t72.5 -38t63.5 -38t59 -17.5q40 0 65 26.5t48 86.5h137q-66 -285 -260 -285q-45 0 -82.5 17t-71.5 37.5t-65.5 37.5t-63.5 17q-38 0 -63 -27.5t-43 -83.5h-137z" horiz-adv-x="1485" unicode="Õ"/><glyph d="M135 543q0 267 98.5 487.5t269.5 337.5t388 117q251 0 390.5 -149t139.5 -414q0 -279 -95 -497t-261.5 -331.5t-386.5 -113.5q-259 0 -401 149.5t-142 413.5zM383 545q0 -173 81.5 -267t227.5 -94q138 0 248.5 95.5t172 265t61.5 375.5q0 170 -79 265t-223 95 q-138 0 -250 -96t-175.5 -266.5t-63.5 -372.5zM623 1718q0 60 35 98t98 38q48 0 76.5 -23.5t28.5 -71.5q0 -65 -35.5 -102t-93.5 -37q-47 0 -78 23.5t-31 74.5zM1006 1718q0 60 35 98t98 38q48 0 76.5 -23.5t28.5 -71.5q0 -65 -35.5 -102t-93.5 -37q-47 0 -78 23.5t-31 74.5 z" horiz-adv-x="1485" unicode="Ö"/><glyph d="M147 1034l125 125l312 -309l313 309l127 -123l-315 -313l311 -313l-123 -123l-313 309l-312 -307l-122 123l307 311z" unicode="×"/><glyph d="M109 18l129 160q-103 138 -103 365q0 267 98.5 487.5t269.5 337.5t388 117q189 0 317 -94l119 149l133 -104l-133 -166q94 -130 94 -348q0 -279 -95 -497t-261.5 -331.5t-386.5 -113.5q-193 0 -318 83l-118 -149zM377 545q0 -88 24 -164l668 836q-80 65 -197 65 q-141 0 -253 -93t-177 -265t-65 -379zM500 238q75 -56 194 -56q139 0 250.5 95.5t173.5 264.5t62 378q0 88 -19 143z" horiz-adv-x="1485" unicode="Ø"/><glyph d="M152 391q0 83 20 170l193 901h237l-192 -905q-21 -88 -21 -158q0 -102 59.5 -158.5t180.5 -56.5q145 0 230 80.5t124 261.5l199 936h237l-202 -956q-56 -267 -208 -396.5t-403 -129.5q-217 0 -335.5 106t-118.5 305zM619 1886v21h245q47 -154 132 -303v-25h-144 q-65 63 -132 151.5t-101 155.5z" horiz-adv-x="1399" unicode="Ù"/><glyph d="M152 391q0 83 20 170l193 901h237l-192 -905q-21 -88 -21 -158q0 -102 59.5 -158.5t180.5 -56.5q145 0 230 80.5t124 261.5l199 936h237l-202 -956q-56 -267 -208 -396.5t-403 -129.5q-217 0 -335.5 106t-118.5 305zM791 1579v25q97 108 225 303h264v-19 q-54 -66 -158 -161.5t-175 -147.5h-156z" horiz-adv-x="1399" unicode="Ú"/><glyph d="M152 391q0 83 20 170l193 901h237l-192 -905q-21 -88 -21 -158q0 -102 59.5 -158.5t180.5 -56.5q145 0 230 80.5t124 261.5l199 936h237l-202 -956q-56 -267 -208 -396.5t-403 -129.5q-217 0 -335.5 106t-118.5 305zM536 1579v25q138 128 201 195.5t90 107.5h248 q38 -99 174 -303v-25h-152q-76 63 -161 178q-131 -110 -236 -178h-164z" horiz-adv-x="1399" unicode="Û"/><glyph d="M152 391q0 83 20 170l193 901h237l-192 -905q-21 -88 -21 -158q0 -102 59.5 -158.5t180.5 -56.5q145 0 230 80.5t124 261.5l199 936h237l-202 -956q-56 -267 -208 -396.5t-403 -129.5q-217 0 -335.5 106t-118.5 305zM602 1718q0 60 35 98t98 38q48 0 76.5 -23.5 t28.5 -71.5q0 -65 -35.5 -102t-93.5 -37q-47 0 -78 23.5t-31 74.5zM985 1718q0 60 35 98t98 38q48 0 76.5 -23.5t28.5 -71.5q0 -65 -35.5 -102t-93.5 -37q-47 0 -78 23.5t-31 74.5z" horiz-adv-x="1399" unicode="Ü"/><glyph d="M186 1462h242l154 -669l432 669h266l-623 -913l-114 -549h-238l119 553zM610 1579v25q97 108 225 303h264v-19q-54 -66 -158 -161.5t-175 -147.5h-156z" horiz-adv-x="1092" unicode="Ý"/><glyph d="M70 0l309 1462h237l-51 -243h97q227 0 344.5 -101t117.5 -301q0 -243 -166.5 -377.5t-476.5 -134.5h-108l-66 -305h-237zM414 506h96q176 0 274.5 78.5t98.5 226.5q0 109 -59.5 158t-180.5 49h-121z" horiz-adv-x="1174" unicode="Þ"/><glyph d="M-258 -276q61 -21 113 -21q65 0 106.5 43.5t63.5 147.5l262 1234q48 231 173 333t349 102q188 0 292.5 -80t104.5 -215q0 -169 -179 -299q-118 -87 -148.5 -119.5t-30.5 -67.5q0 -44 74 -101q107 -84 143 -127t55 -92.5t19 -109.5q0 -172 -116 -272t-314 -100 q-182 0 -283 65v201q126 -86 252 -86q105 0 164 44t59 124q0 48 -23.5 85t-111.5 107q-82 64 -121 121.5t-39 126.5q0 75 44.5 139t135.5 124q98 66 138.5 112t40.5 98q0 65 -47 101t-132 36q-210 0 -262 -239l-264 -1260q-42 -197 -134.5 -284t-242.5 -87q-69 0 -141 23 v193z" horiz-adv-x="1266" unicode="ß"/><glyph d="M94 367q0 202 69.5 378t191.5 278.5t268 102.5q97 0 167 -45.5t109 -132.5h10l62 158h180l-236 -1106h-182l21 176h-6q-158 -196 -349 -196q-141 0 -223 101.5t-82 285.5zM332 373q0 -102 40.5 -152.5t112.5 -50.5q82 0 161 77.5t130 207.5t51 284q0 88 -47 141.5 t-123 53.5q-85 0 -160 -77t-120 -209.5t-45 -274.5zM470 1548v21h245q47 -154 132 -303v-25h-144q-65 63 -132 151.5t-101 155.5z" horiz-adv-x="1186" unicode="à"/><glyph d="M94 367q0 202 69.5 378t191.5 278.5t268 102.5q97 0 167 -45.5t109 -132.5h10l62 158h180l-236 -1106h-182l21 176h-6q-158 -196 -349 -196q-141 0 -223 101.5t-82 285.5zM332 373q0 -102 40.5 -152.5t112.5 -50.5q82 0 161 77.5t130 207.5t51 284q0 88 -47 141.5 t-123 53.5q-85 0 -160 -77t-120 -209.5t-45 -274.5zM598 1241v25q97 108 225 303h264v-19q-54 -66 -158 -161.5t-175 -147.5h-156z" horiz-adv-x="1186" unicode="á"/><glyph d="M94 367q0 202 69.5 378t191.5 278.5t268 102.5q97 0 167 -45.5t109 -132.5h10l62 158h180l-236 -1106h-182l21 176h-6q-158 -196 -349 -196q-141 0 -223 101.5t-82 285.5zM332 373q0 -102 40.5 -152.5t112.5 -50.5q82 0 161 77.5t130 207.5t51 284q0 88 -47 141.5 t-123 53.5q-85 0 -160 -77t-120 -209.5t-45 -274.5zM351 1241v25q138 128 201 195.5t90 107.5h248q38 -99 174 -303v-25h-152q-76 63 -161 178q-131 -110 -236 -178h-164z" horiz-adv-x="1186" unicode="â"/><glyph d="M94 367q0 202 69.5 378t191.5 278.5t268 102.5q97 0 167 -45.5t109 -132.5h10l62 158h180l-236 -1106h-182l21 176h-6q-158 -196 -349 -196q-141 0 -223 101.5t-82 285.5zM332 373q0 -102 40.5 -152.5t112.5 -50.5q82 0 161 77.5t130 207.5t51 284q0 88 -47 141.5 t-123 53.5q-85 0 -160 -77t-120 -209.5t-45 -274.5zM344 1239q57 285 256 285q46 0 85 -17.5t72.5 -38t63.5 -38t59 -17.5q40 0 65 26.5t48 86.5h137q-66 -285 -260 -285q-45 0 -82.5 17t-71.5 37.5t-65.5 37.5t-63.5 17q-38 0 -63 -27.5t-43 -83.5h-137z" horiz-adv-x="1186" unicode="ã"/><glyph d="M94 367q0 202 69.5 378t191.5 278.5t268 102.5q97 0 167 -45.5t109 -132.5h10l62 158h180l-236 -1106h-182l21 176h-6q-158 -196 -349 -196q-141 0 -223 101.5t-82 285.5zM332 373q0 -102 40.5 -152.5t112.5 -50.5q82 0 161 77.5t130 207.5t51 284q0 88 -47 141.5 t-123 53.5q-85 0 -160 -77t-120 -209.5t-45 -274.5zM425 1380q0 60 35 98t98 38q48 0 76.5 -23.5t28.5 -71.5q0 -65 -35.5 -102t-93.5 -37q-47 0 -78 23.5t-31 74.5zM808 1380q0 60 35 98t98 38q48 0 76.5 -23.5t28.5 -71.5q0 -65 -35.5 -102t-93.5 -37q-47 0 -78 23.5 t-31 74.5z" horiz-adv-x="1186" unicode="ä"/><glyph d="M94 367q0 202 69.5 378t191.5 278.5t268 102.5q97 0 167 -45.5t109 -132.5h10l62 158h180l-236 -1106h-182l21 176h-6q-158 -196 -349 -196q-141 0 -223 101.5t-82 285.5zM332 373q0 -102 40.5 -152.5t112.5 -50.5q82 0 161 77.5t130 207.5t51 284q0 88 -47 141.5 t-123 53.5q-85 0 -160 -77t-120 -209.5t-45 -274.5zM517 1464q0 103 65 164.5t168 61.5q104 0 171 -60.5t67 -163.5q0 -104 -66 -165.5t-172 -61.5t-169.5 61t-63.5 164zM646 1464q0 -49 26.5 -76.5t77.5 -27.5q47 0 77 27.5t30 76.5q0 50 -30 78.5t-77 28.5 q-45 0 -74.5 -28.5t-29.5 -78.5z" horiz-adv-x="1186" unicode="å"/><glyph d="M94 367q0 201 69 378t188.5 279t260.5 102q88 0 152 -43.5t108 -134.5h9l63 158h148l-25 -117q51 63 131 100t180 37q140 0 220.5 -76.5t80.5 -201.5q0 -182 -166.5 -284.5t-474.5 -102.5h-45l-4 -60q0 -117 60.5 -177t175.5 -60q125 0 305 84v-189q-175 -79 -344 -79 q-222 0 -305 137l-23 -117h-151l20 176h-8q-85 -106 -165.5 -151t-174.5 -45q-134 0 -209.5 103t-75.5 284zM332 373q0 -105 37 -154t96 -49q85 0 162.5 80.5t125.5 215.5t48 267q0 91 -38.5 146t-113.5 55q-85 0 -159.5 -80t-116 -211t-41.5 -270zM1022 633h31 q187 0 293 53.5t106 149.5q0 58 -34 84t-85 26q-103 0 -188.5 -86t-122.5 -227z" horiz-adv-x="1726" unicode="æ"/><glyph d="M94 389q0 207 73.5 376.5t206.5 265t302 95.5q164 0 297 -61l-70 -184q-122 53 -221 53q-150 0 -250 -153.5t-100 -379.5q0 -111 56 -171t155 -60q74 0 138.5 22t129.5 54v-195q-140 -71 -305 -71q-196 0 -304 106t-108 303zM197 -342q47 -14 96 -14q137 0 137 96 q0 40 -35 61.5t-104 30.5l98 168h146l-50 -96q72 -25 104 -67t32 -101q0 -106 -82 -167t-224 -61q-64 0 -118 15v135z" horiz-adv-x="954" unicode="ç"/><glyph d="M94 401q0 198 77.5 368.5t210 263.5t296.5 93q161 0 250.5 -72.5t89.5 -205.5q0 -182 -166.5 -284.5t-474.5 -102.5h-43l-2 -31v-29q0 -111 56.5 -174t168.5 -63q72 0 143 19t168 65v-187q-96 -44 -176.5 -62.5t-179.5 -18.5q-197 0 -307.5 111t-110.5 310zM362 633h29 q188 0 294 53.5t106 151.5q0 51 -32 79.5t-95 28.5q-96 0 -180.5 -86t-121.5 -227zM436 1548v21h245q47 -154 132 -303v-25h-144q-65 63 -132 151.5t-101 155.5z" horiz-adv-x="1075" unicode="è"/><glyph d="M94 401q0 198 77.5 368.5t210 263.5t296.5 93q161 0 250.5 -72.5t89.5 -205.5q0 -182 -166.5 -284.5t-474.5 -102.5h-43l-2 -31v-29q0 -111 56.5 -174t168.5 -63q72 0 143 19t168 65v-187q-96 -44 -176.5 -62.5t-179.5 -18.5q-197 0 -307.5 111t-110.5 310zM362 633h29 q188 0 294 53.5t106 151.5q0 51 -32 79.5t-95 28.5q-96 0 -180.5 -86t-121.5 -227zM557 1241v25q97 108 225 303h264v-19q-54 -66 -158 -161.5t-175 -147.5h-156z" horiz-adv-x="1075" unicode="é"/><glyph d="M94 401q0 198 77.5 368.5t210 263.5t296.5 93q161 0 250.5 -72.5t89.5 -205.5q0 -182 -166.5 -284.5t-474.5 -102.5h-43l-2 -31v-29q0 -111 56.5 -174t168.5 -63q72 0 143 19t168 65v-187q-96 -44 -176.5 -62.5t-179.5 -18.5q-197 0 -307.5 111t-110.5 310zM362 633h29 q188 0 294 53.5t106 151.5q0 51 -32 79.5t-95 28.5q-96 0 -180.5 -86t-121.5 -227zM320 1241v25q138 128 201 195.5t90 107.5h248q38 -99 174 -303v-25h-152q-76 63 -161 178q-131 -110 -236 -178h-164z" horiz-adv-x="1075" unicode="ê"/><glyph d="M94 401q0 198 77.5 368.5t210 263.5t296.5 93q161 0 250.5 -72.5t89.5 -205.5q0 -182 -166.5 -284.5t-474.5 -102.5h-43l-2 -31v-29q0 -111 56.5 -174t168.5 -63q72 0 143 19t168 65v-187q-96 -44 -176.5 -62.5t-179.5 -18.5q-197 0 -307.5 111t-110.5 310zM362 633h29 q188 0 294 53.5t106 151.5q0 51 -32 79.5t-95 28.5q-96 0 -180.5 -86t-121.5 -227zM388 1380q0 60 35 98t98 38q48 0 76.5 -23.5t28.5 -71.5q0 -65 -35.5 -102t-93.5 -37q-47 0 -78 23.5t-31 74.5zM771 1380q0 60 35 98t98 38q48 0 76.5 -23.5t28.5 -71.5q0 -65 -35.5 -102 t-93.5 -37q-47 0 -78 23.5t-31 74.5z" horiz-adv-x="1075" unicode="ë"/><glyph d="M47 0l236 1106h235l-235 -1106h-236zM159 1548v21h245q47 -154 132 -303v-25h-144q-65 63 -132 151.5t-101 155.5z" horiz-adv-x="563" unicode="ì"/><glyph d="M47 0l236 1106h235l-235 -1106h-236zM308 1241v25q97 108 225 303h264v-19q-54 -66 -158 -161.5t-175 -147.5h-156z" horiz-adv-x="563" unicode="í"/><glyph d="M47 0l236 1106h235l-235 -1106h-236zM64 1241v25q138 128 201 195.5t90 107.5h248q38 -99 174 -303v-25h-152q-76 63 -161 178q-131 -110 -236 -178h-164z" horiz-adv-x="563" unicode="î"/><glyph d="M47 0l236 1106h235l-235 -1106h-236zM142 1380q0 60 35 98t98 38q48 0 76.5 -23.5t28.5 -71.5q0 -65 -35.5 -102t-93.5 -37q-47 0 -78 23.5t-31 74.5zM525 1380q0 60 35 98t98 38q48 0 76.5 -23.5t28.5 -71.5q0 -65 -35.5 -102t-93.5 -37q-47 0 -78 23.5t-31 74.5z" horiz-adv-x="563" unicode="ï"/><glyph d="M80 389q0 162 65.5 299t184.5 215t266 78q96 0 168 -38.5t113 -108.5h6q-10 243 -133 383l-250 -142l-72 129l219 121q-44 41 -135 96l106 152q129 -72 209 -146l250 138l70 -127l-217 -121q155 -205 155 -512q0 -255 -73 -444.5t-204 -285t-312 -95.5q-197 0 -306.5 107 t-109.5 302zM317 377q0 -104 49 -159.5t142 -55.5q92 0 161.5 59.5t108.5 159t39 205.5q0 97 -52 155t-144 58q-91 0 -160.5 -56t-106.5 -153.5t-37 -212.5z" horiz-adv-x="1174" unicode="ð"/><glyph d="M47 0l236 1106h184l-21 -205h9q83 118 171 171.5t191 53.5q134 0 207.5 -76t73.5 -216q0 -69 -23 -181l-137 -653h-236l142 672q18 90 18 131q0 131 -129 131q-72 0 -142 -57t-126 -164.5t-84 -243.5l-98 -469h-236zM363 1239q57 285 256 285q46 0 85 -17.5t72.5 -38 t63.5 -38t59 -17.5q40 0 65 26.5t48 86.5h137q-66 -285 -260 -285q-45 0 -82.5 17t-71.5 37.5t-65.5 37.5t-63.5 17q-38 0 -63 -27.5t-43 -83.5h-137z" horiz-adv-x="1208" unicode="ñ"/><glyph d="M94 408q0 199 71.5 365t200.5 258.5t298 92.5q195 0 305 -116t110 -316q0 -202 -73 -367.5t-200.5 -254t-293.5 -88.5q-192 0 -305 114.5t-113 311.5zM332 403q0 -111 49.5 -170t146.5 -59q90 0 162 68t112 190.5t40 269.5q0 107 -49 167.5t-140 60.5q-93 0 -166.5 -71.5 t-114 -194t-40.5 -261.5zM444 1548v21h245q47 -154 132 -303v-25h-144q-65 63 -132 151.5t-101 155.5z" horiz-adv-x="1174" unicode="ò"/><glyph d="M94 408q0 199 71.5 365t200.5 258.5t298 92.5q195 0 305 -116t110 -316q0 -202 -73 -367.5t-200.5 -254t-293.5 -88.5q-192 0 -305 114.5t-113 311.5zM332 403q0 -111 49.5 -170t146.5 -59q90 0 162 68t112 190.5t40 269.5q0 107 -49 167.5t-140 60.5q-93 0 -166.5 -71.5 t-114 -194t-40.5 -261.5zM580 1241v25q97 108 225 303h264v-19q-54 -66 -158 -161.5t-175 -147.5h-156z" horiz-adv-x="1174" unicode="ó"/><glyph d="M94 408q0 199 71.5 365t200.5 258.5t298 92.5q195 0 305 -116t110 -316q0 -202 -73 -367.5t-200.5 -254t-293.5 -88.5q-192 0 -305 114.5t-113 311.5zM332 403q0 -111 49.5 -170t146.5 -59q90 0 162 68t112 190.5t40 269.5q0 107 -49 167.5t-140 60.5q-93 0 -166.5 -71.5 t-114 -194t-40.5 -261.5zM341 1241v25q138 128 201 195.5t90 107.5h248q38 -99 174 -303v-25h-152q-76 63 -161 178q-131 -110 -236 -178h-164z" horiz-adv-x="1174" unicode="ô"/><glyph d="M94 408q0 199 71.5 365t200.5 258.5t298 92.5q195 0 305 -116t110 -316q0 -202 -73 -367.5t-200.5 -254t-293.5 -88.5q-192 0 -305 114.5t-113 311.5zM332 403q0 -111 49.5 -170t146.5 -59q90 0 162 68t112 190.5t40 269.5q0 107 -49 167.5t-140 60.5q-93 0 -166.5 -71.5 t-114 -194t-40.5 -261.5zM328 1239q57 285 256 285q46 0 85 -17.5t72.5 -38t63.5 -38t59 -17.5q40 0 65 26.5t48 86.5h137q-66 -285 -260 -285q-45 0 -82.5 17t-71.5 37.5t-65.5 37.5t-63.5 17q-38 0 -63 -27.5t-43 -83.5h-137z" horiz-adv-x="1174" unicode="õ"/><glyph d="M94 408q0 199 71.5 365t200.5 258.5t298 92.5q195 0 305 -116t110 -316q0 -202 -73 -367.5t-200.5 -254t-293.5 -88.5q-192 0 -305 114.5t-113 311.5zM332 403q0 -111 49.5 -170t146.5 -59q90 0 162 68t112 190.5t40 269.5q0 107 -49 167.5t-140 60.5q-93 0 -166.5 -71.5 t-114 -194t-40.5 -261.5zM409 1380q0 60 35 98t98 38q48 0 76.5 -23.5t28.5 -71.5q0 -65 -35.5 -102t-93.5 -37q-47 0 -78 23.5t-31 74.5zM792 1380q0 60 35 98t98 38q48 0 76.5 -23.5t28.5 -71.5q0 -65 -35.5 -102t-93.5 -37q-47 0 -78 23.5t-31 74.5z" horiz-adv-x="1174" unicode="ö"/><glyph d="M117 631v180h936v-180h-936zM459 373q0 64 31.5 99.5t93.5 35.5t94.5 -36t32.5 -99q0 -64 -34.5 -100.5t-92.5 -36.5t-91.5 35.5t-33.5 101.5zM459 1071q0 64 31.5 99.5t93.5 35.5t94.5 -36t32.5 -99q0 -64 -34.5 -100.5t-92.5 -36.5t-91.5 35.5t-33.5 101.5z" unicode="÷"/><glyph d="M51 6l115 141q-70 104 -70 261q0 200 70.5 365t199.5 258t298 93q136 0 239 -61l86 108l125 -96l-100 -117q63 -100 63 -258q0 -208 -74 -376t-200.5 -255t-288.5 -87q-137 0 -235 59l-105 -131zM324 426q0 -39 8 -74l442 549q-45 35 -121 35q-141 0 -235 -145.5 t-94 -364.5zM408 201q41 -33 120 -33q89 0 163 66.5t116.5 184t42.5 257.5q0 45 -6 67z" horiz-adv-x="1174" unicode="ø"/><glyph d="M111 274q0 63 12 124.5t24 123.5l123 584h236l-129 -610q-31 -141 -31 -193q0 -133 127 -133q72 0 143 57t126 162.5t85 247.5l99 469h233l-233 -1106h-185l21 205h-8q-82 -116 -171 -170.5t-192 -54.5q-134 0 -207 76t-73 218zM446 1548v21h245q47 -154 132 -303v-25 h-144q-65 63 -132 151.5t-101 155.5z" horiz-adv-x="1208" unicode="ù"/><glyph d="M111 274q0 63 12 124.5t24 123.5l123 584h236l-129 -610q-31 -141 -31 -193q0 -133 127 -133q72 0 143 57t126 162.5t85 247.5l99 469h233l-233 -1106h-185l21 205h-8q-82 -116 -171 -170.5t-192 -54.5q-134 0 -207 76t-73 218zM623 1241v25q97 108 225 303h264v-19 q-54 -66 -158 -161.5t-175 -147.5h-156z" horiz-adv-x="1208" unicode="ú"/><glyph d="M111 274q0 63 12 124.5t24 123.5l123 584h236l-129 -610q-31 -141 -31 -193q0 -133 127 -133q72 0 143 57t126 162.5t85 247.5l99 469h233l-233 -1106h-185l21 205h-8q-82 -116 -171 -170.5t-192 -54.5q-134 0 -207 76t-73 218zM370 1241v25q138 128 201 195.5t90 107.5 h248q38 -99 174 -303v-25h-152q-76 63 -161 178q-131 -110 -236 -178h-164z" horiz-adv-x="1208" unicode="û"/><glyph d="M111 274q0 63 12 124.5t24 123.5l123 584h236l-129 -610q-31 -141 -31 -193q0 -133 127 -133q72 0 143 57t126 162.5t85 247.5l99 469h233l-233 -1106h-185l21 205h-8q-82 -116 -171 -170.5t-192 -54.5q-134 0 -207 76t-73 218zM432 1380q0 60 35 98t98 38 q48 0 76.5 -23.5t28.5 -71.5q0 -65 -35.5 -102t-93.5 -37q-47 0 -78 23.5t-31 74.5zM815 1380q0 60 35 98t98 38q48 0 76.5 -23.5t28.5 -71.5q0 -65 -35.5 -102t-93.5 -37q-47 0 -78 23.5t-31 74.5z" horiz-adv-x="1208" unicode="ü"/><glyph d="M-170 -285q75 -16 125 -16q74 0 134 43.5t124 155.5l51 92l-164 1116h232l63 -531q9 -62 16 -174.5t7 -181.5h6q86 215 135 313l293 574h254l-688 -1280q-90 -165 -196 -241.5t-249 -76.5q-76 0 -143 19v188zM501 1241v25q97 108 225 303h264v-19q-54 -66 -158 -161.5 t-175 -147.5h-156z" horiz-adv-x="1004" unicode="ý"/><glyph d="M-55 -492l432 2048h235q-48 -223 -73 -339t-76 -291h8q155 200 328 200q144 0 224.5 -102t80.5 -287q0 -204 -68 -381.5t-184.5 -276.5t-265.5 -99q-94 0 -165 45.5t-114 130.5h-8q-7 -91 -25 -185l-96 -463h-233zM369 373q0 -98 46 -150.5t132 -52.5t159.5 77t116.5 209 t43 277q0 100 -41 150.5t-118 50.5q-84 0 -163 -81t-127 -213.5t-48 -266.5z" horiz-adv-x="1200" unicode="þ"/><glyph d="M-170 -285q75 -16 125 -16q74 0 134 43.5t124 155.5l51 92l-164 1116h232l63 -531q9 -62 16 -174.5t7 -181.5h6q86 215 135 313l293 574h254l-688 -1280q-90 -165 -196 -241.5t-249 -76.5q-76 0 -143 19v188zM323 1380q0 60 35 98t98 38q48 0 76.5 -23.5t28.5 -71.5 q0 -65 -35.5 -102t-93.5 -37q-47 0 -78 23.5t-31 74.5zM706 1380q0 60 35 98t98 38q48 0 76.5 -23.5t28.5 -71.5q0 -65 -35.5 -102t-93.5 -37q-47 0 -78 23.5t-31 74.5z" horiz-adv-x="1004" unicode="ÿ"/><glyph d="M-121 0l783 1464h274l166 -1464h-234l-41 406h-485l-209 -406h-254zM446 614h365q-40 416 -45.5 503.5t-5.5 139.5q-55 -139 -142 -307zM518 1579l37 176h582l-37 -176h-582z" horiz-adv-x="1210" unicode="Ā"/><glyph d="M94 367q0 202 69.5 378t191.5 278.5t268 102.5q97 0 167 -45.5t109 -132.5h10l62 158h180l-236 -1106h-182l21 176h-6q-158 -196 -349 -196q-141 0 -223 101.5t-82 285.5zM332 373q0 -102 40.5 -152.5t112.5 -50.5q82 0 161 77.5t130 207.5t51 284q0 88 -47 141.5 t-123 53.5q-85 0 -160 -77t-120 -209.5t-45 -274.5zM430 1241l37 176h582l-37 -176h-582z" horiz-adv-x="1186" unicode="ā"/><glyph d="M-121 0l783 1464h274l166 -1464h-234l-41 406h-485l-209 -406h-254zM446 614h365q-40 416 -45.5 503.5t-5.5 139.5q-55 -139 -142 -307zM525 1827q0 36 4 55h135q0 -63 36.5 -94t123.5 -31q88 0 135.5 31t62.5 94h148q-31 -155 -120 -229t-241 -74q-133 0 -208.5 66 t-75.5 182z" horiz-adv-x="1210" unicode="Ă"/><glyph d="M94 367q0 202 69.5 378t191.5 278.5t268 102.5q97 0 167 -45.5t109 -132.5h10l62 158h180l-236 -1106h-182l21 176h-6q-158 -196 -349 -196q-141 0 -223 101.5t-82 285.5zM332 373q0 -102 40.5 -152.5t112.5 -50.5q82 0 161 77.5t130 207.5t51 284q0 88 -47 141.5 t-123 53.5q-85 0 -160 -77t-120 -209.5t-45 -274.5zM446 1489q0 36 4 55h135q0 -63 36.5 -94t123.5 -31q88 0 135.5 31t62.5 94h148q-31 -155 -120 -229t-241 -74q-133 0 -208.5 66t-75.5 182z" horiz-adv-x="1186" unicode="ă"/><glyph d="M-121 0l783 1464h274l166 -1464h-234l-41 406h-485l-209 -406h-254zM446 614h365q-40 416 -45.5 503.5t-5.5 139.5q-55 -139 -142 -307zM657 -289q0 81 47.5 148t167.5 141h158q-111 -88 -150.5 -145.5t-39.5 -108.5q0 -32 17 -48.5t46 -16.5q38 0 92 14v-141 q-65 -21 -137 -21q-91 0 -146 47t-55 131z" horiz-adv-x="1210" unicode="Ą"/><glyph d="M94 367q0 202 69.5 378t191.5 278.5t268 102.5q97 0 167 -45.5t109 -132.5h10l62 158h180l-236 -1106h-182l21 176h-6q-158 -196 -349 -196q-141 0 -223 101.5t-82 285.5zM332 373q0 -102 40.5 -152.5t112.5 -50.5q82 0 161 77.5t130 207.5t51 284q0 88 -47 141.5 t-123 53.5q-85 0 -160 -77t-120 -209.5t-45 -274.5zM516 -289q0 81 47.5 148t167.5 141h158q-111 -88 -150.5 -145.5t-39.5 -108.5q0 -32 17 -48.5t46 -16.5q38 0 92 14v-141q-65 -21 -137 -21q-91 0 -146 47t-55 131z" horiz-adv-x="1186" unicode="ą"/><glyph d="M135 545q0 260 105.5 483t281.5 339t402 116q217 0 389 -92l-94 -195q-63 34 -134 58t-161 24q-154 0 -275 -89t-193.5 -259.5t-72.5 -374.5q0 -180 82.5 -275.5t243.5 -95.5q141 0 329 68v-205q-180 -67 -374 -67q-248 0 -388.5 148.5t-140.5 416.5zM791 1579v25 q97 108 225 303h264v-19q-54 -66 -158 -161.5t-175 -147.5h-156z" horiz-adv-x="1225" unicode="Ć"/><glyph d="M94 389q0 207 73.5 376.5t206.5 265t302 95.5q164 0 297 -61l-70 -184q-122 53 -221 53q-150 0 -250 -153.5t-100 -379.5q0 -111 56 -171t155 -60q74 0 138.5 22t129.5 54v-195q-140 -71 -305 -71q-196 0 -304 106t-108 303zM555 1241v25q97 108 225 303h264v-19 q-54 -66 -158 -161.5t-175 -147.5h-156z" horiz-adv-x="954" unicode="ć"/><glyph d="M135 545q0 260 105.5 483t281.5 339t402 116q217 0 389 -92l-94 -195q-63 34 -134 58t-161 24q-154 0 -275 -89t-193.5 -259.5t-72.5 -374.5q0 -180 82.5 -275.5t243.5 -95.5q141 0 329 68v-205q-180 -67 -374 -67q-248 0 -388.5 148.5t-140.5 416.5zM547 1579v25 q138 128 201 195.5t90 107.5h248q38 -99 174 -303v-25h-152q-76 63 -161 178q-131 -110 -236 -178h-164z" horiz-adv-x="1225" unicode="Ĉ"/><glyph d="M94 389q0 207 73.5 376.5t206.5 265t302 95.5q164 0 297 -61l-70 -184q-122 53 -221 53q-150 0 -250 -153.5t-100 -379.5q0 -111 56 -171t155 -60q74 0 138.5 22t129.5 54v-195q-140 -71 -305 -71q-196 0 -304 106t-108 303zM300 1241v25q138 128 201 195.5t90 107.5h248 q38 -99 174 -303v-25h-152q-76 63 -161 178q-131 -110 -236 -178h-164z" horiz-adv-x="954" unicode="ĉ"/><glyph d="M135 545q0 260 105.5 483t281.5 339t402 116q217 0 389 -92l-94 -195q-63 34 -134 58t-161 24q-154 0 -275 -89t-193.5 -259.5t-72.5 -374.5q0 -180 82.5 -275.5t243.5 -95.5q141 0 329 68v-205q-180 -67 -374 -67q-248 0 -388.5 148.5t-140.5 416.5zM797 1716 q0 68 39 110t110 42q53 0 86 -26.5t33 -80.5q0 -71 -40.5 -112t-105.5 -41q-52 0 -87 26t-35 82z" horiz-adv-x="1225" unicode="Ċ"/><glyph d="M94 389q0 207 73.5 376.5t206.5 265t302 95.5q164 0 297 -61l-70 -184q-122 53 -221 53q-150 0 -250 -153.5t-100 -379.5q0 -111 56 -171t155 -60q74 0 138.5 22t129.5 54v-195q-140 -71 -305 -71q-196 0 -304 106t-108 303zM566 1378q0 68 39 110t110 42q53 0 86 -26.5 t33 -80.5q0 -71 -40.5 -112t-105.5 -41q-52 0 -87 26t-35 82z" horiz-adv-x="954" unicode="ċ"/><glyph d="M135 545q0 260 105.5 483t281.5 339t402 116q217 0 389 -92l-94 -195q-63 34 -134 58t-161 24q-154 0 -275 -89t-193.5 -259.5t-72.5 -374.5q0 -180 82.5 -275.5t243.5 -95.5q141 0 329 68v-205q-180 -67 -374 -67q-248 0 -388.5 148.5t-140.5 416.5zM574 1880v27h149 q69 -58 162 -178q125 105 238 178h162v-27q-80 -71 -169 -162.5t-122 -138.5h-248q-44 110 -172 301z" horiz-adv-x="1225" unicode="Č"/><glyph d="M94 389q0 207 73.5 376.5t206.5 265t302 95.5q164 0 297 -61l-70 -184q-122 53 -221 53q-150 0 -250 -153.5t-100 -379.5q0 -111 56 -171t155 -60q74 0 138.5 22t129.5 54v-195q-140 -71 -305 -71q-196 0 -304 106t-108 303zM355 1542v27h149q69 -58 162 -178 q125 105 238 178h162v-27q-80 -71 -169 -162.5t-122 -138.5h-248q-44 110 -172 301z" horiz-adv-x="954" unicode="č"/><glyph d="M70 0l309 1462h369q271 0 417 -145t146 -424q0 -271 -100 -473t-291 -311t-449 -109h-401zM348 201h135q177 0 309 86t202.5 242t70.5 356q0 184 -88 280.5t-256 96.5h-146zM514 1880v27h149q69 -58 162 -178q125 105 238 178h162v-27q-80 -71 -169 -162.5t-122 -138.5 h-248q-44 110 -172 301z" horiz-adv-x="1374" unicode="Ď"/><glyph d="M94 369q0 205 71.5 383t191.5 276t266 98q179 0 268 -178h8q13 146 37 250l76 358h233l-330 -1556h-184l19 176h-7q-88 -106 -170 -151t-174 -45q-143 0 -224 101.5t-81 287.5zM332 373q0 -203 157 -203q82 0 162.5 82t129 214t48.5 267q0 91 -43.5 146t-132.5 55 q-85 0 -159 -77t-118 -211t-44 -273zM1272 1229v26q80 144 137 301h221v-20q-33 -69 -101 -161.5t-122 -145.5h-135z" horiz-adv-x="1198" unicode="ď"/><glyph d="M53 623l45 200h144l137 639h369q271 0 417 -145t146 -424q0 -271 -100 -473t-291 -311t-449 -109h-401l129 623h-146zM348 201h135q177 0 309 86t202.5 242t70.5 356q0 184 -88 280.5t-256 96.5h-146l-94 -439h285l-45 -200h-283z" horiz-adv-x="1374" unicode="Đ"/><glyph d="M94 369q0 192 67 364t185 269.5t268 97.5q183 0 273 -170h8q5 75 23 180l22 109h-334l33 163h336l37 174h233l-37 -174h152l-35 -163h-151l-259 -1219h-184l19 176h-7q-82 -103 -164.5 -149.5t-175.5 -46.5q-146 0 -227.5 104t-81.5 285zM332 373q0 -203 160 -203 q80 0 157.5 77t127.5 205t50 261q0 87 -42 140.5t-134 53.5q-87 0 -160.5 -73.5t-116 -198.5t-42.5 -262z" horiz-adv-x="1198" unicode="đ"/><glyph d="M70 0l309 1462h776l-43 -205h-539l-84 -395h502l-41 -203h-504l-96 -456h539l-43 -203h-776zM483 1579l37 176h582l-37 -176h-582z" horiz-adv-x="1077" unicode="Ē"/><glyph d="M94 401q0 198 77.5 368.5t210 263.5t296.5 93q161 0 250.5 -72.5t89.5 -205.5q0 -182 -166.5 -284.5t-474.5 -102.5h-43l-2 -31v-29q0 -111 56.5 -174t168.5 -63q72 0 143 19t168 65v-187q-96 -44 -176.5 -62.5t-179.5 -18.5q-197 0 -307.5 111t-110.5 310zM362 633h29 q188 0 294 53.5t106 151.5q0 51 -32 79.5t-95 28.5q-96 0 -180.5 -86t-121.5 -227zM399 1241l37 176h582l-37 -176h-582z" horiz-adv-x="1075" unicode="ē"/><glyph d="M70 0l309 1462h776l-43 -205h-539l-84 -395h502l-41 -203h-504l-96 -456h539l-43 -203h-776zM498 1827q0 36 4 55h135q0 -63 36.5 -94t123.5 -31q88 0 135.5 31t62.5 94h148q-31 -155 -120 -229t-241 -74q-133 0 -208.5 66t-75.5 182z" horiz-adv-x="1077" unicode="Ĕ"/><glyph d="M94 401q0 198 77.5 368.5t210 263.5t296.5 93q161 0 250.5 -72.5t89.5 -205.5q0 -182 -166.5 -284.5t-474.5 -102.5h-43l-2 -31v-29q0 -111 56.5 -174t168.5 -63q72 0 143 19t168 65v-187q-96 -44 -176.5 -62.5t-179.5 -18.5q-197 0 -307.5 111t-110.5 310zM362 633h29 q188 0 294 53.5t106 151.5q0 51 -32 79.5t-95 28.5q-96 0 -180.5 -86t-121.5 -227zM419 1489q0 36 4 55h135q0 -63 36.5 -94t123.5 -31q88 0 135.5 31t62.5 94h148q-31 -155 -120 -229t-241 -74q-133 0 -208.5 66t-75.5 182z" horiz-adv-x="1075" unicode="ĕ"/><glyph d="M70 0l309 1462h776l-43 -205h-539l-84 -395h502l-41 -203h-504l-96 -456h539l-43 -203h-776zM646 1687q0 68 39 110t110 42q53 0 86 -26.5t33 -80.5q0 -71 -40.5 -112t-105.5 -41q-52 0 -87 26t-35 82z" horiz-adv-x="1077" unicode="Ė"/><glyph d="M94 401q0 198 77.5 368.5t210 263.5t296.5 93q161 0 250.5 -72.5t89.5 -205.5q0 -182 -166.5 -284.5t-474.5 -102.5h-43l-2 -31v-29q0 -111 56.5 -174t168.5 -63q72 0 143 19t168 65v-187q-96 -44 -176.5 -62.5t-179.5 -18.5q-197 0 -307.5 111t-110.5 310zM362 633h29 q188 0 294 53.5t106 151.5q0 51 -32 79.5t-95 28.5q-96 0 -180.5 -86t-121.5 -227zM576 1378q0 68 39 110t110 42q53 0 86 -26.5t33 -80.5q0 -71 -40.5 -112t-105.5 -41q-52 0 -87 26t-35 82z" horiz-adv-x="1075" unicode="ė"/><glyph d="M70 0l309 1462h776l-43 -205h-539l-84 -395h502l-41 -203h-504l-96 -456h539l-43 -203h-776zM399 -289q0 81 47.5 148t167.5 141h158q-111 -88 -150.5 -145.5t-39.5 -108.5q0 -32 17 -48.5t46 -16.5q38 0 92 14v-141q-65 -21 -137 -21q-91 0 -146 47t-55 131z" horiz-adv-x="1077" unicode="Ę"/><glyph d="M94 401q0 198 77.5 368.5t210 263.5t296.5 93q161 0 250.5 -72.5t89.5 -205.5q0 -182 -166.5 -284.5t-474.5 -102.5h-43l-2 -31v-29q0 -111 56.5 -174t168.5 -63q72 0 143 19t168 65v-187q-96 -44 -176.5 -62.5t-179.5 -18.5q-197 0 -307.5 111t-110.5 310zM362 633h29 q188 0 294 53.5t106 151.5q0 51 -32 79.5t-95 28.5q-96 0 -180.5 -86t-121.5 -227zM336 -264q0 81 47.5 148t167.5 141h158q-111 -88 -150.5 -145.5t-39.5 -108.5q0 -32 17 -48.5t46 -16.5q38 0 92 14v-141q-65 -21 -137 -21q-91 0 -146 47t-55 131z" horiz-adv-x="1075" unicode="ę"/><glyph d="M70 0l309 1462h776l-43 -205h-539l-84 -395h502l-41 -203h-504l-96 -456h539l-43 -203h-776zM467 1880v27h149q69 -58 162 -178q125 105 238 178h162v-27q-80 -71 -169 -162.5t-122 -138.5h-248q-44 110 -172 301z" horiz-adv-x="1077" unicode="Ě"/><glyph d="M94 401q0 198 77.5 368.5t210 263.5t296.5 93q161 0 250.5 -72.5t89.5 -205.5q0 -182 -166.5 -284.5t-474.5 -102.5h-43l-2 -31v-29q0 -111 56.5 -174t168.5 -63q72 0 143 19t168 65v-187q-96 -44 -176.5 -62.5t-179.5 -18.5q-197 0 -307.5 111t-110.5 310zM362 633h29 q188 0 294 53.5t106 151.5q0 51 -32 79.5t-95 28.5q-96 0 -180.5 -86t-121.5 -227zM384 1542v27h149q69 -58 162 -178q125 105 238 178h162v-27q-80 -71 -169 -162.5t-122 -138.5h-248q-44 110 -172 301z" horiz-adv-x="1075" unicode="ě"/><glyph d="M135 539q0 264 102.5 483t290 340t426.5 121q111 0 213 -20.5t205 -69.5l-90 -203q-174 86 -334 86q-158 0 -287 -90.5t-203.5 -258t-74.5 -372.5q0 -183 89 -277t253 -94q109 0 215 33l80 371h-277l43 205h512l-157 -736q-112 -40 -218.5 -58.5t-238.5 -18.5 q-261 0 -405 146t-144 413zM551 1579v25q138 128 201 195.5t90 107.5h248q38 -99 174 -303v-25h-152q-76 63 -161 178q-131 -110 -236 -178h-164z" horiz-adv-x="1399" unicode="Ĝ"/><glyph d="M-121 -211q0 103 69.5 178t223.5 127q-76 45 -76 127q0 69 46.5 119.5t146.5 97.5q-135 81 -135 252q0 196 122.5 316t323.5 120q80 0 160 -20h383l-31 -137l-192 -33q28 -58 28 -137q0 -193 -119 -306.5t-319 -113.5q-52 0 -92 8q-111 -40 -111 -104q0 -38 31.5 -52 t91.5 -22l127 -16q176 -22 252 -87.5t76 -187.5q0 -196 -151 -303t-429 -107q-203 0 -314.5 75t-111.5 206zM92 -184q0 -65 55.5 -103.5t169.5 -38.5q163 0 255 54t92 155q0 51 -45 80t-158 41l-137 14q-112 -18 -172 -71t-60 -131zM377 680q0 -71 35.5 -109.5t101.5 -38.5 q65 0 112.5 39t74 107t26.5 149q0 142 -133 142q-65 0 -114 -38.5t-76 -105t-27 -145.5zM356 1241v25q138 128 201 195.5t90 107.5h248q38 -99 174 -303v-25h-152q-76 63 -161 178q-131 -110 -236 -178h-164z" horiz-adv-x="1067" unicode="ĝ"/><glyph d="M135 539q0 264 102.5 483t290 340t426.5 121q111 0 213 -20.5t205 -69.5l-90 -203q-174 86 -334 86q-158 0 -287 -90.5t-203.5 -258t-74.5 -372.5q0 -183 89 -277t253 -94q109 0 215 33l80 371h-277l43 205h512l-157 -736q-112 -40 -218.5 -58.5t-238.5 -18.5 q-261 0 -405 146t-144 413zM623 1827q0 36 4 55h135q0 -63 36.5 -94t123.5 -31q88 0 135.5 31t62.5 94h148q-31 -155 -120 -229t-241 -74q-133 0 -208.5 66t-75.5 182z" horiz-adv-x="1399" unicode="Ğ"/><glyph d="M-121 -211q0 103 69.5 178t223.5 127q-76 45 -76 127q0 69 46.5 119.5t146.5 97.5q-135 81 -135 252q0 196 122.5 316t323.5 120q80 0 160 -20h383l-31 -137l-192 -33q28 -58 28 -137q0 -193 -119 -306.5t-319 -113.5q-52 0 -92 8q-111 -40 -111 -104q0 -38 31.5 -52 t91.5 -22l127 -16q176 -22 252 -87.5t76 -187.5q0 -196 -151 -303t-429 -107q-203 0 -314.5 75t-111.5 206zM92 -184q0 -65 55.5 -103.5t169.5 -38.5q163 0 255 54t92 155q0 51 -45 80t-158 41l-137 14q-112 -18 -172 -71t-60 -131zM377 680q0 -71 35.5 -109.5t101.5 -38.5 q65 0 112.5 39t74 107t26.5 149q0 142 -133 142q-65 0 -114 -38.5t-76 -105t-27 -145.5zM419 1489q0 36 4 55h135q0 -63 36.5 -94t123.5 -31q88 0 135.5 31t62.5 94h148q-31 -155 -120 -229t-241 -74q-133 0 -208.5 66t-75.5 182z" horiz-adv-x="1067" unicode="ğ"/><glyph d="M135 539q0 264 102.5 483t290 340t426.5 121q111 0 213 -20.5t205 -69.5l-90 -203q-174 86 -334 86q-158 0 -287 -90.5t-203.5 -258t-74.5 -372.5q0 -183 89 -277t253 -94q109 0 215 33l80 371h-277l43 205h512l-157 -736q-112 -40 -218.5 -58.5t-238.5 -18.5 q-261 0 -405 146t-144 413zM805 1716q0 68 39 110t110 42q53 0 86 -26.5t33 -80.5q0 -71 -40.5 -112t-105.5 -41q-52 0 -87 26t-35 82z" horiz-adv-x="1399" unicode="Ġ"/><glyph d="M-121 -211q0 103 69.5 178t223.5 127q-76 45 -76 127q0 69 46.5 119.5t146.5 97.5q-135 81 -135 252q0 196 122.5 316t323.5 120q80 0 160 -20h383l-31 -137l-192 -33q28 -58 28 -137q0 -193 -119 -306.5t-319 -113.5q-52 0 -92 8q-111 -40 -111 -104q0 -38 31.5 -52 t91.5 -22l127 -16q176 -22 252 -87.5t76 -187.5q0 -196 -151 -303t-429 -107q-203 0 -314.5 75t-111.5 206zM92 -184q0 -65 55.5 -103.5t169.5 -38.5q163 0 255 54t92 155q0 51 -45 80t-158 41l-137 14q-112 -18 -172 -71t-60 -131zM377 680q0 -71 35.5 -109.5t101.5 -38.5 q65 0 112.5 39t74 107t26.5 149q0 142 -133 142q-65 0 -114 -38.5t-76 -105t-27 -145.5zM611 1378q0 68 39 110t110 42q53 0 86 -26.5t33 -80.5q0 -71 -40.5 -112t-105.5 -41q-52 0 -87 26t-35 82z" horiz-adv-x="1067" unicode="ġ"/><glyph d="M135 539q0 264 102.5 483t290 340t426.5 121q111 0 213 -20.5t205 -69.5l-90 -203q-174 86 -334 86q-158 0 -287 -90.5t-203.5 -258t-74.5 -372.5q0 -183 89 -277t253 -94q109 0 215 33l80 371h-277l43 205h512l-157 -736q-112 -40 -218.5 -58.5t-238.5 -18.5 q-261 0 -405 146t-144 413zM430 -426q87 156 135 301h222v-20q-29 -65 -93 -152.5t-129 -155.5h-135v27z" horiz-adv-x="1399" unicode="Ģ"/><glyph d="M-121 -211q0 103 69.5 178t223.5 127q-76 45 -76 127q0 69 46.5 119.5t146.5 97.5q-135 81 -135 252q0 196 122.5 316t323.5 120q80 0 160 -20h383l-31 -137l-192 -33q28 -58 28 -137q0 -193 -119 -306.5t-319 -113.5q-52 0 -92 8q-111 -40 -111 -104q0 -38 31.5 -52 t91.5 -22l127 -16q176 -22 252 -87.5t76 -187.5q0 -196 -151 -303t-429 -107q-203 0 -314.5 75t-111.5 206zM92 -184q0 -65 55.5 -103.5t169.5 -38.5q163 0 255 54t92 155q0 51 -45 80t-158 41l-137 14q-112 -18 -172 -71t-60 -131zM377 680q0 -71 35.5 -109.5t101.5 -38.5 q65 0 112.5 39t74 107t26.5 149q0 142 -133 142q-65 0 -114 -38.5t-76 -105t-27 -145.5zM602 1241v21q31 62 94.5 150.5t127.5 156.5h137v-27q-97 -181 -137 -301h-222z" horiz-adv-x="1067" unicode="ģ"/><glyph d="M70 0l309 1462h237l-127 -598h566l127 598h237l-309 -1462h-238l140 659h-566l-139 -659h-237zM538 1579v25q138 128 201 195.5t90 107.5h248q38 -99 174 -303v-25h-152q-76 63 -161 178q-131 -110 -236 -178h-164z" horiz-adv-x="1411" unicode="Ĥ"/><glyph d="M47 0l330 1556h235l-57 -262q-27 -126 -73 -293l-19 -75h8q84 106 168.5 153t177.5 47q136 0 208.5 -77.5t72.5 -221.5q0 -76 -23 -174l-139 -653h-234l142 672q18 90 18 127q0 135 -129 135q-112 0 -209.5 -125t-142.5 -342l-98 -467h-236zM424 1634v25 q138 128 201 195.5t90 107.5h248q38 -99 174 -303v-25h-152q-76 63 -161 178q-131 -110 -236 -178h-164z" horiz-adv-x="1208" unicode="ĥ"/><glyph d="M70 0l225 1069h-182l37 170h182l47 223h237l-47 -223h566l47 223h239l-47 -223h182l-34 -170h-185l-225 -1069h-240l140 659h-566l-139 -659h-237zM489 864h566l43 205h-566z" horiz-adv-x="1411" unicode="Ħ"/><glyph d="M47 0l260 1219h-157l36 163h154l37 174h235l-37 -174h324l-35 -163h-323l-84 -328h8q83 106 167 152.5t177 46.5q278 0 278 -314q0 -56 -20 -160l-131 -616h-234l136 635q16 71 16 127q0 131 -121 131q-73 0 -146.5 -57.5t-130 -162t-83.5 -241.5l-90 -432h-236z" horiz-adv-x="1208" unicode="ħ"/><glyph d="M70 0l311 1462h235l-311 -1462h-235zM145 1577q57 285 256 285q46 0 85 -17.5t72.5 -38t63.5 -38t59 -17.5q40 0 65 26.5t48 86.5h137q-66 -285 -260 -285q-45 0 -82.5 17t-71.5 37.5t-65.5 37.5t-63.5 17q-38 0 -63 -27.5t-43 -83.5h-137z" horiz-adv-x="608" unicode="Ĩ"/><glyph d="M47 0l236 1106h235l-235 -1106h-236zM59 1239q57 285 256 285q46 0 85 -17.5t72.5 -38t63.5 -38t59 -17.5q40 0 65 26.5t48 86.5h137q-66 -285 -260 -285q-45 0 -82.5 17t-71.5 37.5t-65.5 37.5t-63.5 17q-38 0 -63 -27.5t-43 -83.5h-137z" horiz-adv-x="563" unicode="ĩ"/><glyph d="M70 0l311 1462h235l-311 -1462h-235zM226 1579l37 176h582l-37 -176h-582z" horiz-adv-x="608" unicode="Ī"/><glyph d="M47 0l236 1106h235l-235 -1106h-236zM128 1241l37 176h582l-37 -176h-582z" horiz-adv-x="563" unicode="ī"/><glyph d="M70 0l311 1462h235l-311 -1462h-235zM243 1827q0 36 4 55h135q0 -63 36.5 -94t123.5 -31q88 0 135.5 31t62.5 94h148q-31 -155 -120 -229t-241 -74q-133 0 -208.5 66t-75.5 182z" horiz-adv-x="608" unicode="Ĭ"/><glyph d="M47 0l236 1106h235l-235 -1106h-236zM145 1489q0 36 4 55h135q0 -63 36.5 -94t123.5 -31q88 0 135.5 31t62.5 94h148q-31 -155 -120 -229t-241 -74q-133 0 -208.5 66t-75.5 182z" horiz-adv-x="563" unicode="ĭ"/><glyph d="M70 0l311 1462h235l-311 -1462h-235zM-76 -289q0 81 47.5 148t167.5 141h158q-111 -88 -150.5 -145.5t-39.5 -108.5q0 -32 17 -48.5t46 -16.5q38 0 92 14v-141q-65 -21 -137 -21q-91 0 -146 47t-55 131z" horiz-adv-x="608" unicode="Į"/><glyph d="M47 0l236 1106h235l-235 -1106h-236zM330 1378q0 68 39 110t110 42q53 0 86 -26.5t33 -80.5q0 -71 -40 -112t-105 -41q-53 0 -88 26t-35 82zM-90 -289q0 81 47.5 148t167.5 141h158q-111 -88 -150.5 -145.5t-39.5 -108.5q0 -32 17 -48.5t46 -16.5q38 0 92 14v-141 q-65 -21 -137 -21q-91 0 -146 47t-55 131z" horiz-adv-x="563" unicode="į"/><glyph d="M70 0l311 1462h235l-311 -1462h-235zM416 1716q0 68 39 110t110 42q53 0 86 -26.5t33 -80.5q0 -71 -40.5 -112t-105.5 -41q-52 0 -87 26t-35 82z" horiz-adv-x="608" unicode="İ"/><glyph d="M47 0l236 1106h235l-235 -1106h-236z" horiz-adv-x="563" unicode="ı"/><glyph d="M286 -383l5 201q84 -21 153 -21q201 0 254 250l299 1415h238l-305 -1446q-46 -217 -161.5 -320.5t-312.5 -103.5q-104 0 -170 25zM70 0l311 1462h235l-311 -1462h-235z" horiz-adv-x="1221" unicode="Ĳ"/><glyph d="M47 0l236 1106h235l-235 -1106h-236zM330 1378q0 68 39 110t110 42q53 0 86 -26.5t33 -80.5q0 -71 -40 -112t-105 -41q-53 0 -88 26t-35 82zM301 -279q64 -20 117 -20q131 0 170 186l260 1219h233l-266 -1247q-38 -181 -127.5 -266t-237.5 -85q-90 0 -149 23v190z M895 1378q0 68 38 110t109 42q54 0 86.5 -26.5t32.5 -80.5q0 -71 -40 -112t-105 -41q-53 0 -87 25.5t-34 82.5z" unicode="ĳ"/><glyph d="M-322 -383l5 201q84 -21 153 -21q201 0 254 250l299 1415h238l-305 -1446q-46 -217 -161.5 -320.5t-312.5 -103.5q-104 0 -170 25zM160 1579v25q138 128 201 195.5t90 107.5h248q38 -99 174 -303v-25h-152q-76 63 -161 178q-131 -110 -236 -178h-164z" horiz-adv-x="612" unicode="Ĵ"/><glyph d="M-260 -279q62 -20 117 -20q131 0 170 186l258 1219h233l-264 -1247q-38 -182 -128.5 -266.5t-238.5 -84.5q-93 0 -147 23v190zM56 1241v25q138 128 201 195.5t90 107.5h248q38 -99 174 -303v-25h-152q-76 63 -161 178q-131 -110 -236 -178h-164z" horiz-adv-x="563" unicode="ĵ"/><glyph d="M70 0l309 1462h237l-151 -706l141 166l492 540h284l-616 -669l321 -793h-262l-252 655l-149 -100l-117 -555h-237zM301 -426q87 156 135 301h222v-20q-29 -65 -93 -152.5t-129 -155.5h-135v27z" horiz-adv-x="1198" unicode="Ķ"/><glyph d="M47 0l330 1556h235q-135 -627 -159.5 -729.5t-59.5 -226.5h4l490 506h272l-483 -485l291 -621h-262l-209 471l-136 -96l-77 -375h-236zM235 -426q87 156 135 301h222v-20q-29 -65 -93 -152.5t-129 -155.5h-135v27z" horiz-adv-x="1081" unicode="ķ"/><glyph d="M47 0l234 1106h235l-57 -262q-13 -53 -68 -246h4l492 508h272l-483 -485l291 -621h-262l-209 471l-136 -96l-77 -375h-236z" horiz-adv-x="1081" unicode="ĸ"/><glyph d="M70 0l309 1462h237l-266 -1257h539l-43 -205h-776zM421 1579v25q97 108 225 303h264v-19q-54 -66 -158 -161.5t-175 -147.5h-156z" horiz-adv-x="1016" unicode="Ĺ"/><glyph d="M47 0l330 1556h235l-331 -1556h-234zM396 1636v25q97 108 225 303h264v-19q-54 -66 -158 -161.5t-175 -147.5h-156z" horiz-adv-x="563" unicode="ĺ"/><glyph d="M70 0l309 1462h237l-266 -1257h539l-43 -205h-776zM250 -426q87 156 135 301h222v-20q-29 -65 -93 -152.5t-129 -155.5h-135v27z" horiz-adv-x="1016" unicode="Ļ"/><glyph d="M47 0l330 1556h235l-331 -1556h-234zM-98 -426q87 156 135 301h222v-20q-29 -65 -93 -152.5t-129 -155.5h-135v27z" horiz-adv-x="563" unicode="ļ"/><glyph d="M70 0l309 1462h237l-266 -1257h539l-43 -205h-776zM766 1136v26q80 144 137 301h221v-20q-33 -69 -101 -161.5t-122 -145.5h-135z" horiz-adv-x="1016" unicode="Ľ"/><glyph d="M47 0l330 1556h235l-331 -1556h-234zM637 1229v26q80 144 137 301h221v-20q-33 -69 -101 -161.5t-122 -145.5h-135z" horiz-adv-x="563" unicode="ľ"/><glyph d="M70 0l309 1462h237l-266 -1257h539l-43 -205h-776zM689 717q0 68 39 110t110 42q53 0 86 -26.5t33 -80.5q0 -71 -40.5 -112t-105.5 -41q-52 0 -87 26t-35 82z" horiz-adv-x="1016" unicode="Ŀ"/><glyph d="M47 0l330 1556h235l-331 -1556h-234zM551 703q0 68 39 110t110 42q53 0 86 -26.5t33 -80.5q0 -71 -40.5 -112t-105.5 -41q-52 0 -87 26t-35 82z" horiz-adv-x="733" unicode="ŀ"/><glyph d="M10 602l213 117l156 743h237l-124 -594l188 107l84 -156l-322 -178l-92 -436h539l-43 -205h-776l106 494l-84 -48z" horiz-adv-x="1016" unicode="Ł"/><glyph d="M2 633l215 123l172 800h232l-138 -653l95 55l79 -153l-223 -127l-143 -678h-234l113 530l-88 -51z" horiz-adv-x="590" unicode="ł"/><glyph d="M68 0l309 1462h268l399 -1149h7q6 54 31 192.5t40 203.5l160 753h219l-309 -1462h-260l-410 1163h-6l-10 -69q-24 -149 -35.5 -212.5t-183.5 -881.5h-219zM844 1579v25q97 108 225 303h264v-19q-54 -66 -158 -161.5t-175 -147.5h-156z" horiz-adv-x="1491" unicode="Ń"/><glyph d="M47 0l236 1106h184l-21 -205h9q83 118 171 171.5t191 53.5q134 0 207.5 -76t73.5 -216q0 -69 -23 -181l-137 -653h-236l142 672q18 90 18 131q0 131 -129 131q-72 0 -142 -57t-126 -164.5t-84 -243.5l-98 -469h-236zM621 1241v25q97 108 225 303h264v-19 q-54 -66 -158 -161.5t-175 -147.5h-156z" horiz-adv-x="1208" unicode="ń"/><glyph d="M68 0l309 1462h268l399 -1149h7q6 54 31 192.5t40 203.5l160 753h219l-309 -1462h-260l-410 1163h-6l-10 -69q-24 -149 -35.5 -212.5t-183.5 -881.5h-219zM381 -426q87 156 135 301h222v-20q-29 -65 -93 -152.5t-129 -155.5h-135v27z" horiz-adv-x="1491" unicode="Ņ"/><glyph d="M47 0l236 1106h184l-21 -205h9q83 118 171 171.5t191 53.5q134 0 207.5 -76t73.5 -216q0 -69 -23 -181l-137 -653h-236l142 672q18 90 18 131q0 131 -129 131q-72 0 -142 -57t-126 -164.5t-84 -243.5l-98 -469h-236zM239 -426q87 156 135 301h222v-20q-29 -65 -93 -152.5 t-129 -155.5h-135v27z" horiz-adv-x="1208" unicode="ņ"/><glyph d="M68 0l309 1462h268l399 -1149h7q6 54 31 192.5t40 203.5l160 753h219l-309 -1462h-260l-410 1163h-6l-10 -69q-24 -149 -35.5 -212.5t-183.5 -881.5h-219zM635 1880v27h149q69 -58 162 -178q125 105 238 178h162v-27q-80 -71 -169 -162.5t-122 -138.5h-248 q-44 110 -172 301z" horiz-adv-x="1491" unicode="Ň"/><glyph d="M47 0l236 1106h184l-21 -205h9q83 118 171 171.5t191 53.5q134 0 207.5 -76t73.5 -216q0 -69 -23 -181l-137 -653h-236l142 672q18 90 18 131q0 131 -129 131q-72 0 -142 -57t-126 -164.5t-84 -243.5l-98 -469h-236zM422 1542v27h149q69 -58 162 -178q125 105 238 178 h162v-27q-80 -71 -169 -162.5t-122 -138.5h-248q-44 110 -172 301z" horiz-adv-x="1208" unicode="ň"/><glyph d="M194 0l236 1106h184l-21 -205h9q83 118 171 171.5t191 53.5q134 0 207.5 -76t73.5 -216q0 -69 -23 -181l-137 -653h-236l142 672q18 90 18 131q0 131 -129 131q-72 0 -142 -57t-126 -164.5t-84 -243.5l-98 -469h-236zM46 961q43 95 106 255t92 246h238l8 -22 q-37 -83 -110.5 -217.5t-155.5 -261.5h-178z" horiz-adv-x="1358" unicode="ŉ"/><glyph d="M68 0l309 1462h256l418 -1100h6q26 169 76 394l149 706h219l-309 -1462q-43 -200 -161 -303t-310 -103q-108 0 -172 25l4 203q87 -23 154 -23q206 0 260 201l-445 1163h-6q-45 -293 -72 -418l-157 -745h-219z" horiz-adv-x="1491" unicode="Ŋ"/><glyph d="M47 0l236 1106h184l-21 -205h9q83 118 171 171.5t191 53.5q134 0 207.5 -76t73.5 -216q0 -58 -23 -181l-155 -741q-34 -159 -80 -240t-119 -122.5t-180 -41.5q-76 0 -148 23v193q61 -23 117 -23q129 0 168 188l166 783q18 90 18 131q0 131 -129 131q-72 0 -142 -57 t-126 -164.5t-84 -243.5l-98 -469h-236z" horiz-adv-x="1208" unicode="ŋ"/><glyph d="M135 543q0 267 98.5 487.5t269.5 337.5t388 117q251 0 390.5 -149t139.5 -414q0 -279 -95 -497t-261.5 -331.5t-386.5 -113.5q-259 0 -401 149.5t-142 413.5zM383 545q0 -173 81.5 -267t227.5 -94q138 0 248.5 95.5t172 265t61.5 375.5q0 170 -79 265t-223 95 q-138 0 -250 -96t-175.5 -266.5t-63.5 -372.5zM628 1579l37 176h582l-37 -176h-582z" horiz-adv-x="1485" unicode="Ō"/><glyph d="M94 408q0 199 71.5 365t200.5 258.5t298 92.5q195 0 305 -116t110 -316q0 -202 -73 -367.5t-200.5 -254t-293.5 -88.5q-192 0 -305 114.5t-113 311.5zM332 403q0 -111 49.5 -170t146.5 -59q90 0 162 68t112 190.5t40 269.5q0 107 -49 167.5t-140 60.5q-93 0 -166.5 -71.5 t-114 -194t-40.5 -261.5zM403 1241l37 176h582l-37 -176h-582z" horiz-adv-x="1174" unicode="ō"/><glyph d="M135 543q0 267 98.5 487.5t269.5 337.5t388 117q251 0 390.5 -149t139.5 -414q0 -279 -95 -497t-261.5 -331.5t-386.5 -113.5q-259 0 -401 149.5t-142 413.5zM383 545q0 -173 81.5 -267t227.5 -94q138 0 248.5 95.5t172 265t61.5 375.5q0 170 -79 265t-223 95 q-138 0 -250 -96t-175.5 -266.5t-63.5 -372.5zM623 1827q0 36 4 55h135q0 -63 36.5 -94t123.5 -31q88 0 135.5 31t62.5 94h148q-31 -155 -120 -229t-241 -74q-133 0 -208.5 66t-75.5 182z" horiz-adv-x="1485" unicode="Ŏ"/><glyph d="M94 408q0 199 71.5 365t200.5 258.5t298 92.5q195 0 305 -116t110 -316q0 -202 -73 -367.5t-200.5 -254t-293.5 -88.5q-192 0 -305 114.5t-113 311.5zM332 403q0 -111 49.5 -170t146.5 -59q90 0 162 68t112 190.5t40 269.5q0 107 -49 167.5t-140 60.5q-93 0 -166.5 -71.5 t-114 -194t-40.5 -261.5zM413 1489q0 36 4 55h135q0 -63 36.5 -94t123.5 -31q88 0 135.5 31t62.5 94h148q-31 -155 -120 -229t-241 -74q-133 0 -208.5 66t-75.5 182z" horiz-adv-x="1174" unicode="ŏ"/><glyph d="M135 543q0 267 98.5 487.5t269.5 337.5t388 117q251 0 390.5 -149t139.5 -414q0 -279 -95 -497t-261.5 -331.5t-386.5 -113.5q-259 0 -401 149.5t-142 413.5zM383 545q0 -173 81.5 -267t227.5 -94q138 0 248.5 95.5t172 265t61.5 375.5q0 170 -79 265t-223 95 q-138 0 -250 -96t-175.5 -266.5t-63.5 -372.5zM645 1579v25q66 74 132.5 164t96.5 139h240v-19q-39 -51 -152.5 -155.5t-185.5 -153.5h-131zM1014 1579v25q119 133 231 303h238v-19q-52 -64 -158.5 -161t-177.5 -148h-133z" horiz-adv-x="1485" unicode="Ő"/><glyph d="M94 408q0 199 71.5 365t200.5 258.5t298 92.5q195 0 305 -116t110 -316q0 -202 -73 -367.5t-200.5 -254t-293.5 -88.5q-192 0 -305 114.5t-113 311.5zM332 403q0 -111 49.5 -170t146.5 -59q90 0 162 68t112 190.5t40 269.5q0 107 -49 167.5t-140 60.5q-93 0 -166.5 -71.5 t-114 -194t-40.5 -261.5zM397 1241v25q66 74 132.5 164t96.5 139h240v-19q-39 -51 -152.5 -155.5t-185.5 -153.5h-131zM766 1241v25q119 133 231 303h238v-19q-52 -64 -158.5 -161t-177.5 -148h-133z" horiz-adv-x="1174" unicode="ő"/><glyph d="M135 543q0 267 98.5 487.5t269.5 337.5t388 117q145 0 223 -23h760l-43 -205h-539l-84 -395h504l-43 -200h-504l-96 -459h539l-43 -203h-717q-84 -20 -170 -20q-259 0 -401 149.5t-142 413.5zM383 545q0 -173 81.5 -267t227.5 -94q74 0 139 27l222 1038q-68 31 -181 31 q-138 0 -250 -96t-175.5 -266.5t-63.5 -372.5z" horiz-adv-x="1798" unicode="Œ"/><glyph d="M94 410q0 206 73.5 372.5t201 254t293.5 87.5q237 0 335 -192q73 91 174 142.5t226 51.5q159 0 246.5 -74.5t87.5 -203.5q0 -183 -165.5 -285t-471.5 -102h-47l-3 -60q0 -111 56.5 -174t169.5 -63q69 0 134.5 17.5t176.5 66.5v-189q-91 -43 -175 -61t-181 -18 q-120 0 -212.5 46t-140.5 138q-137 -182 -374 -182q-186 0 -295 115.5t-109 312.5zM332 412q0 -116 48.5 -177t139.5 -61q143 0 229.5 146.5t86.5 381.5q0 111 -49.5 169.5t-139.5 58.5q-87 0 -157.5 -64t-114 -186.5t-43.5 -267.5zM1073 633h31q189 0 294 54t105 155 q0 48 -30 76t-87 28q-105 0 -192 -85.5t-121 -227.5z" horiz-adv-x="1788" unicode="œ"/><glyph d="M70 0l309 1462h338q223 0 342 -94.5t119 -290.5q0 -165 -86.5 -278.5t-257.5 -165.5l249 -633h-260l-207 584h-186l-123 -584h-237zM473 782h123q170 0 254 75t84 206q0 105 -59 151t-183 46h-119zM662 1579v25q97 108 225 303h264v-19q-54 -66 -158 -161.5t-175 -147.5 h-156z" horiz-adv-x="1206" unicode="Ŕ"/><glyph d="M47 0l236 1106h184l-21 -205h9q83 120 166 172.5t176 52.5q62 0 108 -12l-51 -219q-54 14 -102 14q-126 0 -225 -113t-138 -296l-106 -500h-236zM482 1241v25q97 108 225 303h264v-19q-54 -66 -158 -161.5t-175 -147.5h-156z" horiz-adv-x="836" unicode="ŕ"/><glyph d="M70 0l309 1462h338q223 0 342 -94.5t119 -290.5q0 -165 -86.5 -278.5t-257.5 -165.5l249 -633h-260l-207 584h-186l-123 -584h-237zM473 782h123q170 0 254 75t84 206q0 105 -59 151t-183 46h-119zM305 -426q87 156 135 301h222v-20q-29 -65 -93 -152.5t-129 -155.5h-135 v27z" horiz-adv-x="1206" unicode="Ŗ"/><glyph d="M47 0l236 1106h184l-21 -205h9q83 120 166 172.5t176 52.5q62 0 108 -12l-51 -219q-54 14 -102 14q-126 0 -225 -113t-138 -296l-106 -500h-236zM-100 -426q87 156 135 301h222v-20q-29 -65 -93 -152.5t-129 -155.5h-135v27z" horiz-adv-x="836" unicode="ŗ"/><glyph d="M70 0l309 1462h338q223 0 342 -94.5t119 -290.5q0 -165 -86.5 -278.5t-257.5 -165.5l249 -633h-260l-207 584h-186l-123 -584h-237zM473 782h123q170 0 254 75t84 206q0 105 -59 151t-183 46h-119zM479 1880v27h149q69 -58 162 -178q125 105 238 178h162v-27 q-80 -71 -169 -162.5t-122 -138.5h-248q-44 110 -172 301z" horiz-adv-x="1206" unicode="Ř"/><glyph d="M47 0l236 1106h184l-21 -205h9q83 120 166 172.5t176 52.5q62 0 108 -12l-51 -219q-54 14 -102 14q-126 0 -225 -113t-138 -296l-106 -500h-236zM296 1542v27h149q69 -58 162 -178q125 105 238 178h162v-27q-80 -71 -169 -162.5t-122 -138.5h-248q-44 110 -172 301z" horiz-adv-x="836" unicode="ř"/><glyph d="M39 55v224q173 -97 350 -97q137 0 216 58.5t79 162.5q0 69 -41 122.5t-172 136.5q-105 67 -155 122t-76.5 120.5t-26.5 144.5q0 128 61.5 227t174 153t253.5 54q205 0 381 -92l-86 -191q-161 78 -295 78q-109 0 -175 -58.5t-66 -152.5q0 -47 15 -82.5t46.5 -66 t134.5 -95.5q155 -97 214 -187.5t59 -207.5q0 -210 -144.5 -329t-398.5 -119q-210 0 -348 75zM614 1579v25q97 108 225 303h264v-19q-54 -66 -158 -161.5t-175 -147.5h-156z" horiz-adv-x="1057" unicode="Ś"/><glyph d="M14 47v203q153 -90 312 -90q97 0 157 40t60 109q0 51 -34.5 87.5t-141.5 97.5q-125 67 -176.5 136.5t-51.5 164.5q0 155 107 243t289 88q196 0 346 -84l-76 -176q-140 76 -266 76q-73 0 -118.5 -33t-45.5 -92q0 -45 33 -80t135 -90q105 -59 149 -101t67 -91.5t23 -114.5 q0 -173 -118 -266.5t-328 -93.5q-190 0 -322 67zM466 1241v25q97 108 225 303h264v-19q-54 -66 -158 -161.5t-175 -147.5h-156z" horiz-adv-x="922" unicode="ś"/><glyph d="M39 55v224q173 -97 350 -97q137 0 216 58.5t79 162.5q0 69 -41 122.5t-172 136.5q-105 67 -155 122t-76.5 120.5t-26.5 144.5q0 128 61.5 227t174 153t253.5 54q205 0 381 -92l-86 -191q-161 78 -295 78q-109 0 -175 -58.5t-66 -152.5q0 -47 15 -82.5t46.5 -66 t134.5 -95.5q155 -97 214 -187.5t59 -207.5q0 -210 -144.5 -329t-398.5 -119q-210 0 -348 75zM356 1579v25q138 128 201 195.5t90 107.5h248q38 -99 174 -303v-25h-152q-76 63 -161 178q-131 -110 -236 -178h-164z" horiz-adv-x="1057" unicode="Ŝ"/><glyph d="M14 47v203q153 -90 312 -90q97 0 157 40t60 109q0 51 -34.5 87.5t-141.5 97.5q-125 67 -176.5 136.5t-51.5 164.5q0 155 107 243t289 88q196 0 346 -84l-76 -176q-140 76 -266 76q-73 0 -118.5 -33t-45.5 -92q0 -45 33 -80t135 -90q105 -59 149 -101t67 -91.5t23 -114.5 q0 -173 -118 -266.5t-328 -93.5q-190 0 -322 67zM203 1241v25q138 128 201 195.5t90 107.5h248q38 -99 174 -303v-25h-152q-76 63 -161 178q-131 -110 -236 -178h-164z" horiz-adv-x="922" unicode="ŝ"/><glyph d="M39 55v224q173 -97 350 -97q137 0 216 58.5t79 162.5q0 69 -41 122.5t-172 136.5q-105 67 -155 122t-76.5 120.5t-26.5 144.5q0 128 61.5 227t174 153t253.5 54q205 0 381 -92l-86 -191q-161 78 -295 78q-109 0 -175 -58.5t-66 -152.5q0 -47 15 -82.5t46.5 -66 t134.5 -95.5q155 -97 214 -187.5t59 -207.5q0 -210 -144.5 -329t-398.5 -119q-210 0 -348 75zM152 -342q47 -14 96 -14q137 0 137 96q0 40 -35 61.5t-104 30.5l98 168h146l-50 -96q72 -25 104 -67t32 -101q0 -106 -82 -167t-224 -61q-64 0 -118 15v135z" horiz-adv-x="1057" unicode="Ş"/><glyph d="M14 47v203q153 -90 312 -90q97 0 157 40t60 109q0 51 -34.5 87.5t-141.5 97.5q-125 67 -176.5 136.5t-51.5 164.5q0 155 107 243t289 88q196 0 346 -84l-76 -176q-140 76 -266 76q-73 0 -118.5 -33t-45.5 -92q0 -45 33 -80t135 -90q105 -59 149 -101t67 -91.5t23 -114.5 q0 -173 -118 -266.5t-328 -93.5q-190 0 -322 67zM91 -342q47 -14 96 -14q137 0 137 96q0 40 -35 61.5t-104 30.5l98 168h146l-50 -96q72 -25 104 -67t32 -101q0 -106 -82 -167t-224 -61q-64 0 -118 15v135z" horiz-adv-x="922" unicode="ş"/><glyph d="M39 55v224q173 -97 350 -97q137 0 216 58.5t79 162.5q0 69 -41 122.5t-172 136.5q-105 67 -155 122t-76.5 120.5t-26.5 144.5q0 128 61.5 227t174 153t253.5 54q205 0 381 -92l-86 -191q-161 78 -295 78q-109 0 -175 -58.5t-66 -152.5q0 -47 15 -82.5t46.5 -66 t134.5 -95.5q155 -97 214 -187.5t59 -207.5q0 -210 -144.5 -329t-398.5 -119q-210 0 -348 75zM392 1880v27h149q69 -58 162 -178q125 105 238 178h162v-27q-80 -71 -169 -162.5t-122 -138.5h-248q-44 110 -172 301z" horiz-adv-x="1057" unicode="Š"/><glyph d="M14 47v203q153 -90 312 -90q97 0 157 40t60 109q0 51 -34.5 87.5t-141.5 97.5q-125 67 -176.5 136.5t-51.5 164.5q0 155 107 243t289 88q196 0 346 -84l-76 -176q-140 76 -266 76q-73 0 -118.5 -33t-45.5 -92q0 -45 33 -80t135 -90q105 -59 149 -101t67 -91.5t23 -114.5 q0 -173 -118 -266.5t-328 -93.5q-190 0 -322 67zM267 1542v27h149q69 -58 162 -178q125 105 238 178h162v-27q-80 -71 -169 -162.5t-122 -138.5h-248q-44 110 -172 301z" horiz-adv-x="922" unicode="š"/><glyph d="M176 1257l45 205h998l-43 -205h-381l-267 -1257h-237l264 1257h-379zM146 -342q47 -14 96 -14q137 0 137 96q0 40 -35 61.5t-104 30.5l98 168h146l-50 -96q72 -25 104 -67t32 -101q0 -106 -82 -167t-224 -61q-64 0 -118 15v135z" horiz-adv-x="1053" unicode="Ţ"/><glyph d="M92 928l21 110l190 82l129 232h146l-52 -246h279l-39 -178h-277l-122 -572q-13 -55 -13 -92q0 -43 25 -68.5t76 -25.5q68 0 151 31v-178q-35 -17 -95 -30t-120 -13q-274 0 -274 247q0 57 16 131l121 570h-162zM95 -342q47 -14 96 -14q137 0 137 96q0 40 -35 61.5 t-104 30.5l98 168h146l-50 -96q72 -25 104 -67t32 -101q0 -106 -82 -167t-224 -61q-64 0 -118 15v135z" horiz-adv-x="752" unicode="ţ"/><glyph d="M176 1257l45 205h998l-43 -205h-381l-267 -1257h-237l264 1257h-379zM432 1880v27h149q69 -58 162 -178q125 105 238 178h162v-27q-80 -71 -169 -162.5t-122 -138.5h-248q-44 110 -172 301z" horiz-adv-x="1053" unicode="Ť"/><glyph d="M92 928l21 110l190 82l129 232h146l-52 -246h279l-39 -178h-277l-122 -572q-13 -55 -13 -92q0 -43 25 -68.5t76 -25.5q68 0 151 31v-178q-35 -17 -95 -30t-120 -13q-274 0 -274 247q0 57 16 131l121 570h-162zM701 1237v26q80 144 137 301h221v-20q-33 -69 -101 -161.5 t-122 -145.5h-135z" horiz-adv-x="752" unicode="ť"/><glyph d="M168 637l43 194h254l90 426h-379l45 205h998l-43 -205h-381l-90 -426h264l-41 -194h-264l-136 -637h-237l133 637h-256z" horiz-adv-x="1053" unicode="Ŧ"/><glyph d="M37 541l33 164h135l49 223h-162l21 110l190 82l129 232h146l-52 -246h279l-39 -178h-277l-49 -223h240l-35 -164h-239l-39 -185q-13 -55 -13 -92q0 -43 25 -68.5t76 -25.5q68 0 151 31v-178q-35 -17 -95 -30t-120 -13q-274 0 -274 247q0 28 4 61t51 253h-135z" horiz-adv-x="752" unicode="ŧ"/><glyph d="M152 391q0 83 20 170l193 901h237l-192 -905q-21 -88 -21 -158q0 -102 59.5 -158.5t180.5 -56.5q145 0 230 80.5t124 261.5l199 936h237l-202 -956q-56 -267 -208 -396.5t-403 -129.5q-217 0 -335.5 106t-118.5 305zM539 1577q57 285 256 285q46 0 85 -17.5t72.5 -38 t63.5 -38t59 -17.5q40 0 65 26.5t48 86.5h137q-66 -285 -260 -285q-45 0 -82.5 17t-71.5 37.5t-65.5 37.5t-63.5 17q-38 0 -63 -27.5t-43 -83.5h-137z" horiz-adv-x="1399" unicode="Ũ"/><glyph d="M111 274q0 63 12 124.5t24 123.5l123 584h236l-129 -610q-31 -141 -31 -193q0 -133 127 -133q72 0 143 57t126 162.5t85 247.5l99 469h233l-233 -1106h-185l21 205h-8q-82 -116 -171 -170.5t-192 -54.5q-134 0 -207 76t-73 218zM375 1239q57 285 256 285q46 0 85 -17.5 t72.5 -38t63.5 -38t59 -17.5q40 0 65 26.5t48 86.5h137q-66 -285 -260 -285q-45 0 -82.5 17t-71.5 37.5t-65.5 37.5t-63.5 17q-38 0 -63 -27.5t-43 -83.5h-137z" horiz-adv-x="1208" unicode="ũ"/><glyph d="M152 391q0 83 20 170l193 901h237l-192 -905q-21 -88 -21 -158q0 -102 59.5 -158.5t180.5 -56.5q145 0 230 80.5t124 261.5l199 936h237l-202 -956q-56 -267 -208 -396.5t-403 -129.5q-217 0 -335.5 106t-118.5 305zM614 1579l37 176h582l-37 -176h-582z" horiz-adv-x="1399" unicode="Ū"/><glyph d="M111 274q0 63 12 124.5t24 123.5l123 584h236l-129 -610q-31 -141 -31 -193q0 -133 127 -133q72 0 143 57t126 162.5t85 247.5l99 469h233l-233 -1106h-185l21 205h-8q-82 -116 -171 -170.5t-192 -54.5q-134 0 -207 76t-73 218zM446 1241l37 176h582l-37 -176h-582z" horiz-adv-x="1208" unicode="ū"/><glyph d="M152 391q0 83 20 170l193 901h237l-192 -905q-21 -88 -21 -158q0 -102 59.5 -158.5t180.5 -56.5q145 0 230 80.5t124 261.5l199 936h237l-202 -956q-56 -267 -208 -396.5t-403 -129.5q-217 0 -335.5 106t-118.5 305zM619 1827q0 36 4 55h135q0 -63 36.5 -94t123.5 -31 q88 0 135.5 31t62.5 94h148q-31 -155 -120 -229t-241 -74q-133 0 -208.5 66t-75.5 182z" horiz-adv-x="1399" unicode="Ŭ"/><glyph d="M111 274q0 63 12 124.5t24 123.5l123 584h236l-129 -610q-31 -141 -31 -193q0 -133 127 -133q72 0 143 57t126 162.5t85 247.5l99 469h233l-233 -1106h-185l21 205h-8q-82 -116 -171 -170.5t-192 -54.5q-134 0 -207 76t-73 218zM453 1489q0 36 4 55h135q0 -63 36.5 -94 t123.5 -31q88 0 135.5 31t62.5 94h148q-31 -155 -120 -229t-241 -74q-133 0 -208.5 66t-75.5 182z" horiz-adv-x="1208" unicode="ŭ"/><glyph d="M152 391q0 83 20 170l193 901h237l-192 -905q-21 -88 -21 -158q0 -102 59.5 -158.5t180.5 -56.5q145 0 230 80.5t124 261.5l199 936h237l-202 -956q-56 -267 -208 -396.5t-403 -129.5q-217 0 -335.5 106t-118.5 305zM693 1802q0 103 65 164.5t168 61.5q104 0 171 -60.5 t67 -163.5q0 -104 -66 -165.5t-172 -61.5t-169.5 61t-63.5 164zM822 1802q0 -49 26.5 -76.5t77.5 -27.5q47 0 77 27.5t30 76.5q0 50 -30 78.5t-77 28.5q-45 0 -74.5 -28.5t-29.5 -78.5z" horiz-adv-x="1399" unicode="Ů"/><glyph d="M111 274q0 63 12 124.5t24 123.5l123 584h236l-129 -610q-31 -141 -31 -193q0 -133 127 -133q72 0 143 57t126 162.5t85 247.5l99 469h233l-233 -1106h-185l21 205h-8q-82 -116 -171 -170.5t-192 -54.5q-134 0 -207 76t-73 218zM524 1464q0 103 65 164.5t168 61.5 q104 0 171 -60.5t67 -163.5q0 -104 -66 -165.5t-172 -61.5t-169.5 61t-63.5 164zM653 1464q0 -49 26.5 -76.5t77.5 -27.5q47 0 77 27.5t30 76.5q0 50 -30 78.5t-77 28.5q-45 0 -74.5 -28.5t-29.5 -78.5z" horiz-adv-x="1208" unicode="ů"/><glyph d="M152 391q0 83 20 170l193 901h237l-192 -905q-21 -88 -21 -158q0 -102 59.5 -158.5t180.5 -56.5q145 0 230 80.5t124 261.5l199 936h237l-202 -956q-56 -267 -208 -396.5t-403 -129.5q-217 0 -335.5 106t-118.5 305zM631 1579v25q66 74 132.5 164t96.5 139h240v-19 q-39 -51 -152.5 -155.5t-185.5 -153.5h-131zM1000 1579v25q119 133 231 303h238v-19q-52 -64 -158.5 -161t-177.5 -148h-133z" horiz-adv-x="1399" unicode="Ű"/><glyph d="M111 274q0 63 12 124.5t24 123.5l123 584h236l-129 -610q-31 -141 -31 -193q0 -133 127 -133q72 0 143 57t126 162.5t85 247.5l99 469h233l-233 -1106h-185l21 205h-8q-82 -116 -171 -170.5t-192 -54.5q-134 0 -207 76t-73 218zM442 1241v25q66 74 132.5 164t96.5 139 h240v-19q-39 -51 -152.5 -155.5t-185.5 -153.5h-131zM811 1241v25q119 133 231 303h238v-19q-52 -64 -158.5 -161t-177.5 -148h-133z" horiz-adv-x="1208" unicode="ű"/><glyph d="M152 391q0 83 20 170l193 901h237l-192 -905q-21 -88 -21 -158q0 -102 59.5 -158.5t180.5 -56.5q145 0 230 80.5t124 261.5l199 936h237l-202 -956q-56 -267 -208 -396.5t-403 -129.5q-217 0 -335.5 106t-118.5 305zM465 -289q0 81 47.5 148t167.5 141h158 q-111 -88 -150.5 -145.5t-39.5 -108.5q0 -32 17 -48.5t46 -16.5q38 0 92 14v-141q-65 -21 -137 -21q-91 0 -146 47t-55 131z" horiz-adv-x="1399" unicode="Ų"/><glyph d="M111 274q0 63 12 124.5t24 123.5l123 584h236l-129 -610q-31 -141 -31 -193q0 -133 127 -133q72 0 143 57t126 162.5t85 247.5l99 469h233l-233 -1106h-185l21 205h-8q-82 -116 -171 -170.5t-192 -54.5q-134 0 -207 76t-73 218zM526 -289q0 81 47.5 148t167.5 141h158 q-111 -88 -150.5 -145.5t-39.5 -108.5q0 -32 17 -48.5t46 -16.5q38 0 92 14v-141q-65 -21 -137 -21q-91 0 -146 47t-55 131z" horiz-adv-x="1208" unicode="ų"/><glyph d="M203 1462h229l19 -850q0 -136 -13 -346h6q83 221 142 355l387 841h225l31 -839l3 -169l-3 -188h8q28 88 70 197.5t61 152.5l358 846h246l-655 -1462h-258l-37 842l-6 185l4 106h-6q-47 -144 -117 -291l-385 -842h-256zM735 1579v25q138 128 201 195.5t90 107.5h248 q38 -99 174 -303v-25h-152q-76 63 -161 178q-131 -110 -236 -178h-164z" horiz-adv-x="1788" unicode="Ŵ"/><glyph d="M121 1106h221l13 -646q-2 -87 -11 -245h6q66 176 109 272l278 619h254l19 -604l1 -53l-3 -234h6q17 50 57 158.5t63.5 163.5t251.5 569h244l-518 -1106h-268l-19 627l-1 70l3 200q-25 -62 -51.5 -125t-345.5 -772h-262zM516 1241v25q138 128 201 195.5t90 107.5h248 q38 -99 174 -303v-25h-152q-76 63 -161 178q-131 -110 -236 -178h-164z" horiz-adv-x="1540" unicode="ŵ"/><glyph d="M186 1462h242l154 -669l432 669h266l-623 -913l-114 -549h-238l119 553zM356 1579v25q138 128 201 195.5t90 107.5h248q38 -99 174 -303v-25h-152q-76 63 -161 178q-131 -110 -236 -178h-164z" horiz-adv-x="1092" unicode="Ŷ"/><glyph d="M-170 -285q75 -16 125 -16q74 0 134 43.5t124 155.5l51 92l-164 1116h232l63 -531q9 -62 16 -174.5t7 -181.5h6q86 215 135 313l293 574h254l-688 -1280q-90 -165 -196 -241.5t-249 -76.5q-76 0 -143 19v188zM238 1241v25q138 128 201 195.5t90 107.5h248 q38 -99 174 -303v-25h-152q-76 63 -161 178q-131 -110 -236 -178h-164z" horiz-adv-x="1004" unicode="ŷ"/><glyph d="M186 1462h242l154 -669l432 669h266l-623 -913l-114 -549h-238l119 553zM440 1718q0 60 35 98t98 38q48 0 76.5 -23.5t28.5 -71.5q0 -65 -35.5 -102t-93.5 -37q-47 0 -78 23.5t-31 74.5zM823 1718q0 60 35 98t98 38q48 0 76.5 -23.5t28.5 -71.5q0 -65 -35.5 -102 t-93.5 -37q-47 0 -78 23.5t-31 74.5z" horiz-adv-x="1092" unicode="Ÿ"/><glyph d="M-39 0l33 168l850 1087h-598l43 207h897l-35 -172l-852 -1085h645l-43 -205h-940zM635 1579v25q97 108 225 303h264v-19q-54 -66 -158 -161.5t-175 -147.5h-156z" horiz-adv-x="1092" unicode="Ź"/><glyph d="M-39 0l29 147l635 781h-439l39 178h705l-37 -170l-623 -758h486l-37 -178h-758zM501 1241v25q97 108 225 303h264v-19q-54 -66 -158 -161.5t-175 -147.5h-156z" horiz-adv-x="920" unicode="ź"/><glyph d="M-39 0l33 168l850 1087h-598l43 207h897l-35 -172l-852 -1085h645l-43 -205h-940zM627 1716q0 68 39 110t110 42q53 0 86 -26.5t33 -80.5q0 -71 -40.5 -112t-105.5 -41q-52 0 -87 26t-35 82z" horiz-adv-x="1092" unicode="Ż"/><glyph d="M-39 0l29 147l635 781h-439l39 178h705l-37 -170l-623 -758h486l-37 -178h-758zM476 1378q0 68 39 110t110 42q53 0 86 -26.5t33 -80.5q0 -71 -40.5 -112t-105.5 -41q-52 0 -87 26t-35 82z" horiz-adv-x="920" unicode="ż"/><glyph d="M-39 0l33 168l850 1087h-598l43 207h897l-35 -172l-852 -1085h645l-43 -205h-940zM445 1880v27h149q69 -58 162 -178q125 105 238 178h162v-27q-80 -71 -169 -162.5t-122 -138.5h-248q-44 110 -172 301z" horiz-adv-x="1092" unicode="Ž"/><glyph d="M-39 0l29 147l635 781h-439l39 178h705l-37 -170l-623 -758h486l-37 -178h-758zM298 1542v27h149q69 -58 162 -178q125 105 238 178h162v-27q-80 -71 -169 -162.5t-122 -138.5h-248q-44 110 -172 301z" horiz-adv-x="920" unicode="ž"/><glyph d="M-254 -279q64 -20 115 -20q62 0 108 50t68 155l274 1296q41 192 131 278.5t258 86.5q117 0 213 -43l-61 -176q-74 28 -135 28q-69 0 -111 -42.5t-63 -141.5l-279 -1317q-40 -191 -130.5 -279t-237.5 -88q-91 0 -150 23v190z" horiz-adv-x="647" unicode="ſ"/><glyph d="M-14 -279q64 -20 114 -20q62 0 108.5 50t67.5 155l193 915h-178l20 109l197 71l22 117q37 190 129.5 277.5t262.5 87.5q115 0 213 -43l-62 -176q-74 28 -135 28q-71 0 -112.5 -42.5t-61.5 -141.5l-23 -109h228l-37 -178h-227l-201 -946q-43 -192 -133.5 -279.5 t-235.5 -87.5q-90 0 -149 23v190z" unicode="ƒ"/><glyph d="M135 543q0 267 98.5 487.5t269.5 337.5t388 117q302 0 440 -213q72 37 110.5 107.5t53.5 176.5h246l8 -24q-41 -152 -129.5 -245.5t-230.5 -149.5q32 -102 32 -215q0 -279 -95 -497t-261.5 -331.5t-386.5 -113.5q-259 0 -401 149.5t-142 413.5zM383 545q0 -173 81.5 -267 t227.5 -94q138 0 248.5 95.5t172 265t61.5 375.5q0 170 -79 265t-223 95q-138 0 -250 -96t-175.5 -266.5t-63.5 -372.5z" horiz-adv-x="1522" unicode="Ơ"/><glyph d="M94 408q0 199 71.5 365t200.5 258.5t298 92.5q219 0 329 -145q71 28 115 96t68 199h239l8 -23q-40 -157 -125.5 -249.5t-242.5 -149.5q24 -71 24 -160q0 -202 -73 -367.5t-200.5 -254t-293.5 -88.5q-192 0 -305 114.5t-113 311.5zM332 403q0 -111 49.5 -170t146.5 -59 q90 0 162 68t112 190.5t40 269.5q0 107 -49 167.5t-140 60.5q-93 0 -166.5 -71.5t-114 -194t-40.5 -261.5z" horiz-adv-x="1233" unicode="ơ"/><glyph d="M152 393q0 72 20 168l193 901h237l-192 -907q-21 -90 -21 -147q0 -224 240 -224q147 0 232 83.5t122 258.5l199 936h237l-41 -192q84 23 130 93t65 193h244l10 -24q-47 -176 -171 -284.5t-310 -131.5l-129 -610q-57 -269 -208.5 -397.5t-400.5 -128.5q-218 0 -337 108 t-119 305z" horiz-adv-x="1532" unicode="Ư"/><glyph d="M109 276q0 66 26 191l135 639h236l-144 -674q-16 -76 -16 -125q0 -137 127 -137q112 0 210.5 127.5t143.5 339.5l99 469h233l-24 -119q80 19 127.5 87t68.5 200h244l8 -25q-44 -174 -168 -282t-313 -133l-176 -834h-185l21 205h-8q-82 -116 -171 -170.5t-192 -54.5 q-134 0 -208 76.5t-74 219.5z" horiz-adv-x="1360" unicode="ư"/><glyph d="M-260 -279q62 -20 117 -20q131 0 170 186l258 1219h233l-264 -1247q-38 -182 -128.5 -266.5t-238.5 -84.5q-93 0 -147 23v190zM126 1542v27h149q69 -58 162 -178q125 105 238 178h162v-27q-80 -71 -169 -162.5t-122 -138.5h-248q-44 110 -172 301z" horiz-adv-x="563" unicode="ǰ"/><glyph d="M-119 0l713 1315q-35 48 -35 129q0 103 65.5 164t168.5 61q104 0 170.5 -61t66.5 -162q0 -114 -84 -180l156 -1266h-234l-43 397h-483l-209 -397h-252zM451 604h358q-38 363 -42.5 433t-8.5 141h-21q-22 -51 -46.5 -103t-239.5 -471zM686 1444q0 -50 27 -77.5t80 -27.5 q46 0 75 27.5t29 77.5q0 49 -29 77.5t-75 28.5q-47 0 -77 -28.5t-30 -77.5zM725 1722v19q43 36 112 105t107 116h277v-14q-53 -49 -148.5 -113.5t-181.5 -112.5h-166z" horiz-adv-x="1210" unicode="Ǻ"/><glyph d="M94 367q0 202 69.5 378t191.5 278.5t268 102.5q97 0 167 -45.5t109 -132.5h10l62 158h180l-236 -1106h-182l21 176h-6q-158 -196 -349 -196q-141 0 -223 101.5t-82 285.5zM332 373q0 -102 40.5 -152.5t112.5 -50.5q82 0 161 77.5t130 207.5t51 284q0 88 -47 141.5 t-123 53.5q-85 0 -160 -77t-120 -209.5t-45 -274.5zM498 1421q0 103 65 164.5t168 61.5q104 0 171 -60.5t67 -163.5q0 -102 -65 -163.5t-173 -61.5q-106 0 -169.5 60.5t-63.5 162.5zM627 1421q0 -48 26 -76t78 -28q47 0 77 28t30 76q0 50 -30 78.5t-77 28.5q-46 0 -75 -28.5 t-29 -78.5zM670 1722v19q48 41 115 109t104 112h276v-14q-42 -41 -138 -107t-191 -119h-166z" horiz-adv-x="1182" unicode="ǻ"/><glyph d="M-121 0l930 1462h1020l-43 -205h-539l-84 -395h504l-43 -200h-502l-98 -459h539l-43 -203h-777l86 406h-432l-256 -406h-262zM528 614h344l138 643h-82zM1129 1579v25q97 108 225 303h264v-19q-54 -66 -158 -161.5t-175 -147.5h-156z" horiz-adv-x="1753" unicode="Ǽ"/><glyph d="M94 367q0 201 69 378t188.5 279t260.5 102q88 0 152 -43.5t108 -134.5h9l63 158h148l-25 -117q51 63 131 100t180 37q140 0 220.5 -76.5t80.5 -201.5q0 -182 -166.5 -284.5t-474.5 -102.5h-45l-4 -60q0 -117 60.5 -177t175.5 -60q125 0 305 84v-189q-175 -79 -344 -79 q-222 0 -305 137l-23 -117h-151l20 176h-8q-85 -106 -165.5 -151t-174.5 -45q-134 0 -209.5 103t-75.5 284zM332 373q0 -105 37 -154t96 -49q85 0 162.5 80.5t125.5 215.5t48 267q0 91 -38.5 146t-113.5 55q-85 0 -159.5 -80t-116 -211t-41.5 -270zM1022 633h31 q187 0 293 53.5t106 149.5q0 58 -34 84t-85 26q-103 0 -188.5 -86t-122.5 -227zM934 1241v25q97 108 225 303h264v-19q-54 -66 -158 -161.5t-175 -147.5h-156z" horiz-adv-x="1726" unicode="ǽ"/><glyph d="M109 18l129 160q-103 138 -103 365q0 267 98.5 487.5t269.5 337.5t388 117q189 0 317 -94l119 149l133 -104l-133 -166q94 -130 94 -348q0 -279 -95 -497t-261.5 -331.5t-386.5 -113.5q-193 0 -318 83l-118 -149zM377 545q0 -88 24 -164l668 836q-80 65 -197 65 q-141 0 -253 -93t-177 -265t-65 -379zM500 238q75 -56 194 -56q139 0 250.5 95.5t173.5 264.5t62 378q0 88 -19 143zM782 1579v25q97 108 225 303h264v-19q-54 -66 -158 -161.5t-175 -147.5h-156z" horiz-adv-x="1485" unicode="Ǿ"/><glyph d="M51 6l115 141q-70 104 -70 261q0 200 70.5 365t199.5 258t298 93q136 0 239 -61l86 108l125 -96l-100 -117q63 -100 63 -258q0 -208 -74 -376t-200.5 -255t-288.5 -87q-137 0 -235 59l-105 -131zM324 426q0 -39 8 -74l442 549q-45 35 -121 35q-141 0 -235 -145.5 t-94 -364.5zM408 201q41 -33 120 -33q89 0 163 66.5t116.5 184t42.5 257.5q0 45 -6 67zM571 1241v25q97 108 225 303h264v-19q-54 -66 -158 -161.5t-175 -147.5h-156z" horiz-adv-x="1174" unicode="ǿ"/><glyph d="M39 55v224q173 -97 350 -97q137 0 216 58.5t79 162.5q0 69 -41 122.5t-172 136.5q-105 67 -155 122t-76.5 120.5t-26.5 144.5q0 128 61.5 227t174 153t253.5 54q205 0 381 -92l-86 -191q-161 78 -295 78q-109 0 -175 -58.5t-66 -152.5q0 -47 15 -82.5t46.5 -66 t134.5 -95.5q155 -97 214 -187.5t59 -207.5q0 -210 -144.5 -329t-398.5 -119q-210 0 -348 75zM166 -426q87 156 135 301h222v-20q-29 -65 -93 -152.5t-129 -155.5h-135v27z" horiz-adv-x="1057" unicode="Ș"/><glyph d="M14 47v203q153 -90 312 -90q97 0 157 40t60 109q0 51 -34.5 87.5t-141.5 97.5q-125 67 -176.5 136.5t-51.5 164.5q0 155 107 243t289 88q196 0 346 -84l-76 -176q-140 76 -266 76q-73 0 -118.5 -33t-45.5 -92q0 -45 33 -80t135 -90q105 -59 149 -101t67 -91.5t23 -114.5 q0 -173 -118 -266.5t-328 -93.5q-190 0 -322 67zM101 -426q87 156 135 301h222v-20q-29 -65 -93 -152.5t-129 -155.5h-135v27z" horiz-adv-x="922" unicode="ș"/><glyph d="M176 1257l45 205h998l-43 -205h-381l-267 -1257h-237l264 1257h-379zM136 -426q87 156 135 301h222v-20q-29 -65 -93 -152.5t-129 -155.5h-135v27z" horiz-adv-x="1053" unicode="Ț"/><glyph d="M92 928l21 110l190 82l129 232h146l-52 -246h279l-39 -178h-277l-122 -572q-13 -55 -13 -92q0 -43 25 -68.5t76 -25.5q68 0 151 31v-178q-35 -17 -95 -30t-120 -13q-274 0 -274 247q0 57 16 131l121 570h-162zM58 -426q87 156 135 301h222v-20q-29 -65 -93 -152.5 t-129 -155.5h-135v27z" horiz-adv-x="752" unicode="ț"/><glyph d="M-260 -279q62 -20 117 -20q131 0 170 186l258 1219h233l-264 -1247q-38 -182 -128.5 -266.5t-238.5 -84.5q-93 0 -147 23v190z" horiz-adv-x="563" unicode="ȷ"/><glyph d="M115 961q43 95 106 255t92 246h238l8 -22q-37 -83 -110.5 -217.5t-155.5 -261.5h-178z" horiz-adv-x="393" unicode="ʼ"/><glyph d="M354 1241v25q138 128 201 195.5t90 107.5h248q38 -99 174 -303v-25h-152q-76 63 -161 178q-131 -110 -236 -178h-164z" horiz-adv-x="1135" unicode="ˆ"/><glyph d="M422 1542v27h149q69 -58 162 -178q125 105 238 178h162v-27q-80 -71 -169 -162.5t-122 -138.5h-248q-44 110 -172 301z" horiz-adv-x="1135" unicode="ˇ"/><glyph d="M395 1241l37 176h582l-37 -176h-582z" horiz-adv-x="1096" unicode="ˉ"/><glyph d="M453 1489q0 36 4 55h135q0 -63 36.5 -94t123.5 -31q88 0 135.5 31t62.5 94h148q-31 -155 -120 -229t-241 -74q-133 0 -208.5 66t-75.5 182z" horiz-adv-x="1135" unicode="˘"/><glyph d="M322 1378q0 68 39 110t110 42q53 0 86 -26.5t33 -80.5q0 -71 -40.5 -112t-105.5 -41q-52 0 -87 26t-35 82z" horiz-adv-x="553" unicode="˙"/><glyph d="M541 1464q0 103 65 164.5t168 61.5q104 0 171 -60.5t67 -163.5q0 -104 -66 -165.5t-172 -61.5t-169.5 61t-63.5 164zM670 1464q0 -49 26.5 -76.5t77.5 -27.5q47 0 77 27.5t30 76.5q0 50 -30 78.5t-77 28.5q-45 0 -74.5 -28.5t-29.5 -78.5z" horiz-adv-x="1182" unicode="˚"/><glyph d="M-160 -289q0 81 47.5 148t167.5 141h158q-111 -88 -150.5 -145.5t-39.5 -108.5q0 -32 17 -48.5t46 -16.5q38 0 92 14v-141q-65 -21 -137 -21q-91 0 -146 47t-55 131z" horiz-adv-x="397" unicode="˛"/><glyph d="M326 1239q57 285 256 285q46 0 85 -17.5t72.5 -38t63.5 -38t59 -17.5q40 0 65 26.5t48 86.5h137q-66 -285 -260 -285q-45 0 -82.5 17t-71.5 37.5t-65.5 37.5t-63.5 17q-38 0 -63 -27.5t-43 -83.5h-137z" horiz-adv-x="1135" unicode="˜"/><glyph d="M338 1241v25q66 74 132.5 164t96.5 139h240v-19q-39 -51 -152.5 -155.5t-185.5 -153.5h-131zM707 1241v25q119 133 231 303h238v-19q-52 -64 -158.5 -161t-177.5 -148h-133z" horiz-adv-x="1135" unicode="˝"/><glyph d="M-86 -350q0 103 63.5 164t169.5 61q104 0 172 -61t68 -162q0 -100 -64.5 -163.5t-175.5 -63.5q-108 0 -170.5 61t-62.5 164zM41 -350q0 -50 27 -78.5t79 -28.5q47 0 76 28.5t29 78.5q0 49 -29 76.5t-76 27.5q-46 0 -76 -27.5t-30 -76.5z" horiz-adv-x="682" unicode="˳"/><glyph d="M-754 1548v21h245q47 -154 132 -303v-25h-144q-65 63 -132 151.5t-101 155.5z" horiz-adv-x="0" unicode="̀"/><glyph d="M-564 1241v25q97 108 225 303h264v-19q-54 -66 -158 -161.5t-175 -147.5h-156z" horiz-adv-x="0" unicode="́"/><glyph d="M-869 1239q57 285 256 285q46 0 85 -17.5t72.5 -38t63.5 -38t59 -17.5q40 0 65 26.5t48 86.5h137q-66 -285 -260 -285q-45 0 -82.5 17t-71.5 37.5t-65.5 37.5t-63.5 17q-38 0 -63 -27.5t-43 -83.5h-137z" horiz-adv-x="0" unicode="̃"/><glyph d="M-592 1538v131q61 19 146 19q113 0 177 -44.5t64 -127.5q0 -160 -203 -213l-22 -91h-145l18 166q91 16 128.5 43t37.5 70q0 61 -90 61q-41 0 -111 -14z" horiz-adv-x="0" unicode="̉"/><glyph d="M-973 1548v21h234q42 -150 131 -303v-25h-133q-60 60 -129 149.5t-103 157.5zM-608 1548v21h233q42 -150 131 -303v-25h-133q-64 64 -131.5 153.5t-99.5 153.5z" horiz-adv-x="0" unicode="̏"/><glyph d="M-889 -283q0 68 39 110t109 42q54 0 86 -26.5t32 -80.5q0 -71 -39.5 -112t-105.5 -41q-51 0 -86 26t-35 82z" horiz-adv-x="0" unicode="̣"/><glyph d="M594 1241v29q94 182 164 370h233v-26q-35 -69 -109.5 -178t-146.5 -195h-141z" horiz-adv-x="1143" unicode="΄"/><glyph d="M395 1380q0 60 33 98t92 38q45 0 71.5 -23.5t26.5 -71.5q0 -65 -33 -102t-87 -37q-44 0 -73.5 23.5t-29.5 74.5zM655 1389v26q107 214 136 301h229v-20q-47 -75 -183 -227l-71 -80h-111zM872 1380q0 60 33.5 98t91.5 38q45 0 72 -23.5t27 -71.5q0 -65 -33.5 -102 t-87.5 -37q-43 0 -73 23.5t-30 74.5z" horiz-adv-x="1143" unicode="΅"/><glyph d="M-121 0l783 1464h274l166 -1464h-234l-41 406h-485l-209 -406h-254zM446 614h365q-40 416 -45.5 503.5t-5.5 139.5q-55 -139 -142 -307zM108 1136v29q94 182 164 370h233v-26q-35 -69 -109.5 -178t-146.5 -195h-141z" horiz-adv-x="1210" unicode="Ά"/><glyph d="M150 692q0 83 47 132.5t131 49.5q56 0 89.5 -31.5t33.5 -92.5q0 -78 -47.5 -129.5t-124.5 -51.5q-66 0 -97.5 35.5t-31.5 87.5z" horiz-adv-x="551" unicode="·"/><glyph d="M203 0l309 1462h776l-43 -205h-539l-84 -395h502l-41 -203h-504l-96 -456h539l-43 -203h-776zM52 1136v29q94 182 164 370h233v-26q-35 -69 -109.5 -178t-146.5 -195h-141z" horiz-adv-x="1227" unicode="Έ"/><glyph d="M220 0l309 1462h237l-127 -598h566l127 598h237l-309 -1462h-238l140 659h-566l-139 -659h-237zM52 1136v29q94 182 164 370h233v-26q-35 -69 -109.5 -178t-146.5 -195h-141z" horiz-adv-x="1563" unicode="Ή"/><glyph d="M234 0l311 1462h235l-311 -1462h-235zM65 1136v29q94 182 164 370h233v-26q-35 -69 -109.5 -178t-146.5 -195h-141z" horiz-adv-x="774" unicode="Ί"/><glyph d="M231 543q0 267 98.5 487.5t269.5 337.5t388 117q251 0 390.5 -149t139.5 -414q0 -279 -95 -497t-261.5 -331.5t-386.5 -113.5q-259 0 -401 149.5t-142 413.5zM479 545q0 -173 81.5 -267t227.5 -94q138 0 248.5 95.5t172 265t61.5 375.5q0 170 -79 265t-223 95 q-138 0 -250 -96t-175.5 -266.5t-63.5 -372.5zM77 1136v29q94 182 164 370h233v-26q-35 -69 -109.5 -178t-146.5 -195h-141z" horiz-adv-x="1581" unicode="Ό"/><glyph d="M481 1462h242l154 -669l432 669h266l-623 -913l-114 -549h-238l119 553zM52 1136v29q94 182 164 370h233v-26q-35 -69 -109.5 -178t-146.5 -195h-141z" horiz-adv-x="1389" unicode="Ύ"/><glyph d="M88 0l41 205h360q-102 85 -155 212.5t-53 284.5q0 225 92.5 406t255 279t375.5 98q170 0 292.5 -66t187 -190.5t64.5 -288.5q0 -233 -106.5 -421t-319.5 -314h365l-43 -205h-627l43 203q218 128 330.5 311t112.5 412q0 170 -82 262t-234 92q-132 0 -235.5 -72 t-164.5 -210.5t-61 -305.5q0 -159 43 -275t142 -214l-43 -203h-580zM87 1136v29q94 182 164 370h233v-26q-35 -69 -109.5 -178t-146.5 -195h-141z" horiz-adv-x="1618" unicode="Ώ"/><glyph d="M100 227q0 51 21 154l153 725h236l-156 -737q-14 -68 -14 -105q0 -94 96 -94q65 0 150 31v-178q-35 -17 -94.5 -30t-122.5 -13q-269 0 -269 247zM103 1380q0 60 33 98t92 38q45 0 71.5 -23.5t26.5 -71.5q0 -65 -33 -102t-87 -37q-44 0 -73.5 23.5t-29.5 74.5zM363 1389 v26q107 214 136 301h229v-20q-47 -75 -183 -227l-71 -80h-111zM580 1380q0 60 33.5 98t91.5 38q45 0 72 -23.5t27 -71.5q0 -65 -33.5 -102t-87.5 -37q-43 0 -73 23.5t-30 74.5z" horiz-adv-x="688" unicode="ΐ"/><glyph d="M-121 0l783 1464h274l166 -1464h-234l-41 406h-485l-209 -406h-254zM446 614h365q-40 416 -45.5 503.5t-5.5 139.5q-55 -139 -142 -307z" horiz-adv-x="1210" unicode="Α"/><glyph d="M70 0l309 1462h399q222 0 335.5 -84t113.5 -248q0 -146 -86.5 -243t-239.5 -127v-8q108 -28 167.5 -103.5t59.5 -183.5q0 -217 -150 -341t-417 -124h-491zM348 201h223q147 0 230.5 68t83.5 194q0 98 -60 149.5t-176 51.5h-200zM489 858h199q139 0 215 60.5t76 171.5 q0 172 -223 172h-181z" horiz-adv-x="1247" unicode="Β"/><glyph d="M70 0l309 1462h774l-43 -205h-539l-266 -1257h-235z" horiz-adv-x="1001" unicode="Γ"/><glyph d="M-55 0l28 141l684 1323h263l145 -1327l-31 -137h-1089zM244 205h592l-78 758q-15 163 -15 260q-36 -106 -110 -250z" horiz-adv-x="1190" unicode="Δ"/><glyph d="M70 0l309 1462h776l-43 -205h-539l-84 -395h502l-41 -203h-504l-96 -456h539l-43 -203h-776z" horiz-adv-x="1077" unicode="Ε"/><glyph d="M-39 0l33 168l850 1087h-598l43 207h897l-35 -172l-852 -1085h645l-43 -205h-940z" horiz-adv-x="1092" unicode="Ζ"/><glyph d="M70 0l309 1462h237l-127 -598h566l127 598h237l-309 -1462h-238l140 659h-566l-139 -659h-237z" horiz-adv-x="1411" unicode="Η"/><glyph d="M135 551q0 265 97.5 483t269 334.5t393.5 116.5q254 0 396.5 -153t142.5 -427q0 -265 -88 -477t-256.5 -330t-397.5 -118q-264 0 -410.5 152t-146.5 419zM383 549q0 -169 84 -267t233 -98q140 0 250.5 90t173 260.5t62.5 378.5q0 173 -82 270t-225 97q-146 0 -259 -94.5 t-175 -262t-62 -374.5zM518 643l41 201h490l-43 -201h-488z" horiz-adv-x="1497" unicode="Θ"/><glyph d="M70 0l311 1462h235l-311 -1462h-235z" horiz-adv-x="608" unicode="Ι"/><glyph d="M70 0l309 1462h237l-151 -706l141 166l492 540h284l-616 -669l321 -793h-262l-252 655l-149 -100l-117 -555h-237z" horiz-adv-x="1198" unicode="Κ"/><glyph d="M-121 0l774 1464h260l164 -1464h-231l-86 885q-15 136 -19 340q-23 -59 -66 -155.5t-73 -155.5t-469 -914h-254z" horiz-adv-x="1186" unicode="Λ"/><glyph d="M68 0l309 1462h323l109 -1149h6l606 1149h344l-305 -1462h-227l182 872q39 186 86 342h-6l-643 -1214h-205l-115 1214h-6q-9 -118 -55 -340l-184 -874h-219z" horiz-adv-x="1757" unicode="Μ"/><glyph d="M68 0l309 1462h268l399 -1149h7q6 54 31 192.5t40 203.5l160 753h219l-309 -1462h-260l-410 1163h-6l-10 -69q-24 -149 -35.5 -212.5t-183.5 -881.5h-219z" horiz-adv-x="1491" unicode="Ν"/><glyph d="M-35 0l41 203h897l-43 -203h-895zM225 662l43 200h654l-41 -200h-656zM270 1257l43 205h817l-43 -205h-817z" horiz-adv-x="1063" unicode="Ξ"/><glyph d="M135 543q0 267 98.5 487.5t269.5 337.5t388 117q251 0 390.5 -149t139.5 -414q0 -279 -95 -497t-261.5 -331.5t-386.5 -113.5q-259 0 -401 149.5t-142 413.5zM383 545q0 -173 81.5 -267t227.5 -94q138 0 248.5 95.5t172 265t61.5 375.5q0 170 -79 265t-223 95 q-138 0 -250 -96t-175.5 -266.5t-63.5 -372.5z" horiz-adv-x="1485" unicode="Ο"/><glyph d="M70 0l309 1462h1038l-309 -1462h-240l267 1257h-562l-266 -1257h-237z" horiz-adv-x="1407" unicode="Π"/><glyph d="M70 0l309 1462h334q229 0 345 -100.5t116 -300.5q0 -248 -169.5 -381t-472.5 -133h-110l-115 -547h-237zM465 748h94q178 0 275.5 79.5t97.5 225.5q0 109 -58.5 159t-179.5 50h-119z" horiz-adv-x="1174" unicode="Ρ"/><glyph d="M-37 0l39 190l537 562l-295 524l39 186h882l-43 -205h-616l291 -522l-504 -532h663l-43 -203h-950z" horiz-adv-x="1090" unicode="Σ"/><glyph d="M176 1257l45 205h998l-43 -205h-381l-267 -1257h-237l264 1257h-379z" horiz-adv-x="1053" unicode="Τ"/><glyph d="M186 1462h242l154 -669l432 669h266l-623 -913l-114 -549h-238l119 553z" horiz-adv-x="1092" unicode="Υ"/><glyph d="M135 676q0 287 184.5 451t518.5 176l36 180h230l-37 -180q226 -17 346.5 -138.5t120.5 -326.5q0 -186 -82 -327t-239.5 -221t-378.5 -85l-50 -225h-229l49 223q-225 17 -347 140t-122 333zM375 680q0 -127 67.5 -202.5t200.5 -80.5l152 709q-196 -4 -308 -118t-112 -308z M874 397q199 11 309.5 125.5t110.5 308.5q0 126 -70.5 199t-197.5 76z" horiz-adv-x="1597" unicode="Φ"/><glyph d="M-111 0l586 770l-250 692h246l178 -540l402 540h266l-551 -710l274 -752h-256l-192 592l-438 -592h-265z" horiz-adv-x="1151" unicode="Χ"/><glyph d="M188 838q0 83 23 202l90 422h236l-95 -450q-18 -96 -18 -150q0 -117 63.5 -170t194.5 -53h16l174 823h230l-174 -823h16q170 0 262 84t127 256l103 483h239l-108 -508q-55 -263 -217.5 -388.5t-434.5 -125.5h-28l-94 -440h-230l94 440h-14q-217 0 -336 105.5t-119 292.5z" horiz-adv-x="1587" unicode="Ψ"/><glyph d="M-39 0l41 205h360q-102 85 -155 212.5t-53 284.5q0 225 92.5 406t255 279t375.5 98q170 0 292.5 -66t187 -190.5t64.5 -288.5q0 -233 -106.5 -421t-319.5 -314h365l-43 -205h-627l43 203q218 128 330.5 311t112.5 412q0 170 -82 262t-234 92q-132 0 -235.5 -72 t-164.5 -210.5t-61 -305.5q0 -159 43 -275t142 -214l-43 -203h-580z" horiz-adv-x="1491" unicode="Ω"/><glyph d="M70 0l311 1462h235l-311 -1462h-235zM239 1718q0 60 35 98t98 38q48 0 76.5 -23.5t28.5 -71.5q0 -65 -35.5 -102t-93.5 -37q-47 0 -78 23.5t-31 74.5zM622 1718q0 60 35 98t98 38q48 0 76.5 -23.5t28.5 -71.5q0 -65 -35.5 -102t-93.5 -37q-47 0 -78 23.5t-31 74.5z" horiz-adv-x="608" unicode="Ϊ"/><glyph d="M186 1462h242l154 -669l432 669h266l-623 -913l-114 -549h-238l119 553zM461 1718q0 60 35 98t98 38q48 0 76.5 -23.5t28.5 -71.5q0 -65 -35.5 -102t-93.5 -37q-47 0 -78 23.5t-31 74.5zM844 1718q0 60 35 98t98 38q48 0 76.5 -23.5t28.5 -71.5q0 -65 -35.5 -102 t-93.5 -37q-47 0 -78 23.5t-31 74.5z" horiz-adv-x="1092" unicode="Ϋ"/><glyph d="M94 367q0 211 68 386.5t189 274t272 98.5q189 0 274 -180h8l20 39q42 82 81 121h194q-93 -187 -141 -387l-80 -344q-16 -68 -16 -131q0 -34 17 -52t46 -18q28 0 66 12v-178q-62 -28 -144 -28q-192 0 -213 186h-6q-84 -102 -162.5 -144t-171.5 -42q-142 0 -221.5 102.5 t-79.5 284.5zM332 379q0 -209 155 -209q84 0 160.5 83.5t124 217.5t47.5 262q0 91 -43.5 146t-122.5 55q-86 0 -159.5 -75t-117.5 -204t-44 -276zM633 1241v29q94 182 164 370h233v-26q-35 -69 -109.5 -178t-146.5 -195h-141z" horiz-adv-x="1202" unicode="ά"/><glyph d="M51 266q0 259 314 314v6q-78 31 -119 87.5t-41 131.5q0 150 116.5 235.5t315.5 85.5q212 0 360 -79l-77 -177q-139 72 -275 72q-110 0 -167.5 -41t-57.5 -113q0 -124 196 -124h129l-36 -179h-131q-135 0 -210 -44.5t-75 -131.5q0 -65 46.5 -104t149.5 -39q167 0 342 90 v-195q-159 -81 -380 -81q-186 0 -293 76t-107 210zM558 1241v29q94 182 164 370h233v-26q-35 -69 -109.5 -178t-146.5 -195h-141z" horiz-adv-x="981" unicode="έ"/><glyph d="M47 0l236 1106h184l-21 -205h9q83 118 171 171.5t191 53.5q134 0 207.5 -76t73.5 -216q0 -69 -23 -181l-244 -1145h-235l248 1164q18 90 18 131q0 131 -129 131q-72 0 -142 -57t-126 -164.5t-84 -243.5l-98 -469h-236zM631 1241v29q94 182 164 370h233v-26 q-35 -69 -109.5 -178t-146.5 -195h-141z" horiz-adv-x="1208" unicode="ή"/><glyph d="M100 227q0 51 21 154l153 725h236l-156 -737q-14 -68 -14 -105q0 -94 96 -94q65 0 150 31v-178q-35 -17 -94.5 -30t-122.5 -13q-269 0 -269 247zM331 1241v29q94 182 164 370h233v-26q-35 -69 -109.5 -178t-146.5 -195h-141z" horiz-adv-x="688" unicode="ί"/><glyph d="M125 348q0 71 25 189l120 569h234l-121 -569q-23 -103 -23 -175q0 -192 179 -192q177 0 268.5 237.5t91.5 698.5h236q0 -587 -154 -856.5t-461 -269.5q-191 0 -293 96t-102 272zM390 1380q0 60 33 98t92 38q45 0 71.5 -23.5t26.5 -71.5q0 -65 -33 -102t-87 -37 q-44 0 -73.5 23.5t-29.5 74.5zM650 1389v26q107 214 136 301h229v-20q-47 -75 -183 -227l-71 -80h-111zM867 1380q0 60 33.5 98t91.5 38q45 0 72 -23.5t27 -71.5q0 -65 -33.5 -102t-87.5 -37q-43 0 -73 23.5t-30 74.5z" horiz-adv-x="1221" unicode="ΰ"/><glyph d="M94 367q0 211 68 386.5t189 274t272 98.5q189 0 274 -180h8l20 39q42 82 81 121h194q-93 -187 -141 -387l-80 -344q-16 -68 -16 -131q0 -34 17 -52t46 -18q28 0 66 12v-178q-62 -28 -144 -28q-192 0 -213 186h-6q-84 -102 -162.5 -144t-171.5 -42q-142 0 -221.5 102.5 t-79.5 284.5zM332 379q0 -209 155 -209q84 0 160.5 83.5t124 217.5t47.5 262q0 91 -43.5 146t-122.5 55q-86 0 -159.5 -75t-117.5 -204t-44 -276z" horiz-adv-x="1202" unicode="α"/><glyph d="M-55 -492l340 1608q50 236 176 343.5t334 107.5q184 0 289.5 -92t105.5 -256q0 -336 -350 -406q125 -27 192.5 -114t67.5 -220q0 -143 -59.5 -256.5t-170.5 -178t-266 -64.5q-81 0 -152 19.5t-153 74.5l-119 -566h-235zM336 244q39 -32 102.5 -53t130.5 -21 q133 0 212 85.5t79 223.5q0 236 -252 236h-57l41 190h65q142 0 217.5 76t75.5 217q0 80 -44 130t-130 50q-100 0 -161.5 -67t-96.5 -224z" horiz-adv-x="1225" unicode="β"/><glyph d="M72 -492q43 236 182 504l-154 1094h232l59 -545q19 -165 19 -336h4q23 64 71.5 168.5t81.5 165.5l283 547h252l-567 -1043q-157 -283 -216 -555h-247z" horiz-adv-x="993" unicode="γ"/><glyph d="M63 371q0 209 128 355.5t372 209.5q-166 133 -166 297q0 151 110 242.5t294 91.5q96 0 188.5 -26.5t190.5 -88.5l-93 -168q-63 40 -134.5 70t-151.5 30q-84 0 -129 -39t-45 -108q0 -53 30 -96.5t144 -134.5q125 -102 184 -211.5t59 -239.5q0 -170 -68 -301t-195.5 -202.5 t-295.5 -71.5q-130 0 -225 48.5t-146 138.5t-51 204zM307 399q0 -108 51.5 -167.5t153.5 -59.5q129 0 209 107t80 272q0 177 -123 276q-170 -46 -270.5 -159.5t-100.5 -268.5z" horiz-adv-x="1167" unicode="δ"/><glyph d="M51 266q0 259 314 314v6q-78 31 -119 87.5t-41 131.5q0 150 116.5 235.5t315.5 85.5q212 0 360 -79l-77 -177q-139 72 -275 72q-110 0 -167.5 -41t-57.5 -113q0 -124 196 -124h129l-36 -179h-131q-135 0 -210 -44.5t-75 -131.5q0 -65 46.5 -104t149.5 -39q167 0 342 90 v-195q-159 -81 -380 -81q-186 0 -293 76t-107 210z" horiz-adv-x="981" unicode="ε"/><glyph d="M94 412q0 151 70 297t210.5 299t420.5 376q-100 -12 -224 -12h-221l41 184h721l-35 -157q-306 -253 -453 -408t-219.5 -288t-72.5 -259q0 -92 44 -148t148 -101q110 -48 157 -85t72 -84t25 -112q0 -75 -38.5 -147.5t-139.5 -165.5h-246q104 95 147.5 157.5t43.5 114.5 q0 40 -33 68.5t-131 70.5q-152 65 -219.5 158t-67.5 242z" horiz-adv-x="938" unicode="ζ"/><glyph d="M47 0l236 1106h184l-21 -205h9q83 118 171 171.5t191 53.5q134 0 207.5 -76t73.5 -216q0 -69 -23 -181l-244 -1145h-235l248 1164q18 90 18 131q0 131 -129 131q-72 0 -142 -57t-126 -164.5t-84 -243.5l-98 -469h-236z" horiz-adv-x="1208" unicode="η"/><glyph d="M98 418q0 193 49 413q93 399 240.5 573.5t376.5 174.5q176 0 265 -113.5t89 -337.5q0 -190 -54.5 -434.5t-138 -400.5t-199.5 -234.5t-267 -78.5q-178 0 -269.5 111.5t-91.5 326.5zM330 403q0 -121 36.5 -181t114.5 -60q117 0 197 134.5t143 403.5h-461 q-30 -166 -30 -297zM401 887h457q29 153 29 274q0 236 -146 236q-109 0 -193 -124.5t-147 -385.5z" horiz-adv-x="1155" unicode="θ"/><glyph d="M100 227q0 51 21 154l153 725h236l-156 -737q-14 -68 -14 -105q0 -94 96 -94q65 0 150 31v-178q-35 -17 -94.5 -30t-122.5 -13q-269 0 -269 247z" horiz-adv-x="688" unicode="ι"/><glyph d="M47 0l234 1106h235l-57 -262q-13 -53 -68 -246h4l492 508h272l-483 -485l291 -621h-262l-209 471l-136 -96l-77 -375h-236z" horiz-adv-x="1081" unicode="κ"/><glyph d="M-104 0l616 1069l-14 119q-11 93 -42.5 137.5t-99.5 44.5q-58 0 -102 -10l-29 188q73 21 164 21q154 0 230.5 -79t97.5 -257l110 -907q11 -83 32.5 -117.5t60.5 -34.5q31 0 67 12v-180q-61 -26 -149 -26q-100 0 -154 55.5t-68 181.5q-24 215 -37.5 332.5t-15.5 247.5 q-26 -60 -52 -123t-60 -125l-304 -549h-251z" horiz-adv-x="1079" unicode="λ"/><glyph d="M-55 -492l338 1598h235l-141 -670q-19 -84 -19 -129q0 -65 33 -101t96 -36q113 0 209.5 125.5t141.5 337.5l102 473h231l-235 -1106h-184l22 190h-10q-75 -111 -153 -160.5t-165 -49.5q-108 0 -155 81h-8q-9 -73 -39 -235l-66 -318h-233z" horiz-adv-x="1221" unicode="μ"/><glyph d="M100 1106h232l67 -621q10 -90 19 -276q153 155 254.5 364t173.5 533h237q-71 -365 -217.5 -627.5t-392.5 -478.5h-235z" horiz-adv-x="1063" unicode="ν"/><glyph d="M86 385q0 164 101.5 276.5t295.5 157.5v6q-100 27 -155.5 88.5t-55.5 151.5q0 111 87.5 195.5t240.5 123.5q-140 -12 -223 -12h-55l38 184h680l-36 -172h-15q-134 0 -245 -36t-173.5 -103t-62.5 -158q0 -188 266 -188h98l-36 -172h-76q-198 0 -317 -82t-119 -225 q0 -80 42 -129t158 -98q143 -63 195.5 -127t52.5 -150q0 -80 -42 -156t-136 -157h-248q115 107 152 163.5t37 106.5q0 42 -31.5 69.5t-134.5 71.5q-145 60 -214 148t-69 223z" horiz-adv-x="930" unicode="ξ"/><glyph d="M94 408q0 199 71.5 365t200.5 258.5t298 92.5q195 0 305 -116t110 -316q0 -202 -73 -367.5t-200.5 -254t-293.5 -88.5q-192 0 -305 114.5t-113 311.5zM332 403q0 -111 49.5 -170t146.5 -59q90 0 162 68t112 190.5t40 269.5q0 107 -49 167.5t-140 60.5q-93 0 -166.5 -71.5 t-114 -194t-40.5 -261.5z" horiz-adv-x="1174" unicode="ο"/><glyph d="M84 920l20 106l197 80h1083l-38 -186h-224l-125 -607q-10 -42 -10 -77q0 -68 72 -68q54 0 106 25v-177q-82 -36 -190 -36q-112 0 -169.5 55t-57.5 155q0 57 16 132l123 598h-336l-197 -920h-237l198 920h-231z" horiz-adv-x="1346" unicode="π"/><glyph d="M-55 -492l235 1113q56 268 181 386.5t335 118.5q192 0 297 -113t105 -321q0 -199 -68 -365.5t-186.5 -256.5t-270.5 -90q-165 0 -280 124q-10 -71 -21.5 -137t-93.5 -459h-233zM342 270q79 -100 203 -100q86 0 155.5 67t114.5 195.5t45 263.5q0 111 -43 174.5t-135 63.5 q-104 0 -168 -79.5t-102 -262.5z" horiz-adv-x="1194" unicode="ρ"/><glyph d="M94 434q0 191 79.5 356t211.5 250.5t295 85.5q158 0 293 -61l-70 -184q-122 53 -223 53q-93 0 -171 -59.5t-127.5 -172.5t-49.5 -239q0 -102 43.5 -163.5t161.5 -111.5q139 -58 191 -121.5t52 -154.5q0 -79 -41.5 -154.5t-136.5 -163.5h-248q87 82 138 149t51 130 q0 45 -32.5 73.5t-123.5 65.5q-157 65 -225 169t-68 253z" horiz-adv-x="938" unicode="ς"/><glyph d="M94 430q0 207 75.5 359.5t221.5 234.5t348 82h539l-37 -184h-276q94 -136 94 -328q0 -117 -41 -236.5t-113 -203t-172 -128t-221 -44.5q-201 0 -309.5 116.5t-108.5 331.5zM332 434q0 -260 196 -260q139 0 220 133t81 355q0 151 -57 260h-49q-185 0 -288 -130t-103 -358z" horiz-adv-x="1227" unicode="σ"/><glyph d="M84 920l20 106l195 80h690l-39 -186h-334l-114 -543q-17 -68 -17 -113q0 -43 25 -68.5t76 -25.5q68 0 151 31v-178q-35 -17 -94.5 -30t-120.5 -13q-274 0 -274 247q0 61 20 154l113 539h-297z" horiz-adv-x="938" unicode="τ"/><glyph d="M125 348q0 71 25 189l120 569h234l-121 -569q-23 -103 -23 -175q0 -192 179 -192q177 0 268.5 237.5t91.5 698.5h236q0 -587 -154 -856.5t-461 -269.5q-191 0 -293 96t-102 272z" horiz-adv-x="1221" unicode="υ"/><glyph d="M94 436q0 201 81 364.5t267 329.5l150 -137q-136 -134 -199 -264t-63 -278q0 -246 194 -279l105 498q37 177 87.5 270.5t128.5 139.5t191 46q160 0 249 -104.5t89 -292.5q0 -211 -80.5 -378.5t-230.5 -263t-354 -107.5l-99 -472h-227l102 478q-183 22 -287 141.5 t-104 308.5zM750 172q121 15 207.5 92t133 201.5t46.5 273.5q0 203 -111 203q-59 0 -95 -48.5t-59 -156.5z" horiz-adv-x="1468" unicode="φ"/><glyph d="M-246 -492l625 863l-57 407q-11 78 -34.5 110t-68.5 32q-24 0 -69 -15l-41 180q80 33 167 33q112 0 171.5 -65t78.5 -213l35 -267l365 533h254l-562 -782l70 -480q11 -75 37 -108t82 -33q45 0 90 14v-182q-76 -27 -162 -27q-115 0 -176.5 68t-81.5 221l-43 326l-420 -615 h-260z" horiz-adv-x="1079" unicode="χ"/><glyph d="M131 367q0 61 10 125l129 614h234l-119 -563q-18 -93 -18 -156q0 -102 54.5 -158t156.5 -63l292 1388h228l-293 -1384q224 28 328 247.5t104 688.5h236q0 -400 -75.5 -635t-232 -353.5t-401.5 -137.5l-100 -472h-228l101 472q-200 17 -303 117t-103 270z" horiz-adv-x="1559" unicode="ψ"/><glyph d="M94 362q0 178 66 369t188 375h240q-126 -188 -195 -376.5t-69 -360.5q0 -201 129 -201q79 0 125.5 67.5t74.5 192.5l64 301h225q-40 -188 -62 -291.5t-18 -128.5q0 -141 115 -141q81 0 146.5 80.5t104 231t38.5 321.5q0 162 -29 305h225q31 -142 31 -291 q0 -246 -66.5 -441.5t-182.5 -294.5t-269 -99q-199 0 -254 188q-62 -100 -137 -144t-176 -44q-147 0 -230.5 100t-83.5 282z" horiz-adv-x="1587" unicode="ω"/><glyph d="M100 227q0 51 21 154l153 725h236l-156 -737q-14 -68 -14 -105q0 -94 96 -94q65 0 150 31v-178q-35 -17 -94.5 -30t-122.5 -13q-269 0 -269 247zM144 1380q0 60 35 98t98 38q48 0 76.5 -23.5t28.5 -71.5q0 -65 -35.5 -102t-93.5 -37q-47 0 -78 23.5t-31 74.5zM527 1380 q0 60 35 98t98 38q48 0 76.5 -23.5t28.5 -71.5q0 -65 -35.5 -102t-93.5 -37q-47 0 -78 23.5t-31 74.5z" horiz-adv-x="688" unicode="ϊ"/><glyph d="M125 348q0 71 25 189l120 569h234l-121 -569q-23 -103 -23 -175q0 -192 179 -192q177 0 268.5 237.5t91.5 698.5h236q0 -587 -154 -856.5t-461 -269.5q-191 0 -293 96t-102 272zM425 1380q0 60 35 98t98 38q48 0 76.5 -23.5t28.5 -71.5q0 -65 -35.5 -102t-93.5 -37 q-47 0 -78 23.5t-31 74.5zM808 1380q0 60 35 98t98 38q48 0 76.5 -23.5t28.5 -71.5q0 -65 -35.5 -102t-93.5 -37q-47 0 -78 23.5t-31 74.5z" horiz-adv-x="1221" unicode="ϋ"/><glyph d="M94 408q0 199 71.5 365t200.5 258.5t298 92.5q195 0 305 -116t110 -316q0 -202 -73 -367.5t-200.5 -254t-293.5 -88.5q-192 0 -305 114.5t-113 311.5zM332 403q0 -111 49.5 -170t146.5 -59q90 0 162 68t112 190.5t40 269.5q0 107 -49 167.5t-140 60.5q-93 0 -166.5 -71.5 t-114 -194t-40.5 -261.5zM610 1241v29q94 182 164 370h233v-26q-35 -69 -109.5 -178t-146.5 -195h-141z" horiz-adv-x="1174" unicode="ό"/><glyph d="M125 348q0 71 25 189l120 569h234l-121 -569q-23 -103 -23 -175q0 -192 179 -192q177 0 268.5 237.5t91.5 698.5h236q0 -587 -154 -856.5t-461 -269.5q-191 0 -293 96t-102 272zM610 1241v29q94 182 164 370h233v-26q-35 -69 -109.5 -178t-146.5 -195h-141z" horiz-adv-x="1221" unicode="ύ"/><glyph d="M94 362q0 178 66 369t188 375h240q-126 -188 -195 -376.5t-69 -360.5q0 -201 129 -201q79 0 125.5 67.5t74.5 192.5l64 301h225q-40 -188 -62 -291.5t-18 -128.5q0 -141 115 -141q81 0 146.5 80.5t104 231t38.5 321.5q0 162 -29 305h225q31 -142 31 -291 q0 -246 -66.5 -441.5t-182.5 -294.5t-269 -99q-199 0 -254 188q-62 -100 -137 -144t-176 -44q-147 0 -230.5 100t-83.5 282zM819 1241v29q94 182 164 370h233v-26q-35 -69 -109.5 -178t-146.5 -195h-141z" horiz-adv-x="1587" unicode="ώ"/><glyph d="M82 639l4 174q97 39 188 39q88 0 137.5 -47t49.5 -129q0 -55 -13.5 -105t-29.5 -96.5t-29.5 -91t-13.5 -88.5q0 -129 143 -129t248 162.5t164 474.5q-249 7 -386.5 109.5t-137.5 281.5q0 174 110 278.5t289 104.5q188 0 288.5 -131.5t100.5 -374.5q0 -54 -4 -88h147 l-39 -178h-133q-42 -267 -135.5 -455t-227.5 -279t-304 -91q-165 0 -258 76t-93 208q0 48 13 94.5t28 90t28 84t13 75.5q0 58 -55 58q-20 0 -47 -8t-45 -19zM637 1202q0 -108 77 -162.5t238 -56.5q6 40 6 107q0 151 -42.5 228t-120.5 77q-75 0 -116.5 -51.5t-41.5 -141.5z" horiz-adv-x="1292" unicode="ϑ"/><glyph d="M186 1462h240l154 -669q119 225 225.5 393.5t184 228.5t175.5 60q72 0 133 -23l-45 -182q-40 10 -61 10q-49 0 -99 -52t-162 -228t-276 -461l-114 -539h-238l119 553z" horiz-adv-x="1110" unicode="ϒ"/><glyph d="M100 920l21 106l196 80h1500l-39 -186h-240q23 -100 23 -226q0 -195 -65.5 -365t-177 -259.5t-255.5 -89.5q-206 0 -256 194q-54 -91 -128 -142.5t-183 -51.5q-152 0 -235 97t-83 279q0 132 48.5 280t142.5 284h-269zM410 360q0 -92 31.5 -142t93.5 -50q76 0 125 65.5 t77 194.5l35 160h223l-30 -146q-19 -76 -19 -133q0 -141 115 -141q120 0 196 164.5t76 402.5q0 94 -14 185h-727q-182 -308 -182 -560z" horiz-adv-x="1772" unicode="ϖ"/><glyph d="M70 0l309 1462h776l-43 -205h-539l-84 -395h502l-41 -203h-504l-96 -456h539l-43 -203h-776zM526 1886v21h245q47 -154 132 -303v-25h-144q-65 63 -132 151.5t-101 155.5z" horiz-adv-x="1077" unicode="Ѐ"/><glyph d="M70 0l309 1462h776l-43 -205h-539l-84 -395h502l-41 -203h-504l-96 -456h539l-43 -203h-776zM487 1718q0 60 35 98t98 38q48 0 76.5 -23.5t28.5 -71.5q0 -65 -35.5 -102t-93.5 -37q-47 0 -78 23.5t-31 74.5zM870 1718q0 60 35 98t98 38q48 0 76.5 -23.5t28.5 -71.5 q0 -65 -35.5 -102t-93.5 -37q-47 0 -78 23.5t-31 74.5z" horiz-adv-x="1077" unicode="Ё"/><glyph d="M176 1257l45 205h950l-43 -205h-376l-74 -346h250q187 0 281 -84t94 -233q0 -96 -38 -273t-131 -259t-266 -82q-98 0 -166 28v203q63 -29 138 -29q85 0 130 46t66 147q21 100 24 132.5t3 55.5q0 71 -39.5 107.5t-132.5 36.5h-256l-150 -707h-239l268 1257h-338z" horiz-adv-x="1442" unicode="Ђ"/><glyph d="M70 0l309 1462h774l-43 -205h-539l-266 -1257h-235zM633 1579v25q97 108 225 303h264v-19q-54 -66 -158 -161.5t-175 -147.5h-156z" horiz-adv-x="1001" unicode="Ѓ"/><glyph d="M135 545q0 260 105.5 483t281.5 339t402 116q215 0 389 -92l-94 -195q-152 82 -295 82q-173 0 -303 -111t-193 -313h578l-41 -203h-576q-6 -31 -6 -106q0 -175 82 -268t244 -93q141 0 329 68v-205q-87 -33 -174.5 -50t-199.5 -17q-254 0 -391.5 149t-137.5 416z" horiz-adv-x="1225" unicode="Є"/><glyph d="M39 55v224q173 -97 350 -97q137 0 216 58.5t79 162.5q0 69 -41 122.5t-172 136.5q-105 67 -155 122t-76.5 120.5t-26.5 144.5q0 128 61.5 227t174 153t253.5 54q205 0 381 -92l-86 -191q-161 78 -295 78q-109 0 -175 -58.5t-66 -152.5q0 -47 15 -82.5t46.5 -66 t134.5 -95.5q155 -97 214 -187.5t59 -207.5q0 -210 -144.5 -329t-398.5 -119q-210 0 -348 75z" horiz-adv-x="1057" unicode="Ѕ"/><glyph d="M70 0l311 1462h235l-311 -1462h-235z" horiz-adv-x="608" unicode="І"/><glyph d="M70 0l311 1462h235l-311 -1462h-235zM239 1718q0 60 35 98t98 38q48 0 76.5 -23.5t28.5 -71.5q0 -65 -35.5 -102t-93.5 -37q-47 0 -78 23.5t-31 74.5zM622 1718q0 60 35 98t98 38q48 0 76.5 -23.5t28.5 -71.5q0 -65 -35.5 -102t-93.5 -37q-47 0 -78 23.5t-31 74.5z" horiz-adv-x="608" unicode="Ї"/><glyph d="M-322 -383l5 201q84 -21 153 -21q201 0 254 250l299 1415h238l-305 -1446q-46 -217 -161.5 -320.5t-312.5 -103.5q-104 0 -170 25z" horiz-adv-x="612" unicode="Ј"/><glyph d="M-63 2v201q60 -21 100 -21q68 0 112 31.5t85.5 103.5t94.5 225t124 402.5t141 517.5h756l-125 -594h88q226 0 345.5 -95t119.5 -281q0 -237 -154 -364.5t-440 -127.5h-381l264 1255h-295l-60 -225q-139 -513 -218 -704.5t-176 -268.5t-248 -77q-74 0 -133 22zM1081 199 h136q156 0 236.5 70t80.5 208q0 191 -227 191h-125z" horiz-adv-x="1890" unicode="Љ"/><glyph d="M70 0l309 1462h237l-124 -592h485l127 592h237l-124 -592h98q224 0 339 -95t115 -281q0 -239 -152 -366.5t-435 -127.5h-387l141 668h-487l-142 -668h-237zM1075 199h137q156 0 236 70t80 206q0 193 -228 193h-124z" horiz-adv-x="1884" unicode="Њ"/><glyph d="M176 1257l45 205h950l-43 -205h-376l-74 -346h250q372 0 372 -325q0 -68 -22 -172l-84 -414h-242l97 442q14 75 14 119q0 76 -43.5 111t-136.5 35h-248l-150 -707h-239l268 1257h-338z" horiz-adv-x="1442" unicode="Ћ"/><glyph d="M70 0l309 1462h237l-149 -698l623 698h278l-659 -727l383 -735h-267l-366 721l-152 -721h-237zM715 1579v25q97 108 225 303h264v-19q-54 -66 -158 -161.5t-175 -147.5h-156z" horiz-adv-x="1182" unicode="Ќ"/><glyph d="M70 0l309 1462h221q-183 -863 -209 -973t-39 -155h8l852 1128h285l-309 -1462h-219q112 532 173.5 827t74.5 322h-7l-854 -1149h-286zM666 1886v21h245q47 -154 132 -303v-25h-144q-65 63 -132 151.5t-101 155.5z" horiz-adv-x="1487" unicode="Ѝ"/><glyph d="M12 10v217q82 -39 183 -39q85 0 151.5 49t147.5 183l-297 1042h239l166 -637q39 -160 49 -221q50 118 97 199l374 659h264l-643 -1067q-107 -178 -183.5 -260t-161.5 -118.5t-197 -36.5q-110 0 -189 30zM412 1856q0 28 8 57h205l-4 -53q0 -133 172 -133q106 0 161.5 44.5 t75.5 141.5h217q-39 -174 -153.5 -254t-317.5 -80q-177 0 -270.5 69.5t-93.5 207.5z" horiz-adv-x="1198" unicode="Ў"/><glyph d="M70 0l309 1462h239l-266 -1257h561l267 1257h237l-309 -1462h-403l-87 -403h-231l86 403h-403z" horiz-adv-x="1407" unicode="Џ"/><glyph d="M-121 0l783 1464h274l166 -1464h-234l-41 406h-485l-209 -406h-254zM446 614h365q-40 416 -45.5 503.5t-5.5 139.5q-55 -139 -142 -307z" horiz-adv-x="1210" unicode="А"/><glyph d="M72 0l309 1462h776l-43 -205h-541l-81 -389h108q230 0 347.5 -96.5t117.5 -286.5q0 -234 -154.5 -359.5t-439.5 -125.5h-399zM348 199h148q163 0 245 69.5t82 202.5q0 197 -227 197h-147z" horiz-adv-x="1184" unicode="Б"/><glyph d="M70 0l309 1462h399q222 0 335.5 -84t113.5 -248q0 -146 -86.5 -243t-239.5 -127v-8q108 -28 167.5 -103.5t59.5 -183.5q0 -217 -150 -341t-417 -124h-491zM348 201h223q147 0 230.5 68t83.5 194q0 98 -60 149.5t-176 51.5h-200zM489 858h199q139 0 215 60.5t76 171.5 q0 172 -223 172h-181z" horiz-adv-x="1247" unicode="В"/><glyph d="M70 0l309 1462h774l-43 -205h-539l-266 -1257h-235z" horiz-adv-x="1001" unicode="Г"/><glyph d="M-182 -401l127 606h114q183 257 344.5 594.5t258.5 662.5h671l-266 -1257h186l-129 -606h-233l86 401h-846l-86 -401h-227zM326 205h497l226 1050h-226q-80 -244 -217 -540t-280 -510z" horiz-adv-x="1372" unicode="Д"/><glyph d="M70 0l309 1462h776l-43 -205h-539l-84 -395h502l-41 -203h-504l-96 -456h539l-43 -203h-776z" horiz-adv-x="1077" unicode="Е"/><glyph d="M-113 0l652 774l-322 688h244l313 -692l148 692h229l-147 -692l587 692h267l-627 -729l334 -733h-252l-320 725l-151 -725h-230l152 723l-602 -723h-275z" horiz-adv-x="1681" unicode="Ж"/><glyph d="M16 59v213q84 -46 189.5 -73t214.5 -27q173 0 269.5 73t96.5 201q0 115 -83.5 165.5t-237.5 50.5h-178l41 190h164q190 0 291.5 68t101.5 188q0 90 -55 135t-154 45q-173 0 -357 -121l-90 166q125 82 243 116t257 34q181 0 291 -91t110 -241q0 -160 -104 -263t-289 -128 v-4q137 -18 216 -103t79 -217q0 -214 -162 -335t-446 -121q-132 0 -229 19t-179 60z" horiz-adv-x="1155" unicode="З"/><glyph d="M70 0l309 1462h221q-183 -863 -209 -973t-39 -155h8l852 1128h285l-309 -1462h-219q112 532 173.5 827t74.5 322h-7l-854 -1149h-286z" horiz-adv-x="1487" unicode="И"/><glyph d="M70 0l309 1462h221q-183 -863 -209 -973t-39 -155h8l852 1128h285l-309 -1462h-219q112 532 173.5 827t74.5 322h-7l-854 -1149h-286zM565 1856q0 28 8 57h205l-4 -53q0 -133 172 -133q106 0 161.5 44.5t75.5 141.5h217q-39 -174 -153.5 -254t-317.5 -80 q-177 0 -270.5 69.5t-93.5 207.5z" horiz-adv-x="1487" unicode="Й"/><glyph d="M70 0l309 1462h237l-149 -698l623 698h278l-659 -727l383 -735h-267l-366 721l-152 -721h-237z" horiz-adv-x="1182" unicode="К"/><glyph d="M-63 2v201q55 -21 100 -21q68 0 112 31.5t85.5 103.5t94.5 225t124 402.5t141 517.5h786l-311 -1462h-238l269 1255h-328q-135 -520 -227.5 -793.5t-195.5 -379t-279 -105.5q-81 0 -133 25z" horiz-adv-x="1370" unicode="Л"/><glyph d="M68 0l309 1462h323l109 -1149h6l606 1149h344l-305 -1462h-227l182 872q39 186 86 342h-6l-643 -1214h-205l-115 1214h-6q-9 -118 -55 -340l-184 -874h-219z" horiz-adv-x="1757" unicode="М"/><glyph d="M70 0l309 1462h237l-127 -598h566l127 598h237l-309 -1462h-238l140 659h-566l-139 -659h-237z" horiz-adv-x="1411" unicode="Н"/><glyph d="M135 543q0 267 98.5 487.5t269.5 337.5t388 117q251 0 390.5 -149t139.5 -414q0 -279 -95 -497t-261.5 -331.5t-386.5 -113.5q-259 0 -401 149.5t-142 413.5zM383 545q0 -173 81.5 -267t227.5 -94q138 0 248.5 95.5t172 265t61.5 375.5q0 170 -79 265t-223 95 q-138 0 -250 -96t-175.5 -266.5t-63.5 -372.5z" horiz-adv-x="1485" unicode="О"/><glyph d="M70 0l309 1462h1038l-309 -1462h-240l267 1257h-562l-266 -1257h-237z" horiz-adv-x="1407" unicode="П"/><glyph d="M70 0l309 1462h334q229 0 345 -100.5t116 -300.5q0 -248 -169.5 -381t-472.5 -133h-110l-115 -547h-237zM465 748h94q178 0 275.5 79.5t97.5 225.5q0 109 -58.5 159t-179.5 50h-119z" horiz-adv-x="1174" unicode="Р"/><glyph d="M135 545q0 260 105.5 483t281.5 339t402 116q217 0 389 -92l-94 -195q-63 34 -134 58t-161 24q-154 0 -275 -89t-193.5 -259.5t-72.5 -374.5q0 -180 82.5 -275.5t243.5 -95.5q141 0 329 68v-205q-180 -67 -374 -67q-248 0 -388.5 148.5t-140.5 416.5z" horiz-adv-x="1225" unicode="С"/><glyph d="M176 1257l45 205h998l-43 -205h-381l-267 -1257h-237l264 1257h-379z" horiz-adv-x="1053" unicode="Т"/><glyph d="M12 10v217q82 -39 183 -39q85 0 151.5 49t147.5 183l-297 1042h239l166 -637q39 -160 49 -221q50 118 97 199l374 659h264l-643 -1067q-107 -178 -183.5 -260t-161.5 -118.5t-197 -36.5q-110 0 -189 30z" horiz-adv-x="1198" unicode="У"/><glyph d="M135 676q0 287 184.5 451t518.5 176l36 180h230l-37 -180q226 -17 346.5 -138.5t120.5 -326.5q0 -186 -82 -327t-239.5 -221t-378.5 -85l-50 -225h-229l49 223q-225 17 -347 140t-122 333zM375 680q0 -127 67.5 -202.5t200.5 -80.5l152 709q-196 -4 -308 -118t-112 -308z M874 397q199 11 309.5 125.5t110.5 308.5q0 126 -70.5 199t-197.5 76z" horiz-adv-x="1597" unicode="Ф"/><glyph d="M-111 0l586 770l-250 692h246l178 -540l402 540h266l-551 -710l274 -752h-256l-192 592l-438 -592h-265z" horiz-adv-x="1151" unicode="Х"/><glyph d="M68 0l309 1462h239l-266 -1257h547l266 1257h238l-268 -1261h188l-129 -604h-234l86 403h-976z" horiz-adv-x="1432" unicode="Ц"/><glyph d="M217 793q0 61 16 141l111 528h238l-107 -510q-16 -68 -16 -110q0 -144 168 -144q153 0 344 76l143 688h240l-310 -1462h-239l123 580q-188 -86 -373 -86q-162 0 -250 78.5t-88 220.5z" horiz-adv-x="1343" unicode="Ч"/><glyph d="M68 0l309 1462h244l-269 -1257h457l266 1257h244l-266 -1257h454l267 1257h241l-309 -1462h-1638z" horiz-adv-x="2005" unicode="Ш"/><glyph d="M68 0l309 1462h244l-269 -1257h457l266 1257h244l-266 -1257h454l267 1257h241l-266 -1261h186l-129 -604h-231l86 403h-1593z" horiz-adv-x="2046" unicode="Щ"/><glyph d="M176 1257l45 205h576l-127 -594h104q228 0 346.5 -96.5t118.5 -286.5q0 -233 -153.5 -359t-440.5 -126h-397l266 1257h-338zM528 199h140q163 0 245 69.5t82 202.5q0 105 -58 151t-169 46h-139z" horiz-adv-x="1352" unicode="Ъ"/><glyph d="M70 0l309 1462h237l-124 -594h88q227 0 345.5 -96t118.5 -287q0 -233 -153.5 -359t-439.5 -126h-381zM348 199h125q162 0 245 69t83 203q0 104 -58.5 150.5t-169.5 46.5h-124zM1139 0l309 1462h242l-310 -1462h-241z" horiz-adv-x="1679" unicode="Ы"/><glyph d="M70 0l309 1462h237l-124 -594h102q230 0 347.5 -96.5t117.5 -286.5q0 -234 -154.5 -359.5t-439.5 -125.5h-395zM348 199h141q162 0 245 69t83 203q0 197 -227 197h-141z" horiz-adv-x="1174" unicode="Ь"/><glyph d="M23 61v218q90 -47 175.5 -71t182.5 -24q396 0 502 467h-580l41 203h569l2 72q0 170 -79 261t-226 91q-71 0 -143 -15t-178 -55l-62 195q200 80 412 80q251 0 386.5 -144t135.5 -411q0 -285 -96 -504.5t-268 -331.5t-406 -112q-109 0 -198.5 18t-169.5 63z" horiz-adv-x="1225" unicode="Э"/><glyph d="M70 0l309 1462h237l-127 -598h291q71 289 253.5 455t434.5 166q235 0 367.5 -148.5t132.5 -414.5q0 -280 -89 -496.5t-247 -331t-370 -114.5q-249 0 -385 149t-136 414q0 65 7 116h-302l-139 -659h-237zM989 545q0 -175 75.5 -268t211.5 -93q128 0 228 91t159 260t59 385 q0 173 -74 266.5t-206 93.5q-128 0 -232 -95.5t-162.5 -266t-58.5 -373.5z" horiz-adv-x="2032" unicode="Ю"/><glyph d="M-100 0l514 664q-104 61 -149.5 141t-45.5 186q0 223 148.5 347t418.5 124h435l-310 -1462h-237l123 586h-174l-439 -586h-284zM467 997q0 -102 64.5 -157.5t179.5 -55.5h129l102 478h-160q-156 0 -235.5 -68.5t-79.5 -196.5z" horiz-adv-x="1210" unicode="Я"/><glyph d="M94 367q0 202 69.5 378t191.5 278.5t268 102.5q97 0 167 -45.5t109 -132.5h10l62 158h180l-236 -1106h-182l21 176h-6q-158 -196 -349 -196q-141 0 -223 101.5t-82 285.5zM332 373q0 -102 40.5 -152.5t112.5 -50.5q82 0 161 77.5t130 207.5t51 284q0 88 -47 141.5 t-123 53.5q-85 0 -160 -77t-120 -209.5t-45 -274.5z" horiz-adv-x="1186" unicode="а"/><glyph d="M104 451q0 222 67 441.5t180.5 362.5t258.5 195q67 27 240 61t346 56l27 -199l-106 -16q-335 -49 -438.5 -98.5t-173 -149.5t-108.5 -252h2q74 88 165.5 133t187.5 45q143 0 223 -94t80 -274q0 -198 -69.5 -357.5t-193 -242t-286.5 -82.5q-196 0 -299 120.5t-103 350.5z M342 442q0 -270 184 -270q81 0 145 59.5t105 174t41 239.5q0 201 -145 201q-75 0 -160.5 -55.5t-146.5 -143.5q-23 -113 -23 -205z" horiz-adv-x="1153" unicode="б"/><glyph d="M94 432q0 199 74 358.5t210 247.5t314 88q183 0 284 -75t101 -213q0 -220 -260 -279v-4q193 -52 193 -229q0 -100 -54.5 -178t-158.5 -123t-250 -45q-220 0 -336.5 116.5t-116.5 335.5zM330 420q0 -128 56.5 -196t168.5 -68q105 0 164 47.5t59 126.5q0 73 -56.5 109 t-182.5 36h-207l-2 -27v-28zM360 647h213q133 0 203 46t70 126q0 56 -39.5 91.5t-118.5 35.5q-119 0 -204 -79t-124 -220z" horiz-adv-x="1137" unicode="в"/><glyph d="M37 274q0 88 39.5 155t115.5 117t275 123q103 37 151 78t48 93q0 102 -138 102q-126 0 -284 -74l-60 174q189 84 377 84q166 0 254 -71t88 -205q0 -117 -71.5 -198t-247.5 -148q-178 -59 -240.5 -107.5t-62.5 -115.5q0 -58 43.5 -88.5t124.5 -30.5q85 0 165 26t154 60 v-189q-99 -46 -183.5 -62.5t-178.5 -16.5q-175 0 -272 77t-97 217z" horiz-adv-x="958" unicode="г"/><glyph d="M94 397q0 179 63 330t177.5 237.5t257.5 86.5q191 0 285 -179h6l2 34v28q0 232 -65.5 341t-205.5 109q-107 0 -208 -45l-54 181q63 27 143.5 42t151.5 15q473 0 473 -639q0 -270 -81.5 -496.5t-223.5 -344t-328 -117.5q-187 0 -290 110.5t-103 306.5zM332 393 q0 -106 46 -163.5t128 -57.5q122 0 212.5 134t131.5 368q-26 90 -83 142t-134 52q-83 0 -153 -62.5t-109 -172t-39 -240.5z" horiz-adv-x="1192" unicode="д"/><glyph d="M94 401q0 198 77.5 368.5t210 263.5t296.5 93q161 0 250.5 -72.5t89.5 -205.5q0 -182 -166.5 -284.5t-474.5 -102.5h-43l-2 -31v-29q0 -111 56.5 -174t168.5 -63q72 0 143 19t168 65v-187q-96 -44 -176.5 -62.5t-179.5 -18.5q-197 0 -307.5 111t-110.5 310zM362 633h29 q188 0 294 53.5t106 151.5q0 51 -32 79.5t-95 28.5q-96 0 -180.5 -86t-121.5 -227z" horiz-adv-x="1075" unicode="е"/><glyph d="M-29 -6l37 188q48 -12 90 -12q95 0 170 71t117.5 194t42.5 261q0 117 -44.5 177.5t-125.5 60.5q-56 0 -117 -21v191q76 22 158 22q173 0 269 -111t96 -315q0 -27 -5 -65h168l101 471h221l-102 -471h159q55 229 196.5 360t336.5 131q83 0 137 -14l-41 -188q-44 10 -94 10 q-90 0 -163.5 -65.5t-118 -190t-44.5 -268.5q0 -115 42.5 -177.5t125.5 -62.5q50 0 117 23v-193q-70 -20 -156 -20q-172 0 -268 108.5t-96 314.5v33l2 33h-170l-101 -469h-219l101 469h-158q-54 -227 -196 -358t-339 -131q-68 0 -129 14z" horiz-adv-x="1837" unicode="ж"/><glyph d="M10 51v203q170 -88 344 -88q128 0 199.5 47.5t71.5 130.5q0 72 -46.5 106.5t-146.5 34.5h-162l39 179h111q146 0 210 40t64 121q0 117 -164 117q-124 0 -297 -74l-61 174q196 84 397 84q171 0 265 -70t94 -196q0 -110 -67.5 -181.5t-190.5 -98.5v-7q90 -23 139 -81 t49 -148q0 -174 -133.5 -269t-374.5 -95q-92 0 -183.5 19t-156.5 52z" horiz-adv-x="983" unicode="з"/><glyph d="M111 274q0 63 12 124.5t24 123.5l123 584h236l-129 -610q-31 -141 -31 -193q0 -133 127 -133q72 0 143 57t126 162.5t85 247.5l99 469h233l-233 -1106h-185l21 205h-8q-82 -116 -171 -170.5t-192 -54.5q-134 0 -207 76t-73 218z" horiz-adv-x="1208" unicode="и"/><glyph d="M111 274q0 63 12 124.5t24 123.5l123 584h236l-129 -610q-31 -141 -31 -193q0 -133 127 -133q72 0 143 57t126 162.5t85 247.5l99 469h233l-233 -1106h-185l21 205h-8q-82 -116 -171 -170.5t-192 -54.5q-134 0 -207 76t-73 218zM363 1518q0 28 8 57h205l-4 -53 q0 -133 172 -133q106 0 161.5 44.5t75.5 141.5h217q-39 -174 -153.5 -254t-317.5 -80q-177 0 -270.5 69.5t-93.5 207.5z" horiz-adv-x="1208" unicode="й"/><glyph d="M47 0l236 1106h233l-110 -524l479 524h278l-514 -551l326 -555h-270l-308 545l-114 -545h-236z" horiz-adv-x="1079" unicode="к"/><glyph d="M-78 2v197q36 -15 76 -15q49 0 86 32.5t71.5 99t102.5 262.5q73 209 122.5 299.5t109.5 142t141 76t196 24.5q156 0 295 -43l-227 -1077h-236l197 920q-37 8 -70 8q-72 0 -119 -32t-87.5 -107t-114.5 -293q-87 -251 -140 -339.5t-122 -131.5t-166 -43q-64 0 -115 20z" horiz-adv-x="1180" unicode="л"/><glyph d="M41 0l235 1106h297l95 -678l16 -176q61 142 115 231l356 623h313l-235 -1106h-219l180 844q-2 -3 -3.5 -6.5t-465.5 -837.5h-176l-98 672q-12 77 -17 172l-178 -844h-215z" horiz-adv-x="1516" unicode="м"/><glyph d="M47 0l238 1106h233l-94 -444h442l95 444h233l-233 -1106h-236l100 477h-440l-102 -477h-236z" horiz-adv-x="1243" unicode="н"/><glyph d="M94 408q0 199 71.5 365t200.5 258.5t298 92.5q195 0 305 -116t110 -316q0 -202 -73 -367.5t-200.5 -254t-293.5 -88.5q-192 0 -305 114.5t-113 311.5zM332 403q0 -111 49.5 -170t146.5 -59q90 0 162 68t112 190.5t40 269.5q0 107 -49 167.5t-140 60.5q-93 0 -166.5 -71.5 t-114 -194t-40.5 -261.5z" horiz-adv-x="1174" unicode="о"/><glyph d="M47 0l236 1106h184l-21 -205h9q83 118 171 171.5t191 53.5q134 0 207.5 -76t73.5 -216q0 -69 -23 -181l-137 -653h-236l142 672q18 90 18 131q0 131 -129 131q-72 0 -142 -57t-126 -164.5t-84 -243.5l-98 -469h-236z" horiz-adv-x="1208" unicode="п"/><glyph d="M-55 -492l338 1598h184l-21 -188h9q157 208 344 208q143 0 224 -103t81 -286q0 -204 -70 -381.5t-190.5 -276.5t-265.5 -99q-181 0 -269 176h-10q-7 -97 -25 -185l-96 -463h-233zM369 373q0 -96 46.5 -149.5t131.5 -53.5t159 78.5t117 210t43 274.5q0 201 -155 201 q-81 0 -161 -79.5t-130.5 -210.5t-50.5 -271z" horiz-adv-x="1200" unicode="р"/><glyph d="M94 389q0 207 73.5 376.5t206.5 265t302 95.5q164 0 297 -61l-70 -184q-122 53 -221 53q-150 0 -250 -153.5t-100 -379.5q0 -111 56 -171t155 -60q74 0 138.5 22t129.5 54v-195q-140 -71 -305 -71q-196 0 -304 106t-108 303z" horiz-adv-x="954" unicode="с"/><glyph d="M47 0l236 1106h184l-21 -205h9q148 225 352 225q220 0 254 -235h8q75 116 170.5 175.5t198.5 59.5q133 0 202.5 -76.5t69.5 -215.5q0 -64 -22 -181l-140 -653h-235l143 672q19 95 19 133q0 129 -121 129q-108 0 -201.5 -124t-136.5 -329l-101 -481h-235l143 672 q17 82 17 127q0 135 -117 135q-110 0 -203.5 -127t-138.5 -338l-98 -469h-236z" horiz-adv-x="1819" unicode="т"/><glyph d="M-170 -285q75 -16 125 -16q74 0 134 43.5t124 155.5l51 92l-164 1116h232l63 -531q9 -62 16 -174.5t7 -181.5h6q86 215 135 313l293 574h254l-688 -1280q-90 -165 -196 -241.5t-249 -76.5q-76 0 -143 19v188z" horiz-adv-x="1004" unicode="у"/><glyph d="M94 451q0 188 82 340t227.5 235.5t337.5 91.5l93 438h221l-94 -438q196 -26 301.5 -147.5t105.5 -315.5q0 -190 -82 -342t-228 -236t-337 -95l-100 -474h-222l103 478q-194 23 -301 145.5t-107 319.5zM334 463q0 -127 55 -202.5t152 -86.5l161 758q-111 -7 -193 -66 t-128.5 -167.5t-46.5 -235.5zM762 174q109 10 190.5 69.5t128.5 168.5t47 237q0 124 -55 195t-151 84z" horiz-adv-x="1460" unicode="ф"/><glyph d="M-86 0l475 569l-231 537h245l144 -373l287 373h274l-461 -549l248 -557h-246l-160 387l-305 -387h-270z" horiz-adv-x="1032" unicode="х"/><glyph d="M109 274q0 68 26 193l135 639h236l-144 -674q-16 -76 -16 -129q0 -133 127 -133q112 0 210.5 127.5t143.5 339.5l99 469h233l-162 -768q-12 -58 -12 -92t18 -53t52 -19q33 0 84 14l-125 -579h-226l89 383q-59 21 -88 69.5t-35 128.5h-6q-147 -210 -357 -210 q-134 0 -208 76t-74 218z" horiz-adv-x="1243" unicode="ц"/><glyph d="M160 662q0 79 26 196l54 248h235l-59 -277q-19 -86 -19 -139q0 -71 37 -104t98 -33q122 0 204 106.5t132 327.5l27 119h233l-235 -1106h-236l64 305q12 60 28.5 117.5t28.5 105.5h-8q-135 -166 -326 -166q-139 0 -211.5 78t-72.5 222z" horiz-adv-x="1178" unicode="ч"/><glyph d="M109 272q0 64 22 181l139 653h236l-144 -672q-18 -90 -18 -133q0 -129 121 -129q108 0 201 124.5t137 328.5l100 481h236l-144 -672q-16 -80 -16 -127q0 -135 117 -135q110 0 202.5 126t139.5 339l98 469h236l-236 -1106h-184l20 205h-8q-148 -225 -352 -225 q-114 0 -176.5 62.5t-77.5 172.5h-8q-75 -116 -170.5 -175.5t-198.5 -59.5q-133 0 -202.5 76.5t-69.5 215.5z" horiz-adv-x="1819" unicode="ш"/><glyph d="M109 272q0 59 22 181l139 653h236l-144 -674q-18 -85 -18 -131q0 -129 121 -129q107 0 201 124t137 329l100 481h236l-144 -674q-16 -76 -16 -125q0 -68 27.5 -101.5t89.5 -33.5q110 0 202.5 126t139.5 339l98 469h236l-164 -768q-11 -57 -11 -92t19 -53.5t51 -18.5 q36 0 84 14l-125 -579h-225l88 383q-115 40 -127 201h-4q-147 -213 -346 -213q-114 0 -176.5 62.5t-77.5 172.5h-8q-75 -116 -170 -175.5t-199 -59.5q-133 0 -202.5 76.5t-69.5 215.5z" horiz-adv-x="1853" unicode="щ"/><glyph d="M88 920l39 186h584l-101 -467q107 25 219 25q164 0 254.5 -78.5t90.5 -218.5q0 -116 -56.5 -203.5t-164 -135.5t-257.5 -48q-189 0 -283 84t-94 235q0 77 25 188l92 433h-348zM553 313q0 -157 170 -157q99 0 158 50.5t59 137.5q0 74 -44 108.5t-138 34.5q-79 0 -183 -20 q-22 -104 -22 -154z" horiz-adv-x="1296" unicode="ъ"/><glyph d="M117 299q0 86 22 190l133 617h236l-100 -467q125 25 210 25q152 0 238 -78t86 -215q0 -179 -121.5 -285t-333.5 -106q-188 0 -279 84t-91 235zM350 311q0 -155 156 -155q93 0 148 51.5t55 138.5q0 77 -43 109t-127 32q-72 0 -168 -20q-6 -29 -10.5 -50.5t-6.5 -39.5 t-3 -33.5t-1 -32.5zM1042 0l234 1106h235l-235 -1106h-234z" horiz-adv-x="1561" unicode="ы"/><glyph d="M117 301q0 88 22 186l133 619h236l-102 -467q111 25 231 25q169 0 258.5 -78.5t89.5 -218.5q0 -115 -58 -202.5t-167.5 -136t-261.5 -48.5q-194 0 -287.5 84.5t-93.5 236.5zM348 313q0 -157 178 -157q106 0 166 50.5t60 137.5q0 74 -45.5 108.5t-137.5 34.5 q-91 0 -198 -20q-14 -67 -18.5 -93t-4.5 -61z" horiz-adv-x="1108" unicode="ь"/><glyph d="M25 31v202q134 -61 254 -61q124 0 209.5 74.5t117.5 228.5h-426l35 176h414v33q0 250 -209 250q-62 0 -116 -16.5t-109 -40.5l-66 174q159 75 328 75q197 0 303 -114.5t106 -331.5q0 -209 -69 -368t-201 -245.5t-315 -86.5q-79 0 -146.5 14.5t-109.5 36.5z" horiz-adv-x="961" unicode="э"/><glyph d="M47 0l238 1106h233l-94 -444h221q61 221 194.5 341.5t319.5 120.5q189 0 294.5 -114.5t105.5 -317.5q0 -202 -68 -366.5t-190.5 -254t-284.5 -89.5q-190 0 -296 113.5t-106 310.5l2 71h-231l-102 -477h-236zM848 403q0 -106 45 -167.5t139 -61.5q80 0 146.5 68.5 t104.5 190.5t38 269q0 110 -46.5 169t-127.5 59q-84 0 -151 -67.5t-107.5 -194.5t-40.5 -265z" horiz-adv-x="1655" unicode="ю"/><glyph d="M-33 2v191q36 -13 64 -13q44 0 75 27t68 100q50 94 93 135t95 58q-174 59 -174 243q0 168 121.5 265.5t333.5 97.5h440l-233 -1106h-234l93 424h-101q-63 0 -107.5 -33t-80.5 -105q-75 -146 -117.5 -199t-95 -78t-125.5 -25q-71 0 -115 18zM424 745q0 -75 48.5 -110 t131.5 -35h141l68 326h-186q-94 0 -148.5 -48t-54.5 -133z" horiz-adv-x="1135" unicode="я"/><glyph d="M94 401q0 198 77.5 368.5t210 263.5t296.5 93q161 0 250.5 -72.5t89.5 -205.5q0 -182 -166.5 -284.5t-474.5 -102.5h-43l-2 -31v-29q0 -111 56.5 -174t168.5 -63q72 0 143 19t168 65v-187q-96 -44 -176.5 -62.5t-179.5 -18.5q-197 0 -307.5 111t-110.5 310zM362 633h29 q188 0 294 53.5t106 151.5q0 51 -32 79.5t-95 28.5q-96 0 -180.5 -86t-121.5 -227zM395 1548v21h245q47 -154 132 -303v-25h-144q-65 63 -132 151.5t-101 155.5z" horiz-adv-x="1075" unicode="ѐ"/><glyph d="M94 401q0 198 77.5 368.5t210 263.5t296.5 93q161 0 250.5 -72.5t89.5 -205.5q0 -182 -166.5 -284.5t-474.5 -102.5h-43l-2 -31v-29q0 -111 56.5 -174t168.5 -63q72 0 143 19t168 65v-187q-96 -44 -176.5 -62.5t-179.5 -18.5q-197 0 -307.5 111t-110.5 310zM362 633h29 q188 0 294 53.5t106 151.5q0 51 -32 79.5t-95 28.5q-96 0 -180.5 -86t-121.5 -227zM384 1380q0 60 35 98t98 38q48 0 76.5 -23.5t28.5 -71.5q0 -65 -35.5 -102t-93.5 -37q-47 0 -78 23.5t-31 74.5zM767 1380q0 60 35 98t98 38q48 0 76.5 -23.5t28.5 -71.5q0 -65 -35.5 -102 t-93.5 -37q-47 0 -78 23.5t-31 74.5z" horiz-adv-x="1075" unicode="ё"/><glyph d="M47 0l258 1219h-155l36 163h154l37 174h235l-37 -174h324l-35 -163h-321l-17 -74q-21 -112 -71 -266h8q149 198 344 198q136 0 208 -78.5t72 -222.5q0 -76 -22 -172l-158 -743q-38 -183 -128.5 -268t-237.5 -85q-94 0 -148 23v193q59 -23 117 -23q129 0 168 188l156 734 q18 79 18 127q0 135 -127 135q-112 0 -209.5 -125t-142.5 -342l-90 -418h-236z" horiz-adv-x="1208" unicode="ђ"/><glyph d="M37 274q0 88 39.5 155t115.5 117t275 123q103 37 151 78t48 93q0 102 -138 102q-126 0 -284 -74l-60 174q189 84 377 84q166 0 254 -71t88 -205q0 -117 -71.5 -198t-247.5 -148q-178 -59 -240.5 -107.5t-62.5 -115.5q0 -58 43.5 -88.5t124.5 -30.5q85 0 165 26t154 60 v-189q-99 -46 -183.5 -62.5t-178.5 -16.5q-175 0 -272 77t-97 217zM514 1241v25q97 108 225 303h264v-19q-54 -66 -158 -161.5t-175 -147.5h-156z" horiz-adv-x="958" unicode="ѓ"/><glyph d="M94 391q0 207 75 380t205.5 264t301.5 91q164 0 297 -61l-70 -184q-122 53 -221 53q-112 0 -194 -75.5t-121 -207.5h419l-38 -176h-414l-2 -36v-38q0 -106 53 -168.5t158 -62.5q58 0 118 15.5t150 60.5v-195q-140 -71 -305 -71q-197 0 -304.5 107t-107.5 304z" horiz-adv-x="954" unicode="є"/><glyph d="M14 47v203q153 -90 312 -90q97 0 157 40t60 109q0 51 -34.5 87.5t-141.5 97.5q-125 67 -176.5 136.5t-51.5 164.5q0 155 107 243t289 88q196 0 346 -84l-76 -176q-140 76 -266 76q-73 0 -118.5 -33t-45.5 -92q0 -45 33 -80t135 -90q105 -59 149 -101t67 -91.5t23 -114.5 q0 -173 -118 -266.5t-328 -93.5q-190 0 -322 67z" horiz-adv-x="922" unicode="ѕ"/><glyph d="M47 0l236 1106h235l-235 -1106h-236zM330 1378q0 68 39 110t110 42q53 0 86 -26.5t33 -80.5q0 -71 -40 -112t-105 -41q-53 0 -88 26t-35 82z" horiz-adv-x="563" unicode="і"/><glyph d="M47 0l236 1106h235l-235 -1106h-236zM142 1380q0 60 35 98t98 38q48 0 76.5 -23.5t28.5 -71.5q0 -65 -35.5 -102t-93.5 -37q-47 0 -78 23.5t-31 74.5zM525 1380q0 60 35 98t98 38q48 0 76.5 -23.5t28.5 -71.5q0 -65 -35.5 -102t-93.5 -37q-47 0 -78 23.5t-31 74.5z" horiz-adv-x="563" unicode="ї"/><glyph d="M-262 -279q64 -20 117 -20q131 0 170 186l260 1219h233l-266 -1247q-38 -181 -127.5 -266t-237.5 -85q-90 0 -149 23v190zM332 1378q0 68 38 110t109 42q54 0 86.5 -26.5t32.5 -80.5q0 -71 -40 -112t-105 -41q-53 0 -87 25.5t-34 82.5z" horiz-adv-x="563" unicode="ј"/><glyph d="M-78 2v197q34 -15 76 -15q48 0 84.5 30.5t69 93t102.5 270.5q76 224 122 310t102 135.5t131 73t173 23.5q163 0 291 -45l-92 -436q128 25 219 25q163 0 253.5 -78t90.5 -219q0 -116 -56.5 -203.5t-164 -135.5t-256.5 -48q-189 0 -283 84t-94 235q0 77 25 188l92 435 q-33 6 -53 6q-61 0 -102 -30t-77 -99.5t-114 -302.5q-81 -246 -134 -335.5t-123 -134t-169 -44.5q-62 0 -113 20zM924 313q0 -157 170 -157q99 0 158 50.5t59 137.5q0 74 -44.5 108.5t-138.5 34.5q-78 0 -182 -20q-22 -104 -22 -154z" horiz-adv-x="1663" unicode="љ"/><glyph d="M53 0l238 1106h233l-94 -444h375l94 444h234l-101 -467q131 25 219 25q163 0 253.5 -78t90.5 -219q0 -116 -56.5 -203.5t-164 -135.5t-256.5 -48q-189 0 -283 84t-94 235q0 63 23 178h-373l-102 -477h-236zM975 313q0 -157 170 -157q99 0 158 50.5t59 137.5 q0 74 -44 108.5t-138 34.5q-79 0 -183 -20q-22 -104 -22 -154z" horiz-adv-x="1714" unicode="њ"/><glyph d="M47 0l260 1219h-157l36 163h154l37 174h235l-37 -174h324l-35 -163h-323l-84 -328h8q83 106 167 152.5t177 46.5q278 0 278 -314q0 -56 -20 -160l-131 -616h-234l136 635q16 71 16 127q0 131 -121 131q-73 0 -146.5 -57.5t-130 -162t-83.5 -241.5l-90 -432h-236z" horiz-adv-x="1208" unicode="ћ"/><glyph d="M47 0l236 1106h233l-110 -524l479 524h278l-514 -551l326 -555h-270l-308 545l-114 -545h-236zM608 1241v25q97 108 225 303h264v-19q-54 -66 -158 -161.5t-175 -147.5h-156z" horiz-adv-x="1079" unicode="ќ"/><glyph d="M111 274q0 63 12 124.5t24 123.5l123 584h236l-129 -610q-31 -141 -31 -193q0 -133 127 -133q72 0 143 57t126 162.5t85 247.5l99 469h233l-233 -1106h-185l21 205h-8q-82 -116 -171 -170.5t-192 -54.5q-134 0 -207 76t-73 218zM440 1548v21h245q47 -154 132 -303v-25 h-144q-65 63 -132 151.5t-101 155.5z" horiz-adv-x="1208" unicode="ѝ"/><glyph d="M-170 -285q75 -16 125 -16q74 0 134 43.5t124 155.5l51 92l-164 1116h232l63 -531q9 -62 16 -174.5t7 -181.5h6q86 215 135 313l293 574h254l-688 -1280q-90 -165 -196 -241.5t-249 -76.5q-76 0 -143 19v188zM249 1518q0 28 8 57h205l-4 -53q0 -133 172 -133 q106 0 161.5 44.5t75.5 141.5h217q-39 -174 -153.5 -254t-317.5 -80q-177 0 -270.5 69.5t-93.5 207.5z" horiz-adv-x="1004" unicode="ў"/><glyph d="M109 274q0 68 26 193l135 639h236l-144 -674q-16 -76 -16 -129q0 -133 127 -133q112 0 210.5 127.5t143.5 339.5l99 469h233l-233 -1106h-185l21 205h-8q-82 -116 -171 -170.5t-192 -54.5q-134 0 -208 76t-74 218zM289 -492l80 359l194 76h45l-94 -435h-225z" horiz-adv-x="1208" unicode="џ"/><glyph d="M139 506q0 268 90.5 503t233.5 353.5t336 118.5q176 0 293 -97l-109 -176q-41 29 -85 50.5t-99 21.5q-112 0 -204 -102t-151 -287t-59 -379q0 -156 56 -242t171 -86q103 0 161.5 65.5t86.5 188.5l53 246h238l-41 -203q-18 -86 -18 -139q0 -74 40.5 -116t120.5 -42 q127 0 226.5 99t167 303.5t67.5 412.5q0 141 -48.5 211t-139.5 70q-53 0 -98.5 -21t-98.5 -53l-88 178q147 97 320 97q192 0 295.5 -122.5t103.5 -354.5q0 -196 -54.5 -392.5t-151 -344.5t-218.5 -217.5t-279 -69.5q-236 0 -325 180q-62 -96 -147 -138t-205 -42 q-210 0 -325.5 136.5t-115.5 389.5z" horiz-adv-x="2023" unicode="Ѡ"/><glyph d="M102 1106h234l63 -625q12 -104 16 -204l3 -74l297 495l-45 408h229l54 -666l16 -227q144 160 236.5 358.5t166.5 534.5h238q-70 -361 -211.5 -626t-374.5 -480h-231l-45 422h-5l-243 -422h-262z" horiz-adv-x="1585" unicode="ѡ"/><glyph d="M135 1122l43 193h275l51 241h239l-53 -241h332l-41 -193h-332l-53 -254h104q226 0 344.5 -97t118.5 -286q0 -235 -161.5 -360t-464.5 -125h-363l238 1122h-277zM453 201h108q177 0 268 71.5t91 202.5q0 99 -58.5 145t-179.5 46h-129z" horiz-adv-x="1276" unicode="Ѣ"/><glyph d="M76 920l39 186h233l45 213h234l-45 -213h286l-39 -186h-286l-62 -281q109 25 230 25q167 0 258.5 -77.5t91.5 -219.5q0 -115 -59 -203.5t-170 -136t-261 -47.5q-195 0 -288 85t-93 236q0 77 25 188l92 431h-231zM424 313q0 -157 176 -157q106 0 166.5 51t60.5 137 q0 71 -44 107t-140 36q-90 0 -197 -20q-22 -104 -22 -154z" horiz-adv-x="1182" unicode="ѣ"/><glyph d="M70 0l309 1462h237l-127 -598h256q83 293 278 456t464 163q215 0 391 -92l-96 -195q-150 82 -295 82q-171 0 -301 -111.5t-189 -302.5h576l-41 -202h-578q-8 -46 -8 -117q0 -172 83 -266.5t233 -94.5q85 0 166.5 18.5t175.5 49.5v-205q-94 -36 -183.5 -51.5t-195.5 -15.5 q-247 0 -386 146t-139 415q0 64 7 118h-261l-139 -659h-237z" horiz-adv-x="1790" unicode="Ѥ"/><glyph d="M47 0l238 1106h233l-94 -444h223q64 220 206 342t337 122q162 0 299 -61l-70 -184q-48 20 -101.5 36.5t-119.5 16.5q-103 0 -184 -71.5t-125 -200.5h414l-39 -187h-414q-4 -31 -4 -74q0 -109 56.5 -170t156.5 -61q58 0 120.5 16.5t147.5 59.5v-195q-140 -71 -307 -71 q-196 0 -303 106t-107 305l4 86h-229l-102 -477h-236z" horiz-adv-x="1470" unicode="ѥ"/><glyph d="M-121 0l834 1464h258l221 -1464h-227l-88 659h-84l-136 -659h-219l142 659h-86l-365 -659h-250zM604 854h246l-16 123q-8 49 -17 137.5t-10 132.5q-25 -57 -55 -118t-148 -275z" horiz-adv-x="1300" unicode="Ѧ"/><glyph d="M-109 0l650 1106h286l189 -1106h-223l-68 459h-66l-90 -459h-215l105 459h-68l-260 -459h-240zM489 631h213q-31 193 -45 311q-55 -108 -168 -311z" horiz-adv-x="1135" unicode="ѧ"/><glyph d="M70 0l309 1462h233l-127 -598h392l342 600h260l219 -1464h-228l-88 659h-84l-135 -659h-219l141 659h-86l-362 -659h-252l377 659h-320l-139 -659h-233zM1110 854h246q-31 234 -35 282t-8 113q-28 -64 -60.5 -130.5t-142.5 -264.5z" horiz-adv-x="1806" unicode="Ѩ"/><glyph d="M47 0l236 1106h221l-94 -444h327l262 444h287l189 -1106h-224l-69 477h-60l-94 -477h-215l107 477h-60l-270 -477h-242l281 477h-258l-103 -477h-221zM965 659h192l-39 283z" horiz-adv-x="1593" unicode="ѩ"/><glyph d="M-84 0l229 492q61 129 116.5 196t127.5 105t174 49l-239 481l28 139h1116l-28 -141l-455 -485q91 -14 147.5 -57.5t85.5 -118t37 -209.5l29 -451h-235l-25 455q-7 121 -41 168t-109 47h-14l-137 -670h-240l140 670h-11q-85 0 -137.5 -46.5t-107.5 -168.5l-205 -455h-246z M590 1257l186 -387l340 387h-526z" horiz-adv-x="1423" unicode="Ѫ"/><glyph d="M-106 0l188 367q73 143 152 202t200 76l-211 356l21 105h958l-22 -105l-363 -358q69 -17 112 -52.5t67 -92.5t38 -168l43 -330h-211l-35 324q-9 87 -39 125.5t-96 42.5l-102 -492h-211l106 492q-69 0 -113 -32.5t-89 -119.5l-170 -340h-223zM471 930l150 -268l247 268 h-397z" horiz-adv-x="1210" unicode="ѫ"/><glyph d="M70 0l309 1462h237l-127 -598h582l-229 459l28 139h1117l-29 -141l-457 -485q94 -19 150 -61.5t84 -117t37 -213.5t28 -444h-233l-23 455q-9 215 -153 215h-13l-139 -670h-240l142 670h-13q-81 0 -132 -43t-109 -168l-207 -459h-248l213 455q65 138 127 204h-326 l-139 -659h-237zM1106 1257l186 -387l340 387h-526z" horiz-adv-x="1946" unicode="Ѭ"/><glyph d="M47 0l236 1106h221l-94 -444h479l-203 339l21 105h958l-20 -105l-365 -358q69 -18 113 -54t68.5 -94t37.5 -165l43 -330h-211l-35 324q-9 87 -39.5 125.5t-97.5 42.5l-102 -492h-211l106 492q-69 0 -112 -31.5t-88 -122.5l-170 -338h-226l181 348q47 90 96 129h-262 l-103 -477h-221zM936 930l147 -268l250 268h-397z" horiz-adv-x="1667" unicode="ѭ"/><glyph d="M-76 -164q0 154 103.5 230t373.5 110q217 29 301 93t84 182q0 113 -83.5 162t-237.5 49h-178l41 190h164q190 0 291.5 67t101.5 189q0 90 -55 135t-154 45q-173 0 -357 -121l-90 166q184 118 369 142q-38 74 -149 241v25h143q106 -116 151 -178q78 89 119.5 123.5 t83 52.5t90.5 18q50 0 90 -14v-131q-40 8 -67 8q-34 0 -71.5 -29t-119.5 -125q125 -30 193.5 -114.5t68.5 -200.5q0 -160 -104 -263t-289 -128v-4q136 -18 215.5 -101.5t79.5 -218.5q0 -203 -143 -316.5t-457 -144.5q-162 -17 -216 -41.5t-54 -76.5q0 -78 125 -78 q68 0 163 5t162 5q107 0 174 -35v-198q-65 38 -180 38l-179 -4l-187 -4q-149 0 -232.5 68.5t-83.5 181.5z" horiz-adv-x="1155" unicode="Ѯ"/><glyph d="M-94 -152q0 131 93 204.5t318 105.5q139 20 199.5 42.5t90.5 59t30 94.5q0 131 -193 131h-161l36 179h115q149 0 210 40t61 121q0 117 -164 117q-126 0 -295 -74l-64 174q143 59 256 74q-40 77 -133 209v27h144q77 -82 149 -176q100 118 161 156t128 38q49 0 94 -16v-131 q-30 10 -68 10q-36 0 -74 -28t-96 -99q197 -56 197 -246q0 -108 -67.5 -180.5t-192.5 -99.5v-7q93 -24 140.5 -83t47.5 -142q0 -111 -54.5 -183.5t-158.5 -116.5t-323 -73q-131 -18 -174 -42.5t-43 -67.5q0 -76 125 -76q78 0 151.5 5t145.5 5q111 0 168 -39v-186 q-67 39 -168 39l-161 -4l-171 -4q-141 0 -220 64.5t-79 178.5z" horiz-adv-x="993" unicode="ѯ"/><glyph d="M188 838q0 83 23 202l90 422h236l-95 -450q-18 -96 -18 -150q0 -117 63.5 -170t194.5 -53h16l174 823h230l-174 -823h16q170 0 262 84t127 256l103 483h239l-108 -508q-55 -263 -217.5 -388.5t-434.5 -125.5h-28l-94 -440h-230l94 440h-14q-217 0 -336 105.5t-119 292.5z" horiz-adv-x="1587" unicode="Ѱ"/><glyph d="M131 367q0 61 10 125l129 614h234l-119 -563q-18 -93 -18 -156q0 -102 54.5 -158t156.5 -63l292 1388h228l-293 -1384q224 28 328 247.5t104 688.5h236q0 -400 -75.5 -635t-232 -353.5t-401.5 -137.5l-100 -472h-228l101 472q-200 17 -303 117t-103 270z" horiz-adv-x="1559" unicode="ѱ"/><glyph d="M135 543q0 267 98.5 487.5t269.5 337.5t388 117q251 0 390.5 -149t139.5 -414q0 -279 -95 -497t-261.5 -331.5t-386.5 -113.5q-259 0 -401 149.5t-142 413.5zM381 545q0 -171 82 -266t229 -95q155 0 276.5 121.5t174.5 339.5h-756q-6 -44 -6 -100zM424 848h747q5 35 5 72 q0 169 -80.5 264.5t-223.5 95.5q-152 0 -272 -114.5t-176 -317.5z" horiz-adv-x="1485" unicode="Ѳ"/><glyph d="M94 408q0 199 71.5 365t200.5 258.5t298 92.5q193 0 304 -113.5t111 -310.5q0 -204 -74 -373t-201 -257t-290 -88q-192 0 -306 115t-114 311zM328 401q0 -111 51.5 -171t148.5 -60q98 0 176 81.5t113 221.5h-485q-4 -27 -4 -72zM365 651h479v51q0 113 -48.5 172.5 t-142.5 59.5q-98 0 -174 -76.5t-114 -206.5z" horiz-adv-x="1174" unicode="ѳ"/><glyph d="M186 1462h232l74 -893q11 -154 11 -249l-1 -70h6q51 150 125 307l244 516q98 203 150.5 271t114.5 99.5t148 31.5q66 0 135 -23v-192q-47 18 -98 18q-61 0 -107 -51t-110 -178l-520 -1049h-260z" horiz-adv-x="1237" unicode="Ѵ"/><glyph d="M98 1106h234l55 -586q9 -110 14 -305h7q49 139 122 291l148 309q63 131 109 188t101.5 84t129.5 27q62 0 104 -18v-178q-36 12 -71 12q-48 0 -78.5 -34t-59.5 -93l-405 -803h-277z" horiz-adv-x="1010" unicode="ѵ"/><glyph d="M186 1462h232l74 -893q11 -154 11 -249l-1 -70h6q51 150 125 307l244 516q98 203 150.5 271t114.5 99.5t148 31.5q66 0 135 -23v-192q-47 18 -98 18q-61 0 -107 -51t-110 -178l-520 -1049h-260zM321 1886v21h234q42 -150 131 -303v-25h-133q-60 60 -129 149.5t-103 157.5 zM686 1886v21h233q42 -150 131 -303v-25h-133q-64 64 -131.5 153.5t-99.5 153.5z" horiz-adv-x="1237" unicode="Ѷ"/><glyph d="M98 1106h234l55 -586q9 -110 14 -305h7q49 139 122 291l148 309q63 131 109 188t101.5 84t129.5 27q62 0 104 -18v-178q-36 12 -71 12q-48 0 -78.5 -34t-59.5 -93l-405 -803h-277zM151 1548v21h234q42 -150 131 -303v-25h-133q-60 60 -129 149.5t-103 157.5zM516 1548v21 h233q42 -150 131 -303v-25h-133q-64 64 -131.5 153.5t-99.5 153.5z" horiz-adv-x="1010" unicode="ѷ"/><glyph d="M135 543q0 267 98.5 487.5t269.5 337.5t388 117q251 0 390.5 -149t139.5 -414q0 -279 -95 -497t-261.5 -331.5t-386.5 -113.5q-259 0 -401 149.5t-142 413.5zM383 545q0 -173 81.5 -267t227.5 -94q138 0 248.5 95.5t172 265t61.5 375.5q0 170 -79 265t-223 95 q-138 0 -250 -96t-175.5 -266.5t-63.5 -372.5zM1309 -285q75 -16 125 -16q74 0 134 43.5t124 155.5l51 92l-164 1116h232l63 -531q9 -62 16 -174.5t7 -181.5h6q86 215 135 313l293 574h254l-688 -1280q-90 -165 -196 -241.5t-249 -76.5q-76 0 -143 19v188z" horiz-adv-x="2482" unicode="Ѹ"/><glyph d="M94 408q0 199 71.5 365t200.5 258.5t298 92.5q195 0 305 -116t110 -316q0 -202 -73 -367.5t-200.5 -254t-293.5 -88.5q-192 0 -305 114.5t-113 311.5zM332 403q0 -111 49.5 -170t146.5 -59q90 0 162 68t112 190.5t40 269.5q0 107 -49 167.5t-140 60.5q-93 0 -166.5 -71.5 t-114 -194t-40.5 -261.5zM940 -285q75 -16 125 -16q74 0 134 43.5t124 155.5l51 92l-164 1116h232l63 -531q9 -62 16 -174.5t7 -181.5h6q86 215 135 313l293 574h254l-688 -1280q-90 -165 -196 -241.5t-249 -76.5q-76 0 -143 19v188z" horiz-adv-x="2114" unicode="ѹ"/><glyph d="M135 580q0 231 82.5 428t231 318.5t342.5 148.5q17 57 52 83.5t95 26.5q59 0 91 -31.5t34 -87.5q191 -41 298 -191t107 -388q0 -240 -78.5 -435.5t-226.5 -316.5t-348 -147q-17 -59 -51.5 -86t-93.5 -27q-60 0 -91.5 33.5t-33.5 89.5q-196 42 -303 194t-107 388zM383 584 q0 -147 51 -242.5t150 -132.5q49 72 137 72q45 0 75.5 -20.5t41.5 -57.5q172 47 277.5 235.5t105.5 446.5q0 284 -197 368q-49 -75 -137 -75q-98 0 -121 82q-170 -51 -276.5 -238t-106.5 -438z" horiz-adv-x="1532" unicode="Ѻ"/><glyph d="M94 436q0 171 58 316t168 240.5t255 121.5q16 48 48.5 69t85.5 21q48 0 76 -24.5t34 -67.5q155 -34 240.5 -150t85.5 -290q0 -269 -126 -452.5t-345 -227.5q-16 -53 -49 -78t-88 -25q-51 0 -80.5 28.5t-32.5 76.5q-155 30 -242.5 146.5t-87.5 295.5zM332 430 q0 -93 31.5 -154.5t93.5 -82.5q47 65 123 65q69 0 102 -61q102 42 162.5 171t60.5 312q0 81 -27 142t-85 87q-23 -40 -53 -56.5t-72 -16.5q-83 0 -105 69q-104 -46 -167.5 -176t-63.5 -299z" horiz-adv-x="1239" unicode="ѻ"/><glyph d="M139 506q0 266 86 498.5t232.5 354.5t341.5 122q176 0 293 -97l-109 -176q-41 29 -85 50.5t-99 21.5q-115 0 -206.5 -103t-149.5 -287t-58 -378q0 -328 229 -328q86 0 175 46.5t161 129.5q116 -176 293 -176q141 0 244 112.5t165 310.5t62 392q0 141 -48.5 211t-139.5 70 q-53 0 -98.5 -21t-98.5 -53l-88 178q147 97 320 97q192 0 295.5 -122.5t103.5 -354.5q0 -276 -96 -524.5t-249 -374t-368 -125.5q-200 0 -329 120q-87 -66 -168.5 -93t-176.5 -27q-208 0 -321 138t-113 388zM877 1868q20 139 95.5 207.5t192.5 68.5q61 0 117.5 -18.5 t112 -41t113 -41t122.5 -18.5h29l-33 -157h-33q-76 0 -135.5 17.5t-110.5 38.5t-96.5 38.5t-93.5 17.5q-92 0 -119 -112h-161zM1067 1522l8 84q125 35 125 96q0 17 -10 25t-27 16q-38 17 -48.5 33t-10.5 39q0 81 108 81q63 0 102.5 -35.5t39.5 -97.5q0 -94 -70.5 -157 t-216.5 -84z" horiz-adv-x="2023" unicode="Ѽ"/><glyph d="M94 406q0 205 68.5 377t184.5 257.5t269 85.5q122 0 224 -61l-76 -172q-69 45 -139 45q-125 0 -209 -152t-84 -376q0 -242 182 -242q113 0 244 111q94 -111 221 -111q144 0 232.5 156.5t88.5 404.5q0 209 -133 209q-66 0 -155 -43l-51 170q120 61 251 61 q159 0 242.5 -100.5t83.5 -296.5q0 -225 -69 -399.5t-191 -262t-285 -87.5q-154 0 -258 83q-121 -83 -264 -83q-181 0 -279 109.5t-98 316.5zM623 1556q20 140 95.5 208.5t192.5 68.5q62 0 118.5 -18.5t112 -40t112.5 -40t122 -18.5h29l-33 -157h-33q-76 0 -135.5 17 t-110.5 38t-96.5 38t-93.5 17q-92 0 -119 -113h-161zM817 1210l8 84q125 36 125 99q0 17 -10 25t-27 16q-23 10 -41 23.5t-18 45.5q0 40 28 62t81 22q63 0 102 -36.5t39 -98.5q0 -93 -70 -156.5t-217 -85.5z" horiz-adv-x="1632" unicode="ѽ"/><glyph d="M139 506q0 268 90.5 503t233.5 353.5t336 118.5q176 0 293 -97l-109 -176q-41 29 -85 50.5t-99 21.5q-112 0 -204 -102t-151 -287t-59 -379q0 -156 56 -242t171 -86q103 0 161.5 65.5t86.5 188.5l53 246h238l-41 -203q-18 -86 -18 -139q0 -74 40.5 -116t120.5 -42 q127 0 226.5 99t167 303.5t67.5 412.5q0 141 -48.5 211t-139.5 70q-53 0 -98.5 -21t-98.5 -53l-88 178q147 97 320 97q192 0 295.5 -122.5t103.5 -354.5q0 -196 -54.5 -392.5t-151 -344.5t-218.5 -217.5t-279 -69.5q-236 0 -325 180q-62 -96 -147 -138t-205 -42 q-210 0 -325.5 136.5t-115.5 389.5zM815 1769l12 54h824l-13 -54l-116 -172h-49l-27 103h-162l-70 -103h-49l-26 103h-162l-70 -103h-49z" horiz-adv-x="2023" unicode="Ѿ"/><glyph d="M102 1106h234l63 -625q12 -104 16 -204l3 -74l297 495l-45 408h229l54 -666l16 -227q144 160 236.5 358.5t166.5 534.5h238q-70 -361 -211.5 -626t-374.5 -480h-231l-45 422h-5l-243 -422h-262zM492 1423l10 54h823l-10 -54l-117 -172h-51l-25 103h-161l-70 -103h-51 l-25 103h-162l-71 -103h-50z" horiz-adv-x="1585" unicode="ѿ"/><glyph d="M135 541q0 262 105.5 486.5t282 340t401.5 115.5q215 0 389 -92l-94 -195q-152 82 -295 82q-156 0 -277.5 -91t-192.5 -264t-71 -378q0 -174 84 -266.5t240 -92.5q93 0 198 33l-149 -711h-240l102 474q-229 12 -356 160t-127 399z" horiz-adv-x="1225" unicode="Ҁ"/><glyph d="M94 385q0 213 76.5 386t207.5 264t298 91q164 0 297 -61l-70 -184q-122 53 -221 53t-179.5 -71t-125.5 -195t-45 -271q0 -104 56.5 -162.5t156.5 -58.5q102 0 198 45l-151 -713h-236l105 474q-172 8 -269.5 114t-97.5 289z" horiz-adv-x="954" unicode="ҁ"/><glyph d="M111 547l69 123l287 -164l199 346l-285 164l72 125l284 -164l183 313l127 -73l-183 -316l287 -164l-74 -123l-282 164l-201 -346l285 -166l-72 -123l-285 164l-180 -313l-129 74l180 315z" horiz-adv-x="1247" unicode="҂"/><glyph d="M319 1249q0 59 34.5 94t103.5 35h436q23 95 113 95q46 0 69 -23t23 -61q0 -60 -33 -98t-102 -40h-437q-27 -94 -114 -94q-45 0 -69 27.5t-24 64.5z" horiz-adv-x="1120" unicode="҃"/><glyph d="M346 1247l33 158h16q120 0 267 59q80 31 134 44.5t101 13.5q103 0 161 -52.5t58 -150.5q0 -35 -6 -72h-154l2 20v17q0 76 -86 76q-42 0 -92 -17.5t-111 -39t-134 -39t-160 -17.5h-29z" horiz-adv-x="1161" unicode="҄"/><glyph d="M618 1452q0 69 44 110.5t114 41.5q51 0 76 -23.5t25 -60.5q0 -29 -17.5 -45.5t-46.5 -28.5q-47 -19 -47 -51q0 -53 106 -86v-80q-121 21 -187.5 79.5t-66.5 143.5z" horiz-adv-x="1161" unicode="҅"/><glyph d="M616 1229v82q132 36 132 98q0 17 -11 25t-28 16q-23 10 -40.5 24t-17.5 46q0 40 28 62t81 22q63 0 102 -37t39 -99q0 -198 -285 -239z" horiz-adv-x="1161" unicode="҆"/><glyph d="M41 459q5 90 55.5 142t153.5 52q92 0 149.5 -51t63.5 -143h-80q-5 45 -35 66.5t-98 21.5q-78 0 -103 -19.5t-30 -68.5h-76zM219 -41q5 90 55.5 142.5t153.5 52.5q92 0 149.5 -51t63.5 -144h-80q-5 45 -35 66.5t-98 21.5q-78 0 -103 -19.5t-30 -68.5h-76zM219 946 q5 90 55.5 142.5t153.5 52.5q92 0 149.5 -51t63.5 -144h-80q-5 45 -35 66.5t-98 21.5q-78 0 -103 -19.5t-30 -68.5h-76zM793 -319q5 89 55 141.5t153 52.5q92 0 149.5 -51t63.5 -143h-79q-5 44 -35 66t-99 22q-78 0 -103 -20.5t-30 -67.5h-75zM793 1231q11 194 208 194 q93 0 149.5 -50.5t63.5 -143.5h-79q-5 44 -35 66t-99 22q-78 0 -103 -20.5t-30 -67.5h-75zM1372 -41q5 90 55.5 142.5t153.5 52.5q92 0 149.5 -51t63.5 -144h-80q-5 45 -35 66.5t-98 21.5q-78 0 -103 -19.5t-30 -68.5h-76zM1372 946q5 90 55.5 142.5t153.5 52.5 q92 0 149.5 -51t63.5 -144h-80q-5 45 -35 66.5t-98 21.5q-78 0 -103 -19.5t-30 -68.5h-76zM1563 459q11 194 209 194q92 0 149.5 -52t63.5 -142h-80q-5 44 -35 66t-98 22q-78 0 -103.5 -20t-30.5 -68h-75z" horiz-adv-x="2025" unicode="҈"/><glyph d="M41 565v97q221 -53 350 -70v-139l-14 -11q-66 17 -161.5 52t-174.5 71zM238 -55q177 110 297 198l98 -98l-2 -16q-55 -34 -148 -77t-176 -75zM324 1202l67 70q123 -198 199 -297l-98 -98l-17 2q-37 61 -86 169t-65 154zM870 -385q53 221 70 350h139l11 -14 q-17 -66 -52 -161.5t-71 -174.5h-97zM870 1155q19 71 55.5 171t67.5 165h97q-52 -220 -70 -350h-139zM1325 1018l2 16q124 74 324 152l69 -68q-177 -110 -297 -198zM1366 86l98 98l17 -2q28 -44 74 -143.5t77 -179.5l-67 -70q-31 50 -96 147.5t-103 149.5zM1567 512v139 l14 11q71 -19 171 -55.5t165 -67.5v-97q-221 53 -350 70z" horiz-adv-x="1958" unicode="҉"/><glyph d="M70 0l309 1462h221q-183 -863 -209 -973t-39 -155h8l852 1128h285l-266 -1253h239l-280 -612h-275l252 403h-198l159 756q47 232 89 391l-7 2l-854 -1149h-286zM575 1851q0 27 9 60h204l-4 -53q0 -134 172 -134q104 0 159.5 43t78.5 144h217q-38 -173 -152 -254.5 t-319 -81.5q-177 0 -271 69.5t-94 206.5z" horiz-adv-x="1561" unicode="Ҋ"/><glyph d="M109 274q0 77 38 248l123 584h236l-144 -674q-16 -76 -16 -129q0 -133 127 -133q72 0 143 57t126 162.5t85 247.5l99 469h233l-194 -922h206l-249 -573h-236l209 389h-164l23 190h-9q-154 -210 -354 -210q-133 0 -207.5 75.5t-74.5 218.5zM365 1518q0 28 8 57h205l-5 -53 q0 -133 172 -133q104 0 160 43.5t78 142.5h217q-39 -174 -153.5 -254t-317.5 -80q-177 0 -270.5 69.5t-93.5 207.5z" horiz-adv-x="1237" unicode="ҋ"/><glyph d="M70 0l231 1092h-151l43 202h149l37 168h237l-36 -168h276l-45 -202h-274l-45 -224h104q229 0 345 -98t116 -285q0 -235 -161.5 -360t-463.5 -125h-362zM348 201h109q176 0 267 71.5t91 202.5q0 99 -58.5 145t-178.5 46h-129z" horiz-adv-x="1171" unicode="Ҍ"/><glyph d="M121 301q0 88 22 186l144 670h-154l35 164h154l51 235h233l-51 -235h285l-35 -164h-285l-110 -518q109 25 231 25q165 0 256.5 -77.5t91.5 -219.5q0 -115 -58 -203t-167 -136t-262 -48q-186 0 -283.5 80.5t-97.5 240.5zM352 313q0 -157 178 -157q107 0 166.5 52t59.5 136 q0 71 -43.5 107t-139.5 36q-89 0 -198 -20q-23 -101 -23 -154z" horiz-adv-x="1110" unicode="ҍ"/><glyph d="M70 0l309 1462h334q229 0 345 -100.5t116 -300.5q0 -298 -246 -432l67 -142l-151 -73l-76 157q-105 -24 -236 -24h-110l-115 -547h-237zM465 748h94q76 0 123 10l-59 129l149 71l62 -131q98 78 98 226q0 109 -59 159t-181 50h-119z" horiz-adv-x="1174" unicode="Ҏ"/><glyph d="M-55 -492l338 1598h184l-21 -188h9q157 208 344 208q143 0 224 -103t81 -286q0 -214 -79.5 -402.5t-211.5 -279.5l66 -141l-152 -72l-70 146q-45 -8 -79 -8q-183 0 -271 176h-8q-11 -133 -35 -236l-86 -412h-233zM369 373q0 -97 43.5 -150t124.5 -53l34 4l-65 141l149 72 l60 -129q70 80 110.5 208.5t40.5 266.5q0 201 -155 201q-84 0 -165 -83t-129 -213.5t-48 -264.5z" horiz-adv-x="1200" unicode="ҏ"/><glyph d="M70 0l309 1462h551l65 303h217l-106 -508h-535l-266 -1257h-235z" horiz-adv-x="1001" unicode="Ґ"/><glyph d="M47 0l236 1106h428l67 313h226l-107 -499h-420l-194 -920h-236z" horiz-adv-x="866" unicode="ґ"/><glyph d="M53 623l43 200h148l135 639h770l-43 -205h-535l-92 -434h318l-43 -200h-318l-131 -623h-235l131 623h-148z" horiz-adv-x="997" unicode="Ғ"/><glyph d="M0 453l37 180h145l101 473h655l-43 -195h-420l-59 -278h266l-39 -180h-264l-96 -453h-236l98 453h-145z" horiz-adv-x="866" unicode="ғ"/><glyph d="M70 0l309 1462h774l-43 -205h-539l-98 -464q64 16 152 16q233 0 367 -148.5t134 -402.5q0 -223 -80.5 -399t-229.5 -273.5t-345 -97.5q-161 0 -276 47v209q127 -53 256 -53q128 0 225.5 69.5t151 198t53.5 285.5q0 175 -83 268.5t-239 93.5q-87 0 -127 -10l-127 -596 h-235z" horiz-adv-x="1298" unicode="Ҕ"/><glyph d="M47 0l236 1106h659l-41 -195h-426l-61 -290q78 18 133 18q174 0 275.5 -122.5t101.5 -330.5q0 -207 -70.5 -367t-197.5 -240.5t-296 -80.5q-131 0 -217 47v213q98 -57 207 -57q155 0 244.5 128.5t89.5 344.5q0 131 -55 199.5t-154 68.5q-61 0 -104 -16l-88 -426h-236z" horiz-adv-x="1090" unicode="ҕ"/><glyph d="M-113 0l652 774l-322 688h244l313 -692l148 692h229l-147 -692l587 692h267l-627 -729l244 -532h196l-129 -604h-231l86 403h-84l-320 725l-151 -725h-230l152 723l-602 -723h-275z" horiz-adv-x="1782" unicode="Җ"/><glyph d="M-29 -6l37 188q48 -12 90 -12q95 0 170 71t117.5 194t42.5 261q0 117 -44.5 177.5t-125.5 60.5q-56 0 -117 -21v191q76 22 158 22q173 0 269 -111t96 -315q0 -27 -5 -65h168l101 471h221l-102 -471h159q55 229 196.5 360t336.5 131q83 0 137 -14l-41 -188q-44 10 -94 10 q-90 0 -163.5 -65.5t-118 -190t-44.5 -268.5q0 -117 44 -178.5t128 -61.5q78 0 154 29l-125 -588h-221l84 375q-144 18 -221.5 124.5t-77.5 292.5v33l2 33h-170l-101 -469h-219l101 469h-158q-54 -227 -196 -358t-339 -131q-68 0 -129 14z" horiz-adv-x="1841" unicode="җ"/><glyph d="M16 59v213q84 -46 189.5 -73t214.5 -27q173 0 269.5 73t96.5 201q0 115 -83.5 165.5t-237.5 50.5h-178l41 190h164q190 0 291.5 68t101.5 188q0 90 -55 135t-154 45q-173 0 -357 -121l-90 166q125 82 243 116t257 34q181 0 291 -91t110 -241q0 -160 -104 -263t-289 -128 v-4q137 -18 216 -103t79 -217q0 -214 -162 -335t-446 -121q-132 0 -229 19t-179 60zM239 -303q44 -16 95 -16q48 0 76 27t28 81q0 92 -90 211h151q115 -115 115 -244q0 -105 -66 -164t-182 -59q-74 0 -127 21v143z" horiz-adv-x="1155" unicode="Ҙ"/><glyph d="M10 51v203q170 -88 344 -88q128 0 199.5 47.5t71.5 130.5q0 72 -46.5 106.5t-146.5 34.5h-162l39 179h111q146 0 210 40t64 121q0 117 -164 117q-124 0 -297 -74l-61 174q196 84 397 84q171 0 265 -70t94 -196q0 -110 -67.5 -181.5t-190.5 -98.5v-7q90 -23 139 -81 t49 -148q0 -174 -133.5 -269t-374.5 -95q-92 0 -183.5 19t-156.5 52zM178 -303q44 -16 95 -16q48 0 76 27t28 81q0 92 -90 211h151q115 -115 115 -244q0 -105 -66 -164t-182 -59q-74 0 -127 21v143z" horiz-adv-x="983" unicode="ҙ"/><glyph d="M68 0l309 1462h239l-149 -698l623 698h276l-657 -727l282 -534h226l-127 -604h-234l88 403h-119l-366 721l-152 -721h-239z" horiz-adv-x="1317" unicode="Қ"/><glyph d="M47 0l236 1106h233l-110 -520l479 520h270l-514 -549l217 -362h211l-125 -586h-219l88 391h-108l-308 545l-114 -545h-236z" horiz-adv-x="1159" unicode="қ"/><glyph d="M68 0l309 1462h239l-149 -698l141 160l72 338h139l-31 -142l314 342h278l-639 -698l336 -764h-256l-182 422l-35 -172h-139l82 395l-123 -90l-117 -555h-239z" horiz-adv-x="1182" unicode="Ҝ"/><glyph d="M72 0l233 1106h236l-111 -520l105 108l67 320h131l-31 -144l228 236h266l-504 -518l-12 -62l313 -526h-260l-158 276l-36 -186h-133l75 350l-61 107l-115 -547h-233z" horiz-adv-x="1087" unicode="ҝ"/><glyph d="M70 0l231 1100h-139l43 203h139l35 159h237l-34 -159h161l-43 -203h-161l-74 -344l641 706h283l-623 -674l321 -788h-262l-252 655l-149 -98l-117 -557h-237z" horiz-adv-x="1198" unicode="Ҟ"/><glyph d="M47 0l258 1219h-155l36 163h154l37 174h235l-39 -174h283l-37 -163h-280l-66 -316q-40 -177 -80 -301h6l488 504h272l-483 -485l291 -621h-262l-209 471l-136 -96l-77 -375h-236z" horiz-adv-x="1071" unicode="ҟ"/><glyph d="M176 1257l43 205h563l-147 -698l622 698h277l-660 -727l386 -735h-269l-366 721l-152 -721h-237l266 1257h-326z" horiz-adv-x="1348" unicode="Ҡ"/><glyph d="M76 920l39 186h573l-110 -520l479 520h270l-516 -549l330 -557h-264l-308 545l-116 -545h-234l195 920h-338z" horiz-adv-x="1237" unicode="ҡ"/><glyph d="M70 0l309 1462h237l-127 -598h566l127 598h237l-268 -1261h223l-129 -604h-231l86 403h-228l140 659h-566l-139 -659h-237z" horiz-adv-x="1477" unicode="Ң"/><glyph d="M47 0l238 1106h233l-94 -444h442l95 444h233l-193 -911h185l-125 -586h-225l88 391h-199l100 477h-440l-102 -477h-236z" horiz-adv-x="1288" unicode="ң"/><glyph d="M70 0l309 1462h237l-127 -598h566l127 598h557l-41 -205h-322l-266 -1257h-238l140 659h-566l-139 -659h-237z" horiz-adv-x="1561" unicode="Ҥ"/><glyph d="M47 0l238 1106h233l-94 -444h442l95 444h579l-41 -186h-344l-194 -920h-236l100 477h-440l-102 -477h-236z" horiz-adv-x="1432" unicode="ҥ"/><glyph d="M70 0l309 1462h1014l-144 -669q64 16 154 16q229 0 365.5 -147t136.5 -404q0 -223 -82 -400t-231 -273.5t-341 -96.5q-164 0 -280 49v207q126 -51 258 -51q125 0 223.5 71.5t152.5 199t54 280.5q0 174 -83.5 268t-238.5 94q-83 0 -129 -10l-125 -596h-239l266 1257h-537 l-266 -1257h-237z" horiz-adv-x="2077" unicode="Ҧ"/><glyph d="M47 0l238 1106h878l-104 -485q78 18 137 18q174 0 275.5 -122.5t101.5 -330.5q0 -207 -70.5 -367t-196.5 -240.5t-296 -80.5q-129 0 -217 47v215q103 -57 206 -57q154 0 244 127.5t90 343.5q0 130 -53.5 199t-153.5 69q-62 0 -108 -16l-88 -426h-236l195 920h-412 l-194 -920h-236z" horiz-adv-x="1722" unicode="ҧ"/><glyph d="M135 545q0 266 97.5 484t270 337t390.5 119q132 0 248 -47l-70 -193q-83 35 -178 35q-145 0 -262 -92.5t-182.5 -260t-65.5 -374.5q0 -173 80 -272t225 -99h23l18 2q-76 136 -76 330q0 183 57 332.5t160.5 233t231.5 83.5q147 0 226 -92t79 -270q0 -199 -85.5 -377.5 t-236.5 -288.5q37 -18 93 -18q65 0 139 26v-200q-62 -27 -164 -27q-168 0 -270 94q-90 -30 -209 -30q-254 0 -396.5 149t-142.5 416zM883 498q0 -146 49 -238q110 81 178 235.5t68 323.5q0 156 -91 156q-81 0 -142.5 -138.5t-61.5 -338.5z" horiz-adv-x="1485" unicode="Ҩ"/><glyph d="M94 434q0 197 73.5 359.5t203 247.5t299.5 85q50 0 105 -8.5t91 -21.5l-53 -181q-64 23 -139 23q-102 0 -178 -61t-120 -183.5t-44 -267.5q0 -124 52.5 -193t147.5 -69h27l21 2q-25 40 -43.5 102.5t-18.5 137.5q0 204 100.5 327t264.5 123q125 0 194.5 -73t69.5 -199 q0 -138 -66.5 -266t-175.5 -195q31 -12 72 -12q55 0 117 20v-174q-66 -23 -148 -23q-130 0 -237 80q-93 -34 -205 -34q-193 0 -301.5 120t-108.5 334zM731 408q0 -53 11 -101.5t28 -77.5q74 53 121 152t47 201q0 98 -68 98q-62 0 -100.5 -81t-38.5 -191z" horiz-adv-x="1241" unicode="ҩ"/><glyph d="M135 545q0 260 105.5 483t281.5 339t402 116q217 0 389 -92l-94 -195q-63 34 -134 58t-161 24q-154 0 -275 -89t-193.5 -259.5t-72.5 -374.5q0 -180 82.5 -275.5t243.5 -95.5q141 0 329 68v-205q-180 -67 -374 -67q-248 0 -388.5 148.5t-140.5 416.5zM413 -303 q44 -16 95 -16q48 0 76 27t28 81q0 92 -90 211h151q115 -115 115 -244q0 -105 -66 -164t-182 -59q-74 0 -127 21v143z" horiz-adv-x="1225" unicode="Ҫ"/><glyph d="M94 389q0 207 73.5 376.5t206.5 265t302 95.5q164 0 297 -61l-70 -184q-122 53 -221 53q-150 0 -250 -153.5t-100 -379.5q0 -111 56 -171t155 -60q74 0 138.5 22t129.5 54v-195q-140 -71 -305 -71q-196 0 -304 106t-108 303zM256 -303q44 -16 95 -16q48 0 76 27t28 81 q0 92 -90 211h151q115 -115 115 -244q0 -105 -66 -164t-182 -59q-74 0 -127 21v143z" horiz-adv-x="954" unicode="ҫ"/><glyph d="M176 1257l45 205h998l-43 -205h-381l-224 -1056h220l-129 -604h-232l86 403h-225l264 1257h-379z" horiz-adv-x="1053" unicode="Ҭ"/><glyph d="M47 0l236 1106h184l-21 -205h9q148 225 352 225q220 0 254 -235h8q75 116 170.5 175.5t198.5 59.5q133 0 202.5 -77.5t69.5 -221.5q0 -55 -22 -172l-74 -344q-8 -34 -8 -67q0 -34 17 -52t46 -18q42 0 92 19l-123 -584h-225l88 383q-137 39 -137 198q0 61 14 117 q48 222 73 340t22 154q0 133 -119 133q-108 0 -201.5 -124t-136.5 -329l-101 -481h-235l143 672q17 82 17 127q0 135 -117 135q-110 0 -203.5 -127t-138.5 -338l-98 -469h-236z" horiz-adv-x="1853" unicode="ҭ"/><glyph d="M186 1462h242l154 -669l432 669h266l-623 -913l-114 -549h-238l119 553z" horiz-adv-x="1092" unicode="Ү"/><glyph d="M100 1106h232l55 -559q8 -78 21 -293h6q51 128 137 285l303 567h250l-619 -1108l-104 -490h-240l105 490z" horiz-adv-x="997" unicode="ү"/><glyph d="M92 311l43 205h281l8 37l-238 909h242l154 -669l432 669h266l-623 -913l-8 -33h293l-43 -205h-291l-65 -311h-238l66 311h-279z" horiz-adv-x="1092" unicode="Ұ"/><glyph d="M-45 -178l39 178h250l-144 1106h232l55 -559q5 -46 19 -295h6q40 101 139 287l303 567h250l-619 -1106h267l-39 -178h-267l-65 -314h-240l66 314h-252z" horiz-adv-x="997" unicode="ұ"/><glyph d="M-111 0l586 770l-250 692h246l178 -540l402 540h266l-551 -710l199 -551h215l-129 -604h-232l86 403h-121l-192 592l-438 -592h-265z" horiz-adv-x="1290" unicode="Ҳ"/><glyph d="M-57 0l475 569l-232 537h246l143 -373l287 373h275l-461 -549l162 -362h206l-124 -584h-220l88 389h-110l-158 387l-307 -387h-270z" horiz-adv-x="1135" unicode="ҳ"/><glyph d="M176 1255l43 207h985l-43 -207h-366l-222 -1050h545l266 1257h238l-266 -1253h186l-129 -612h-233l86 403h-977l266 1255h-379z" horiz-adv-x="1653" unicode="Ҵ"/><glyph d="M90 920l39 186h795l-39 -186h-279l-104 -488q-17 -81 -17 -129q0 -133 125 -133q74 0 144 56t126 162.5t87 248.5l98 469h235l-170 -795q-8 -34 -8 -67q0 -32 17.5 -51t46.5 -19q40 0 92 19l-123 -584h-227l90 383q-60 21 -90.5 69.5t-38.5 128.5h-4q-154 -210 -355 -210 q-134 0 -207 75.5t-73 214.5q0 86 24 195l97 455h-281z" horiz-adv-x="1370" unicode="ҵ"/><glyph d="M215 791q0 63 14 127l115 544h238l-111 -528q-12 -48 -12 -98q0 -138 166 -138q94 0 176 21t170 55l143 688h240l-269 -1261h222l-129 -602h-234l86 401h-225l123 580q-118 -48 -203.5 -67t-165.5 -19q-165 0 -254.5 77.5t-89.5 219.5z" horiz-adv-x="1417" unicode="Ҷ"/><glyph d="M160 662q0 77 24 188l56 256h235l-61 -289q-19 -76 -19 -127q0 -66 35 -101.5t98 -35.5q242 0 340 434l27 119h233l-192 -911h184l-125 -584h-225l88 389h-201l123 532h-8q-147 -170 -330 -170q-134 0 -208 79t-74 221z" horiz-adv-x="1210" unicode="ҷ"/><glyph d="M215 793q0 50 12 112l117 557h238l-113 -540q-10 -46 -10 -84q0 -68 37.5 -102.5t117.5 -37.5l72 336h141l-69 -323q91 15 213 63l143 688h240l-310 -1462h-239l123 580q-124 -52 -211 -70l-68 -315h-141l65 299q-171 0 -264.5 77t-93.5 222z" horiz-adv-x="1343" unicode="Ҹ"/><glyph d="M160 659q0 75 24 191l56 256h235q-40 -191 -61.5 -293t-18.5 -123q0 -119 105 -135l55 260h133l-55 -246q166 72 244 416l26 121h234l-236 -1106h-235l63 305q3 17 9 41t24.5 96t25.5 90h-8q-82 -107 -186 -145l-55 -258h-131l49 233q-144 0 -220.5 77t-76.5 220z" horiz-adv-x="1186" unicode="ҹ"/><glyph d="M68 0l309 1462h239l-122 -581q127 52 210.5 70t157.5 18q167 0 255.5 -78.5t88.5 -222.5q0 -52 -12 -113l-117 -555h-237l114 539q11 47 11 86q0 137 -168 137q-94 0 -176 -21t-168 -55l-146 -686h-239z" horiz-adv-x="1343" unicode="Һ"/><glyph d="M47 0l236 1106h237q-43 -203 -65 -306t-56 -225h9q145 168 327 168q135 0 209 -79.5t74 -217.5q0 -88 -55 -328l-25 -118h-236l62 291q10 49 16 127q0 65 -34 101t-99 36q-247 0 -340 -438l-24 -117h-236z" horiz-adv-x="1208" unicode="һ"/><glyph d="M94 872q0 108 62 189h200q-47 -77 -47 -137q0 -82 84 -82h17q81 298 277.5 470.5t465.5 172.5q199 0 309.5 -94.5t110.5 -264.5q0 -245 -209 -364t-637 -119h-104q-5 -27 -5 -82q0 -189 84.5 -283t243.5 -94q86 0 174.5 18.5t212.5 67.5v-209q-114 -46 -216.5 -63.5 t-211.5 -17.5q-252 0 -392 148.5t-140 414.5q0 31 8 106q-133 2 -210 60t-77 163zM662 842h73q302 0 447 67t145 211q0 78 -50 118t-136 40q-162 0 -292 -117t-187 -319z" horiz-adv-x="1581" unicode="Ҽ"/><glyph d="M49 682q0 40 13.5 85t39.5 79h183q-43 -63 -43 -131q0 -31 17 -55.5t58 -24.5h17q58 226 207.5 358.5t345.5 132.5q165 0 253.5 -72.5t88.5 -205.5q0 -181 -167 -284t-474 -103h-43l-4 -60q0 -111 56 -174t169 -63q72 0 141 18.5t172 65.5v-187q-170 -81 -358 -81 q-197 0 -307.5 112t-110.5 309v33l2 31q-256 18 -256 217zM571 633h31q185 0 292 53t107 152q0 54 -35 81t-94 27q-97 0 -180.5 -87.5t-120.5 -225.5z" horiz-adv-x="1284" unicode="ҽ"/><glyph d="M94 872q0 108 62 189h200q-47 -77 -47 -137q0 -82 84 -82h17q84 300 279.5 471.5t463.5 171.5q199 0 309.5 -94.5t110.5 -264.5q0 -249 -212 -366t-652 -117h-86q-5 -27 -5 -82q0 -189 84.5 -283t243.5 -94q86 0 174.5 18.5t212.5 67.5v-209q-165 -69 -348 -79l-80 -385 h-237l86 399q-180 39 -280.5 181t-100.5 366q0 31 8 106q-133 2 -210 60t-77 163zM662 842h73q302 0 447 67t145 211q0 78 -50 118t-136 40q-162 0 -292 -117t-187 -319z" horiz-adv-x="1581" unicode="Ҿ"/><glyph d="M49 682q0 40 13.5 85t39.5 79h183q-43 -63 -43 -131q0 -31 17 -55.5t58 -24.5h17q58 226 207.5 358.5t345.5 132.5q165 0 253.5 -72.5t88.5 -205.5q0 -181 -167 -284t-474 -103h-43l-4 -60q0 -111 56 -174t169 -63q72 0 141 18.5t172 65.5v-187q-142 -68 -286 -79 l-76 -373h-225l83 389q-130 35 -201 138t-71 265v33l2 31q-256 18 -256 217zM571 633h31q185 0 292 53t107 152q0 54 -35 81t-94 27q-97 0 -180.5 -87.5t-120.5 -225.5z" horiz-adv-x="1284" unicode="ҿ"/><glyph d="M70 0l311 1462h235l-311 -1462h-235z" horiz-adv-x="608" unicode="Ӏ"/><glyph d="M-113 0l652 774l-322 688h244l313 -692l148 692h229l-147 -692l587 692h267l-627 -729l334 -733h-252l-320 725l-151 -725h-230l152 723l-602 -723h-275zM686 1856q0 28 8 57h205l-4 -53q0 -133 172 -133q106 0 161.5 44.5t75.5 141.5h217q-39 -174 -153.5 -254 t-317.5 -80q-177 0 -270.5 69.5t-93.5 207.5z" horiz-adv-x="1681" unicode="Ӂ"/><glyph d="M-29 -6l37 188q48 -12 90 -12q95 0 170 71t117.5 194t42.5 261q0 117 -44.5 177.5t-125.5 60.5q-56 0 -117 -21v191q76 22 158 22q173 0 269 -111t96 -315q0 -27 -5 -65h168l101 471h221l-102 -471h159q55 229 196.5 360t336.5 131q83 0 137 -14l-41 -188q-44 10 -94 10 q-90 0 -163.5 -65.5t-118 -190t-44.5 -268.5q0 -115 42.5 -177.5t125.5 -62.5q50 0 117 23v-193q-70 -20 -156 -20q-172 0 -268 108.5t-96 314.5v33l2 33h-170l-101 -469h-219l101 469h-158q-54 -227 -196 -358t-339 -131q-68 0 -129 14zM686 1518q0 28 8 57h205l-4 -53 q0 -133 172 -133q106 0 161.5 44.5t75.5 141.5h217q-39 -174 -153.5 -254t-317.5 -80q-177 0 -270.5 69.5t-93.5 207.5z" horiz-adv-x="1837" unicode="ӂ"/><glyph d="M70 0l309 1462h237l-149 -698l623 698h278l-625 -684q207 -23 322 -160.5t115 -367.5q0 -220 -80.5 -395t-229.5 -271t-346 -96q-158 0 -276 47v209q125 -53 256 -53q128 0 225.5 68.5t151 195t53.5 283.5q0 172 -85 261t-249 89q-89 0 -176 -27l-117 -561h-237z" horiz-adv-x="1352" unicode="Ӄ"/><glyph d="M47 0l236 1106h233l-110 -520l479 520h270l-479 -510q157 -28 239 -140.5t82 -289.5q0 -197 -66.5 -348.5t-193.5 -235.5t-301 -84q-133 0 -223 47v213q98 -57 207 -57q156 0 248 121.5t92 337.5q0 129 -66.5 203.5t-181.5 74.5q-73 0 -143 -24l-86 -414h-236z" horiz-adv-x="1159" unicode="ӄ"/><glyph d="M-63 2v201q55 -21 100 -21q68 0 112 31.5t85.5 103.5t94.5 225t124 402.5t141 517.5h786l-266 -1253h238l-279 -612h-274l252 403h-220l269 1255h-328q-135 -520 -227.5 -793.5t-195.5 -379t-279 -105.5q-81 0 -133 25z" horiz-adv-x="1444" unicode="Ӆ"/><glyph d="M-78 2v197q36 -15 76 -15q49 0 86 32.5t71.5 99t102.5 262.5q73 209 122.5 299.5t109.5 142t141 76t196 24.5q156 0 295 -43l-188 -893h209l-252 -575h-234l207 391h-205l197 920q-37 8 -70 8q-72 0 -119 -32t-87.5 -107t-114.5 -293q-87 -251 -140 -339.5t-122 -131.5 t-166 -43q-64 0 -115 20z" horiz-adv-x="1223" unicode="ӆ"/><glyph d="M70 0l309 1462h237l-127 -598h566l127 598h237l-291 -1380q-65 -307 -218 -450.5t-410 -143.5q-163 0 -279 49v217q138 -51 266 -51q171 0 267.5 98t146.5 330l111 528h-566l-139 -659h-237z" horiz-adv-x="1411" unicode="Ӈ"/><glyph d="M47 0l238 1106h233l-94 -444h442l95 444h233l-231 -1090q-60 -275 -177.5 -396.5t-320.5 -121.5q-138 0 -238 53v211q108 -61 222 -61q115 0 181 81.5t105 266.5l90 428h-440l-102 -477h-236z" horiz-adv-x="1243" unicode="ӈ"/><glyph d="M70 0l309 1462h237l-127 -598h566l127 598h237l-266 -1253h242l-281 -612h-272l250 403h-220l140 659h-566l-139 -659h-237z" horiz-adv-x="1485" unicode="Ӊ"/><glyph d="M47 0l238 1106h233l-94 -444h442l95 444h233l-195 -922h209l-250 -573h-235l207 389h-205l100 477h-440l-102 -477h-236z" horiz-adv-x="1288" unicode="ӊ"/><glyph d="M215 793q0 50 12 112l117 557h238l-113 -540q-10 -46 -10 -84q0 -140 166 -140q94 0 176 21t168 55l145 688h240l-310 -1462h-225l-86 -403h-231l129 604h217l80 379q-118 -48 -203.5 -67t-165.5 -19q-166 0 -255 78.5t-89 220.5z" horiz-adv-x="1343" unicode="Ӌ"/><glyph d="M182 662q0 36 7 81.5t73 362.5h236l-62 -289q-16 -80 -16 -127q0 -137 131 -137q122 0 209.5 110t132.5 326l25 117h233l-233 -1106h-211l-82 -391h-226l131 586h191q33 154 47.5 214t34.5 115h-8q-139 -162 -328 -162q-138 0 -211.5 81t-73.5 219z" horiz-adv-x="1200" unicode="ӌ"/><glyph d="M68 0l309 1462h323l109 -1149h6l606 1149h344l-262 -1253h238l-279 -612h-272l250 403h-207l166 788q21 97 56.5 244.5t45.5 181.5h-6l-643 -1214h-205l-115 1214h-6q-16 -158 -73 -426l-166 -788h-219z" horiz-adv-x="1831" unicode="Ӎ"/><glyph d="M41 0l235 1106h297l95 -678l16 -176q29 79 94 194l377 660h313l-196 -924h209l-248 -571h-238l209 389h-190l180 844q-2 -3 -3.5 -6.5t-465.5 -837.5h-176l-99 671q-13 83 -16 173l-178 -844h-215z" horiz-adv-x="1563" unicode="ӎ"/><glyph d="M70 0l311 1462h235l-311 -1462h-235z" horiz-adv-x="608" unicode="ӏ"/><glyph d="M-121 0l783 1464h274l166 -1464h-234l-41 406h-485l-209 -406h-254zM446 614h365q-40 416 -45.5 503.5t-5.5 139.5q-55 -139 -142 -307zM453 1856q0 28 8 57h205l-4 -53q0 -133 172 -133q106 0 161.5 44.5t75.5 141.5h217q-39 -174 -153.5 -254t-317.5 -80 q-177 0 -270.5 69.5t-93.5 207.5z" horiz-adv-x="1210" unicode="Ӑ"/><glyph d="M94 367q0 202 69.5 378t191.5 278.5t268 102.5q97 0 167 -45.5t109 -132.5h10l62 158h180l-236 -1106h-182l21 176h-6q-158 -196 -349 -196q-141 0 -223 101.5t-82 285.5zM332 373q0 -102 40.5 -152.5t112.5 -50.5q82 0 161 77.5t130 207.5t51 284q0 88 -47 141.5 t-123 53.5q-85 0 -160 -77t-120 -209.5t-45 -274.5zM381 1518q0 28 8 57h205l-4 -53q0 -133 172 -133q106 0 161.5 44.5t75.5 141.5h217q-39 -174 -153.5 -254t-317.5 -80q-177 0 -270.5 69.5t-93.5 207.5z" horiz-adv-x="1186" unicode="ӑ"/><glyph d="M-121 0l783 1464h274l166 -1464h-234l-41 406h-485l-209 -406h-254zM446 614h365q-40 416 -45.5 503.5t-5.5 139.5q-55 -139 -142 -307zM514 1718q0 60 35 98t98 38q48 0 76.5 -23.5t28.5 -71.5q0 -65 -35.5 -102t-93.5 -37q-47 0 -78 23.5t-31 74.5zM897 1718 q0 60 35 98t98 38q48 0 76.5 -23.5t28.5 -71.5q0 -65 -35.5 -102t-93.5 -37q-47 0 -78 23.5t-31 74.5z" horiz-adv-x="1210" unicode="Ӓ"/><glyph d="M94 367q0 202 69.5 378t191.5 278.5t268 102.5q97 0 167 -45.5t109 -132.5h10l62 158h180l-236 -1106h-182l21 176h-6q-158 -196 -349 -196q-141 0 -223 101.5t-82 285.5zM332 373q0 -102 40.5 -152.5t112.5 -50.5q82 0 161 77.5t130 207.5t51 284q0 88 -47 141.5 t-123 53.5q-85 0 -160 -77t-120 -209.5t-45 -274.5zM426 1380q0 60 35 98t98 38q48 0 76.5 -23.5t28.5 -71.5q0 -65 -35.5 -102t-93.5 -37q-47 0 -78 23.5t-31 74.5zM809 1380q0 60 35 98t98 38q48 0 76.5 -23.5t28.5 -71.5q0 -65 -35.5 -102t-93.5 -37q-47 0 -78 23.5 t-31 74.5z" horiz-adv-x="1186" unicode="ӓ"/><glyph d="M-121 0l930 1462h1020l-43 -205h-539l-84 -395h504l-43 -200h-502l-98 -459h539l-43 -203h-777l86 406h-432l-256 -406h-262zM528 614h344l138 643h-82z" horiz-adv-x="1753" unicode="Ӕ"/><glyph d="M94 367q0 201 69 378t188.5 279t260.5 102q88 0 152 -43.5t108 -134.5h9l63 158h148l-25 -117q51 63 131 100t180 37q140 0 220.5 -76.5t80.5 -201.5q0 -182 -166.5 -284.5t-474.5 -102.5h-45l-4 -60q0 -117 60.5 -177t175.5 -60q125 0 305 84v-189q-175 -79 -344 -79 q-222 0 -305 137l-23 -117h-151l20 176h-8q-85 -106 -165.5 -151t-174.5 -45q-134 0 -209.5 103t-75.5 284zM332 373q0 -105 37 -154t96 -49q85 0 162.5 80.5t125.5 215.5t48 267q0 91 -38.5 146t-113.5 55q-85 0 -159.5 -80t-116 -211t-41.5 -270zM1022 633h31 q187 0 293 53.5t106 149.5q0 58 -34 84t-85 26q-103 0 -188.5 -86t-122.5 -227z" horiz-adv-x="1726" unicode="ӕ"/><glyph d="M70 0l309 1462h776l-43 -205h-539l-84 -395h502l-41 -203h-504l-96 -456h539l-43 -203h-776zM408 1856q0 28 8 57h205l-4 -53q0 -133 172 -133q106 0 161.5 44.5t75.5 141.5h217q-39 -174 -153.5 -254t-317.5 -80q-177 0 -270.5 69.5t-93.5 207.5z" horiz-adv-x="1077" unicode="Ӗ"/><glyph d="M94 401q0 198 77.5 368.5t210 263.5t296.5 93q161 0 250.5 -72.5t89.5 -205.5q0 -182 -166.5 -284.5t-474.5 -102.5h-43l-2 -31v-29q0 -111 56.5 -174t168.5 -63q72 0 143 19t168 65v-187q-96 -44 -176.5 -62.5t-179.5 -18.5q-197 0 -307.5 111t-110.5 310zM362 633h29 q188 0 294 53.5t106 151.5q0 51 -32 79.5t-95 28.5q-96 0 -180.5 -86t-121.5 -227zM325 1518q0 28 8 57h205l-4 -53q0 -133 172 -133q106 0 161.5 44.5t75.5 141.5h217q-39 -174 -153.5 -254t-317.5 -80q-177 0 -270.5 69.5t-93.5 207.5z" horiz-adv-x="1075" unicode="ӗ"/><glyph d="M76 336q0 247 212 365t644 118h104q6 52 6 90q0 177 -85 273t-236 96q-198 0 -402 -86v209q107 45 207 64.5t222 19.5q258 0 398 -150.5t140 -416.5q0 -253 -102 -474t-279.5 -342.5t-394.5 -121.5q-209 0 -321.5 94t-112.5 262zM322 344q0 -72 48.5 -116t139.5 -44 q166 0 293 111.5t194 325.5h-129q-268 0 -407 -67.5t-139 -209.5z" horiz-adv-x="1352" unicode="Ә"/><glyph d="M55 258q0 182 166.5 284.5t474.5 102.5h43l2 31v29q0 111 -56 174t-169 63q-70 0 -139.5 -18t-171.5 -66v186q97 46 180 64t176 18q197 0 307.5 -111t110.5 -310q0 -198 -77.5 -368.5t-210 -263.5t-296.5 -93q-161 0 -250.5 72.5t-89.5 205.5zM283 268q0 -51 32 -79.5 t95 -28.5q97 0 182 88t119 225h-29q-189 0 -294 -54t-105 -151z" horiz-adv-x="1075" unicode="ә"/><glyph d="M76 336q0 247 212 365t644 118h104q6 52 6 90q0 177 -85 273t-236 96q-198 0 -402 -86v209q107 45 207 64.5t222 19.5q258 0 398 -150.5t140 -416.5q0 -253 -102 -474t-279.5 -342.5t-394.5 -121.5q-209 0 -321.5 94t-112.5 262zM322 344q0 -72 48.5 -116t139.5 -44 q166 0 293 111.5t194 325.5h-129q-268 0 -407 -67.5t-139 -209.5zM553 1718q0 60 35 98t98 38q48 0 76.5 -23.5t28.5 -71.5q0 -65 -35.5 -102t-93.5 -37q-47 0 -78 23.5t-31 74.5zM936 1718q0 60 35 98t98 38q48 0 76.5 -23.5t28.5 -71.5q0 -65 -35.5 -102t-93.5 -37 q-47 0 -78 23.5t-31 74.5z" horiz-adv-x="1352" unicode="Ӛ"/><glyph d="M55 258q0 182 166.5 284.5t474.5 102.5h43l2 31v29q0 111 -56 174t-169 63q-70 0 -139.5 -18t-171.5 -66v186q97 46 180 64t176 18q197 0 307.5 -111t110.5 -310q0 -198 -77.5 -368.5t-210 -263.5t-296.5 -93q-161 0 -250.5 72.5t-89.5 205.5zM283 268q0 -51 32 -79.5 t95 -28.5q97 0 182 88t119 225h-29q-189 0 -294 -54t-105 -151zM349 1380q0 60 35 98t98 38q48 0 76.5 -23.5t28.5 -71.5q0 -65 -35.5 -102t-93.5 -37q-47 0 -78 23.5t-31 74.5zM732 1380q0 60 35 98t98 38q48 0 76.5 -23.5t28.5 -71.5q0 -65 -35.5 -102t-93.5 -37 q-47 0 -78 23.5t-31 74.5z" horiz-adv-x="1075" unicode="ӛ"/><glyph d="M-113 0l652 774l-322 688h244l313 -692l148 692h229l-147 -692l587 692h267l-627 -729l334 -733h-252l-320 725l-151 -725h-230l152 723l-602 -723h-275zM766 1718q0 60 35 98t98 38q48 0 76.5 -23.5t28.5 -71.5q0 -65 -35.5 -102t-93.5 -37q-47 0 -78 23.5t-31 74.5z M1149 1718q0 60 35 98t98 38q48 0 76.5 -23.5t28.5 -71.5q0 -65 -35.5 -102t-93.5 -37q-47 0 -78 23.5t-31 74.5z" horiz-adv-x="1681" unicode="Ӝ"/><glyph d="M-29 -6l37 188q48 -12 90 -12q95 0 170 71t117.5 194t42.5 261q0 117 -44.5 177.5t-125.5 60.5q-56 0 -117 -21v191q76 22 158 22q173 0 269 -111t96 -315q0 -27 -5 -65h168l101 471h221l-102 -471h159q55 229 196.5 360t336.5 131q83 0 137 -14l-41 -188q-44 10 -94 10 q-90 0 -163.5 -65.5t-118 -190t-44.5 -268.5q0 -115 42.5 -177.5t125.5 -62.5q50 0 117 23v-193q-70 -20 -156 -20q-172 0 -268 108.5t-96 314.5v33l2 33h-170l-101 -469h-219l101 469h-158q-54 -227 -196 -358t-339 -131q-68 0 -129 14zM770 1380q0 60 35 98t98 38 q48 0 76.5 -23.5t28.5 -71.5q0 -65 -35.5 -102t-93.5 -37q-47 0 -78 23.5t-31 74.5zM1153 1380q0 60 35 98t98 38q48 0 76.5 -23.5t28.5 -71.5q0 -65 -35.5 -102t-93.5 -37q-47 0 -78 23.5t-31 74.5z" horiz-adv-x="1837" unicode="ӝ"/><glyph d="M16 59v213q84 -46 189.5 -73t214.5 -27q173 0 269.5 73t96.5 201q0 115 -83.5 165.5t-237.5 50.5h-178l41 190h164q190 0 291.5 68t101.5 188q0 90 -55 135t-154 45q-173 0 -357 -121l-90 166q125 82 243 116t257 34q181 0 291 -91t110 -241q0 -160 -104 -263t-289 -128 v-4q137 -18 216 -103t79 -217q0 -214 -162 -335t-446 -121q-132 0 -229 19t-179 60zM451 1718q0 60 35 98t98 38q48 0 76.5 -23.5t28.5 -71.5q0 -65 -35.5 -102t-93.5 -37q-47 0 -78 23.5t-31 74.5zM834 1718q0 60 35 98t98 38q48 0 76.5 -23.5t28.5 -71.5q0 -65 -35.5 -102 t-93.5 -37q-47 0 -78 23.5t-31 74.5z" horiz-adv-x="1155" unicode="Ӟ"/><glyph d="M10 51v203q170 -88 344 -88q128 0 199.5 47.5t71.5 130.5q0 72 -46.5 106.5t-146.5 34.5h-162l39 179h111q146 0 210 40t64 121q0 117 -164 117q-124 0 -297 -74l-61 174q196 84 397 84q171 0 265 -70t94 -196q0 -110 -67.5 -181.5t-190.5 -98.5v-7q90 -23 139 -81 t49 -148q0 -174 -133.5 -269t-374.5 -95q-92 0 -183.5 19t-156.5 52zM323 1380q0 60 35 98t98 38q48 0 76.5 -23.5t28.5 -71.5q0 -65 -35.5 -102t-93.5 -37q-47 0 -78 23.5t-31 74.5zM706 1380q0 60 35 98t98 38q48 0 76.5 -23.5t28.5 -71.5q0 -65 -35.5 -102t-93.5 -37 q-47 0 -78 23.5t-31 74.5z" horiz-adv-x="983" unicode="ӟ"/><glyph d="M6 59v213q80 -45 179.5 -72.5t183.5 -27.5q172 0 269 76.5t97 210.5q0 105 -66.5 157t-205.5 52h-158l37 172l446 415h-522l43 207h828l-35 -168l-504 -463q180 -10 281.5 -105t101.5 -261q0 -225 -161.5 -355t-446.5 -130q-99 0 -196 19.5t-171 59.5z" horiz-adv-x="1106" unicode="Ӡ"/><glyph d="M-115 -207q160 -92 336 -92q174 0 272.5 96.5t98.5 253.5q0 125 -77.5 190.5t-223.5 65.5h-103l35 164l443 447h-512l41 188h792l-33 -160l-489 -483q167 -14 266.5 -118.5t99.5 -274.5q0 -167 -72.5 -295t-208 -198.5t-314.5 -70.5q-201 0 -351 76v211z" horiz-adv-x="1026" unicode="ӡ"/><glyph d="M70 0l309 1462h221q-183 -863 -209 -973t-39 -155h8l852 1128h285l-309 -1462h-219q112 532 173.5 827t74.5 322h-7l-854 -1149h-286zM649 1579l37 176h582l-37 -176h-582z" horiz-adv-x="1487" unicode="Ӣ"/><glyph d="M111 274q0 63 12 124.5t24 123.5l123 584h236l-129 -610q-31 -141 -31 -193q0 -133 127 -133q72 0 143 57t126 162.5t85 247.5l99 469h233l-233 -1106h-185l21 205h-8q-82 -116 -171 -170.5t-192 -54.5q-134 0 -207 76t-73 218zM442 1241l37 176h582l-37 -176h-582z" horiz-adv-x="1208" unicode="ӣ"/><glyph d="M70 0l309 1462h221q-183 -863 -209 -973t-39 -155h8l852 1128h285l-309 -1462h-219q112 532 173.5 827t74.5 322h-7l-854 -1149h-286zM649 1718q0 60 35 98t98 38q48 0 76.5 -23.5t28.5 -71.5q0 -65 -35.5 -102t-93.5 -37q-47 0 -78 23.5t-31 74.5zM1032 1718q0 60 35 98 t98 38q48 0 76.5 -23.5t28.5 -71.5q0 -65 -35.5 -102t-93.5 -37q-47 0 -78 23.5t-31 74.5z" horiz-adv-x="1487" unicode="Ӥ"/><glyph d="M111 274q0 63 12 124.5t24 123.5l123 584h236l-129 -610q-31 -141 -31 -193q0 -133 127 -133q72 0 143 57t126 162.5t85 247.5l99 469h233l-233 -1106h-185l21 205h-8q-82 -116 -171 -170.5t-192 -54.5q-134 0 -207 76t-73 218zM432 1380q0 60 35 98t98 38 q48 0 76.5 -23.5t28.5 -71.5q0 -65 -35.5 -102t-93.5 -37q-47 0 -78 23.5t-31 74.5zM815 1380q0 60 35 98t98 38q48 0 76.5 -23.5t28.5 -71.5q0 -65 -35.5 -102t-93.5 -37q-47 0 -78 23.5t-31 74.5z" horiz-adv-x="1208" unicode="ӥ"/><glyph d="M135 543q0 267 98.5 487.5t269.5 337.5t388 117q251 0 390.5 -149t139.5 -414q0 -279 -95 -497t-261.5 -331.5t-386.5 -113.5q-259 0 -401 149.5t-142 413.5zM383 545q0 -173 81.5 -267t227.5 -94q138 0 248.5 95.5t172 265t61.5 375.5q0 170 -79 265t-223 95 q-138 0 -250 -96t-175.5 -266.5t-63.5 -372.5zM623 1718q0 60 35 98t98 38q48 0 76.5 -23.5t28.5 -71.5q0 -65 -35.5 -102t-93.5 -37q-47 0 -78 23.5t-31 74.5zM1006 1718q0 60 35 98t98 38q48 0 76.5 -23.5t28.5 -71.5q0 -65 -35.5 -102t-93.5 -37q-47 0 -78 23.5t-31 74.5 z" horiz-adv-x="1485" unicode="Ӧ"/><glyph d="M94 408q0 199 71.5 365t200.5 258.5t298 92.5q195 0 305 -116t110 -316q0 -202 -73 -367.5t-200.5 -254t-293.5 -88.5q-192 0 -305 114.5t-113 311.5zM332 403q0 -111 49.5 -170t146.5 -59q90 0 162 68t112 190.5t40 269.5q0 107 -49 167.5t-140 60.5q-93 0 -166.5 -71.5 t-114 -194t-40.5 -261.5zM404 1380q0 60 35 98t98 38q48 0 76.5 -23.5t28.5 -71.5q0 -65 -35.5 -102t-93.5 -37q-47 0 -78 23.5t-31 74.5zM787 1380q0 60 35 98t98 38q48 0 76.5 -23.5t28.5 -71.5q0 -65 -35.5 -102t-93.5 -37q-47 0 -78 23.5t-31 74.5z" horiz-adv-x="1174" unicode="ӧ"/><glyph d="M135 543q0 267 98.5 487.5t269.5 337.5t388 117q251 0 390.5 -149t139.5 -414q0 -279 -95 -497t-261.5 -331.5t-386.5 -113.5q-259 0 -401 149.5t-142 413.5zM381 545q0 -171 82 -266t229 -95q155 0 276.5 121.5t174.5 339.5h-756q-6 -44 -6 -100zM424 848h747q5 35 5 72 q0 169 -80.5 264.5t-223.5 95.5q-152 0 -272 -114.5t-176 -317.5z" horiz-adv-x="1485" unicode="Ө"/><glyph d="M94 408q0 199 71.5 365t200.5 258.5t298 92.5q193 0 304 -113.5t111 -310.5q0 -204 -74 -373t-201 -257t-290 -88q-192 0 -306 115t-114 311zM328 401q0 -111 51.5 -171t148.5 -60q98 0 176 81.5t113 221.5h-485q-4 -27 -4 -72zM365 651h479v51q0 113 -48.5 172.5 t-142.5 59.5q-98 0 -174 -76.5t-114 -206.5z" horiz-adv-x="1174" unicode="ө"/></font>
</defs>
</svg>
